osu file format v14

[General]
AudioFilename: audio.mp3
AudioLeadIn: 0
PreviewTime: 29787
Countdown: 0
SampleSet: Soft
StackLeniency: 0.7
Mode: 0
LetterboxInBreaks: 0
WidescreenStoryboard: 1

[Editor]
Bookmarks: 15491,30491,45491,60491,75491,90491,105491,120491,135491
DistanceSpacing: 1
BeatDivisor: 12
GridSize: 32
TimelineZoom: 0.8

[Metadata]
Title:FLASHBACK (Radio Edit)
TitleUnicode:FLASHBACK (Radio Edit)
Artist:DeBisco
ArtistUnicode:DeBisco
Creator:Shii
Version:Easy
Source:
Tags:Electronic Japanese Instrumental ShiiTsuin
BeatmapID:4486759
BeatmapSetID:2132887

[Difficulty]
HPDrainRate:2
CircleSize:2.5
OverallDifficulty:2
ApproachRate:3.5
SliderMultiplier:1.1
SliderTickRate:1

[Events]
//Background and Video events
0,0,"DeBisco - FLASHBACK.jpeg",0,0
//Break Periods
//Storyboard Layer 0 (Background)
//Storyboard Layer 1 (Fail)
//Storyboard Layer 2 (Pass)
//Storyboard Layer 3 (Foreground)
//Storyboard Layer 4 (Overlay)
//Storyboard Sound Samples

[TimingPoints]
491,468.75,4,2,1,100,1,0
15491,-100,4,2,1,70,0,0
30491,-90.9090909090909,4,2,1,85,0,1
60491,-111.111111111111,4,2,1,60,0,0
75491,-100,4,2,1,70,0,0
90491,-90.9090909090909,4,2,1,85,0,1
135491,-90.9090909090909,4,2,1,85,0,0
136428,-90.9090909090909,4,2,1,75,0,0
137366,-90.9090909090909,4,2,1,65,0,0
138303,-90.9090909090909,4,2,1,55,0,0
139241,-90.9090909090909,4,2,1,45,0,0
140178,-90.9090909090909,4,2,1,35,0,0
141116,-90.9090909090909,4,2,1,25,0,0
142053,-90.9090909090909,4,2,1,15,0,0
142991,-90.9090909090909,4,2,1,5,0,0

[Colours]
Combo1 : 236,136,136
Combo2 : 164,145,204
Combo3 : 239,204,41
Combo4 : 234,189,162

[HitObjects]
35,369,15491,6,0,P|140:359|493:339,1,440,6|2,1:2|1:2,0:0:0:0:
477,15,19241,2,0,P|371:24|18:44,1,440,6|2,1:2|1:2,0:0:0:0:
351,312,22991,6,0,P|360:224|388:84,1,220,6|0,1:2|1:2,0:0:0:0:
161,72,24866,2,0,P|151:159|123:299,1,220,6|0,1:2|1:2,0:0:0:0:
318,379,26741,6,0,P|342:342|327:269,1,110,6|2,1:2|1:2,0:0:0:0:
263,200,27678,2,0,P|252:147|279:100,1,110,4|0,1:2|1:2,0:0:0:0:
366,40,28616,5,6,1:2:0:0:
195,280,30022,6,0,P|204:305|211:332,1,55,8|8,3:3|3:3,0:0:0:0:
211,332,30491,6,0,B|276:323|262:275|321:265,2,121.000003692627,6|10|2,3:2|1:2|3:2,0:0:0:0:
125,375,31780,2,0,P|113:331|98:288,1,90.7500027694703,2|2,0:0|0:0,0:0:0:0:
98,288,32366,2,0,B|33:279|47:231|-12:221,2,121.000003692627,2|10|2,3:2|1:2|3:2,0:0:0:0:
178,237,33655,2,0,P|189:193|204:150,1,90.7500027694703,2|2,0:0|3:2,0:0:0:0:
204,150,34241,6,0,B|269:141|255:93|314:83,1,121.000003692627,2|10,3:2|1:2,0:0:0:0:
400,13,35178,1,2,3:2:0:0:
480,55,35530,1,2,0:0:0:0:
505,147,35881,2,0,P|497:183|484:268,1,121.000003692627,2|2,0:0|0:0,0:0:0:0:
484,266,36584,2,0,P|448:258|363:245,1,121.000003692627,10|2,1:2|3:2,0:0:0:0:
276,322,37522,1,10,1:2:0:0:
201,236,37991,6,0,P|155:273|98:263,2,121.000003692627,6|10|2,3:2|1:2|3:2,0:0:0:0:
252,162,39280,2,0,P|254:116|264:65,1,90.7500027694703,2|2,0:0|0:0,0:0:0:0:
262,72,39866,2,0,P|293:59|370:119,2,121.000003692627,2|10|2,3:2|1:2|3:2,0:0:0:0:
170,112,41155,2,0,P|168:66|158:15,1,90.7500027694703,2|2,0:0|3:2,0:0:0:0:
159,22,41741,6,0,P|127:9|50:69,1,121.000003692627,2|10,3:2|1:2,0:0:0:0:
0,151,42678,1,2,3:2:0:0:
11,239,43030,1,2,0:0:0:0:
22,323,43381,2,0,P|28:358|34:385,1,60.5000018463135,2|10,0:0|1:2,0:0:0:0:
490,274,45491,6,0,P|502:204|514:150,2,121.000003692627,6|10|2,3:2|1:2|3:2,0:0:0:0:
444,354,46780,1,2,0:0:0:0:
358,380,47131,1,2,0:0:0:0:
358,380,47366,2,0,P|298:367|239:357,1,121.000003692627,2|10,3:2|1:2,0:0:0:0:
104,341,48303,1,2,3:2:0:0:
54,266,48655,1,2,0:0:0:0:
125,208,49006,1,2,3:2:0:0:
125,208,49241,6,0,P|195:220|249:232,2,121.000003692627,2|10|2,3:2|1:2|3:2,0:0:0:0:
75,129,50530,1,2,0:0:0:0:
144,65,50881,1,2,0:0:0:0:
144,65,51116,2,0,P|214:77|268:89,1,121.000003692627,2|10,3:2|1:2,0:0:0:0:
361,175,52053,1,2,3:2:0:0:
432,126,52405,1,2,0:0:0:0:
497,196,52756,1,2,3:2:0:0:
497,196,52991,6,0,P|511:258|485:323,2,121.000003692627,6|10|2,3:2|1:2|3:2,0:0:0:0:
431,126,54280,1,2,0:0:0:0:
354,80,54631,1,2,0:0:0:0:
354,80,54866,2,0,P|296:62|238:76,1,121.000003692627,2|10,3:2|1:2,0:0:0:0:
187,194,55803,1,2,3:2:0:0:
212,280,56155,1,2,0:0:0:0:
155,350,56506,1,2,3:2:0:0:
155,350,56741,6,0,P|97:367|39:353,2,121.000003692627,2|10|2,3:2|1:2|3:2,0:0:0:0:
212,280,58030,1,2,0:0:0:0:
279,340,58381,2,0,L|344:323,1,60.5000018463135,2|10,0:0|1:2,0:0:0:0:
0,43,60491,5,6,3:2:0:0:
70,109,60959,2,0,L|235:65,1,148.49999546814,8|0,1:2|3:2,0:0:0:0:
213,71,61897,1,8,1:2:0:0:
293,6,62366,2,0,L|458:49,1,148.49999546814,2|2,3:2|0:0,0:0:0:0:
493,131,63537,2,0,L|478:185,1,49.4999984893799,2|10,3:2|1:2,0:0:0:0:
453,274,64241,5,2,3:2:0:0:
418,369,64709,2,0,P|394:369|313:279,1,148.49999546814,10|0,1:2|3:2,0:0:0:0:
313,286,65647,1,10,1:2:0:0:
227,244,66116,6,0,B|212:301|229:309|219:359,2,98.9999969787599,2|8|4,3:2|1:2|3:3,0:0:0:0:
409,180,67991,5,2,3:2:0:0:
468,99,68459,2,0,P|455:70|341:32,1,148.49999546814,8|0,1:2|3:2,0:0:0:0:
353,28,69397,1,8,1:2:0:0:
290,107,69866,2,0,P|277:136|163:174,1,148.49999546814,2|2,3:2|0:0,0:0:0:0:
116,99,71037,2,0,L|121:45,1,49.4999984893799,2|10,3:2|1:2,0:0:0:0:
26,14,71741,5,2,3:2:0:0:
1,115,72209,2,0,P|8:161|20:267,1,148.49999546814,10|0,1:2|3:2,0:0:0:0:
19,262,73147,1,10,1:2:0:0:
122,304,73616,6,0,P|127:254|134:205,1,98.9999969787599,2|8,3:2|1:2,0:0:0:0:
219,150,74553,1,0,3:2:0:0:
210,51,75022,1,10,3:2:0:0:
120,14,75491,6,0,P|10:118|107:374,1,440,6|2,1:2|1:2,0:0:0:0:
391,14,79241,2,0,P|501:118|404:374,1,440,6|2,1:2|1:2,0:0:0:0:
122,90,82991,6,0,P|167:85|363:49,1,220,6|2,1:2|1:2,0:0:0:0:
390,294,84866,2,0,P|345:299|149:335,1,220,6|2,1:2|1:2,0:0:0:0:
15,140,86741,6,0,P|59:143|130:155,1,110,6|2,1:2|1:2,0:0:0:0:
204,218,87678,2,0,P|248:215|319:203,1,110,6|2,1:2|1:2,0:0:0:0:
387,132,88616,5,6,1:2:0:0:
0,51,90491,6,0,L|198:16,1,181.500005538941,6|2,3:2|0:0,0:0:0:0:
299,0,91662,1,2,0:0:0:0:
404,65,92131,1,2,0:0:0:0:
404,65,92366,2,0,L|507:83,2,90.7500027694703,2|2|2,3:2|0:0|0:0,0:0:0:0:
298,119,93537,2,0,L|234:130,2,60.5000018463135,2|10|2,0:0|1:2|3:2,0:0:0:0:
298,119,94241,6,0,L|333:317,1,181.500005538941,2|2,3:2|0:0,0:0:0:0:
413,384,95412,1,2,0:0:0:0:
496,295,95881,1,2,0:0:0:0:
496,295,96116,2,0,L|515:191,2,90.7500027694703,2|2|2,3:2|0:0|3:2,0:0:0:0:
496,295,97053,1,2,3:2:0:0:
413,384,97522,1,10,1:2:0:0:
329,297,97991,6,0,L|317:234,2,60.5000018463135,6|2|10,3:2|0:0|1:2,0:0:0:0:
329,297,98694,1,2,0:0:0:0:
246,376,99162,1,2,0:0:0:0:
277,205,99866,6,0,L|288:142,2,60.5000018463135,2|2|10,3:2|0:0|1:2,0:0:0:0:
277,205,100569,1,2,0:0:0:0:
360,284,101037,1,2,0:0:0:0:
313,111,101741,6,0,L|301:48,2,60.5000018463135,2|2|10,3:2|0:0|1:2,0:0:0:0:
313,111,102444,1,2,0:0:0:0:
230,190,102912,1,2,0:0:0:0:
259,17,103616,5,10,1:2:0:0:
0,111,105491,6,0,P|36:38|147:22,1,181.500005538941,6|2,3:2|0:0,0:0:0:0:
226,67,106662,1,2,0:0:0:0:
196,176,107131,1,2,0:0:0:0:
196,176,107366,2,0,P|150:176|102:143,2,90.7500027694703,2|2|2,3:2|0:0|0:0,0:0:0:0:
283,247,108537,2,0,P|313:247|345:225,2,60.5000018463135,2|10|2,0:0|1:2|3:2,0:0:0:0:
283,247,109241,6,0,P|319:174|430:158,1,181.500005538941,2|2,3:2|0:0,0:0:0:0:
509,203,110412,1,2,0:0:0:0:
479,312,110881,1,2,0:0:0:0:
479,312,111116,2,0,P|433:312|385:279,2,90.7500027694703,2|2|2,3:2|0:0|3:2,0:0:0:0:
479,312,112053,1,2,3:2:0:0:
505,204,112522,1,10,1:2:0:0:
408,135,112991,6,0,P|394:103|403:57,2,60.5000018463135,6|2|10,3:2|0:0|1:2,0:0:0:0:
408,135,113694,1,2,0:0:0:0:
353,245,114162,1,2,0:0:0:0:
263,100,114866,6,0,P|249:68|258:22,2,60.5000018463135,2|2|10,3:2|0:0|1:2,0:0:0:0:
263,100,115569,1,2,0:0:0:0:
208,210,116037,1,2,0:0:0:0:
106,71,116741,6,0,P|92:39|101:-7,2,60.5000018463135,2|2|10,3:2|0:0|1:2,0:0:0:0:
106,71,117444,1,2,0:0:0:0:
59,185,117912,1,2,0:0:0:0:
0,17,118616,5,10,1:2:0:0:
5,351,120491,6,0,B|76:337|76:337|125:355|125:355|187:344,1,181.500005538941,6|2,3:2|0:0,0:0:0:0:
249,255,121662,1,2,0:0:0:0:
354,296,122131,1,2,0:0:0:0:
354,296,122366,2,0,B|371:334|371:334|351:380,2,90.7500027694703,2|2|2,3:2|0:0|0:0,0:0:0:0:
416,196,123537,2,0,B|404:170|404:170|417:140,2,60.5000018463135,2|10|2,0:0|1:2|3:2,0:0:0:0:
416,196,124241,6,0,B|345:182|345:182|296:200|296:200|234:189,1,181.500005538941,2|2,3:2|0:0,0:0:0:0:
133,248,125412,1,2,0:0:0:0:
60,165,125881,1,2,0:0:0:0:
60,165,126116,2,0,B|43:127|43:127|63:81,2,90.7500027694703,2|2|2,3:2|0:0|3:2,0:0:0:0:
60,165,127053,1,2,3:2:0:0:
135,252,127522,1,10,1:2:0:0:
239,190,127991,6,0,B|247:168|247:168|244:126,2,60.5000018463135,6|2|10,3:2|0:0|1:2,0:0:0:0:
239,190,128694,1,2,0:0:0:0:
245,302,129162,1,2,0:0:0:0:
340,149,129866,6,0,B|332:127|332:127|335:85,2,60.5000018463135,2|2|10,3:2|0:0|1:2,0:0:0:0:
340,149,130569,1,2,0:0:0:0:
341,263,131037,1,2,0:0:0:0:
437,129,131741,6,0,B|445:107|445:107|442:65,2,60.5000018463135,2|2|10,3:2|0:0|1:2,0:0:0:0:
437,129,132444,1,2,0:0:0:0:
443,241,132912,1,2,0:0:0:0:
349,97,133616,5,10,1:2:0:0:
256,192,135491,12,0,142991,0:0:0:0:
