osu file format v14

[General]
AudioFilename: shrek.mp3
AudioLeadIn: 0
PreviewTime: 259032
Countdown: 0
SampleSet: Soft
StackLeniency: 0.4
Mode: 0
LetterboxInBreaks: 0
WidescreenStoryboard: 1

[Editor]
Bookmarks: 9612,17292,21120,44160,51840,59520,74880,90240,105600,109212,120960,136320,150552,151680,167040,174705,182400,197760,213120,228480,243840,246412,258720,258780,258840,258900,258960,259020,259080,259140,274545,289905,305265,312945,320652,329802,329832,329862,329892,329922,329952,329982,330012,330042,330072,330102,330132,330162,330192,330222,330252,330282,330312,330342,330372
DistanceSpacing: 2.4
BeatDivisor: 16
GridSize: 32
TimelineZoom: 3.599999

[Metadata]
Title:Zonnestraal (MOEWE Remix)
TitleUnicode:Zonnestraal (MÖWE Remix)
Artist:De Hofnar
ArtistUnicode:De Hofnar
Creator:kelinimo
Version:The Sunbeam is Rising Over The Swamp
Source:
Tags:shrek playing saxophone shreksophone dance meme deep house edm chillwave electronic english crosswalk records wajinshu
BeatmapID:2581846
BeatmapSetID:1162640

[Difficulty]
HPDrainRate:6
CircleSize:4.5
OverallDifficulty:7
ApproachRate:9.2
SliderMultiplier:2.5
SliderTickRate:1

[Events]
//Background and Video events
0,0,"75620004_p0.jpg",0,0
//Break Periods
2,52052,58962
2,197972,212562
//Storyboard Layer 0 (Background)
//Storyboard Layer 1 (Fail)
//Storyboard Layer 2 (Pass)
//Storyboard Layer 3 (Foreground)
//Storyboard Layer 4 (Overlay)
//Storyboard Sound Samples

[TimingPoints]
12,480,4,2,1,30,1,0
12,-192.307692307692,4,2,1,30,0,0
4812,-161.290322580645,4,2,1,30,0,0
9612,-138.888888888889,4,2,1,32,0,0
13452,-121.951219512195,4,2,1,35,0,0
17292,-108.695652173913,4,2,1,40,0,0
17652,-108.695652173913,4,2,1,5,0,0
17772,-108.695652173913,4,2,1,40,0,0
18132,-108.695652173913,4,2,1,5,0,0
18252,-108.695652173913,4,2,1,40,0,0
18612,-108.695652173913,4,2,1,5,0,0
18732,-108.695652173913,4,2,1,40,0,0
19092,-108.695652173913,4,2,1,5,0,0
19212,-161.290322580645,4,2,1,32,0,0
21132,-98.0392156862746,4,2,1,50,0,0
24972,-81.9672131147541,4,2,1,50,0,0
25452,-89.2857142857143,4,2,1,50,0,0
31212,-98.0392156862745,4,2,1,50,0,0
32652,-108.695652173913,4,2,1,50,0,0
33132,-98.0392156862745,4,2,1,50,0,0
34572,-89.2857142857143,4,2,1,50,0,0
40332,-98.0392156862745,4,2,1,50,0,0
40812,-89.2857142857143,4,2,1,50,0,0
45732,-98.0392156862745,4,2,1,50,0,0
46092,-89.2857142857143,4,2,1,50,0,0
47652,-81.9672131147541,4,2,1,50,0,0
48012,-108.695652173913,4,2,1,50,0,0
51852,-108.695652173913,4,2,1,45,0,0
60012,-108.695652173913,4,2,1,55,0,0
60492,-89.2857142857143,4,2,1,55,0,0
63252,-121.951219512195,4,2,1,55,0,0
64332,-89.2857142857143,4,2,1,55,0,0
65292,-98.0392156862745,4,2,1,55,0,0
66012,-196.078431372549,4,2,1,55,0,0
67212,-98.0392156862745,4,2,1,55,0,0
69132,-92.5925925925926,4,2,1,55,0,0
70092,-98.0392156862745,4,2,1,55,0,0
70932,-108.695652173913,4,2,1,55,0,0
72012,-138.888888888889,4,2,1,55,0,0
72972,-208.333333333333,4,2,1,55,0,0
74532,-138.888888888889,4,2,1,55,0,0
74892,-81.9672131147541,4,2,1,65,0,0
82212,-108.695652173913,4,2,1,65,0,0
82572,-81.9672131147541,4,2,1,65,0,0
83052,-75.7575757575758,4,2,1,65,0,0
83532,-81.9672131147541,4,2,1,65,0,0
89892,-108.695652173913,4,2,1,65,0,0
90252,-108.695652173913,4,2,1,50,0,0
93132,-217.391304347826,4,2,1,50,0,0
94092,-89.2857142857143,4,2,1,50,0,0
94572,-108.695652173913,4,2,1,50,0,0
95052,-217.391304347826,4,2,1,50,0,0
96012,-89.2857142857143,4,2,1,50,0,0
96492,-98.0392156862745,4,2,1,50,0,0
96972,-196.078431372549,4,2,1,50,0,0
97932,-238.095238095238,4,2,1,50,0,0
98412,-98.0392156862745,4,2,1,50,0,0
99492,-196.078431372549,4,2,1,50,0,0
99852,-98.0392156862745,4,2,1,50,0,0
100092,-138.888888888889,4,2,1,50,0,0
100332,-81.9672131147541,4,2,1,50,0,0
100572,-121.951219512195,4,2,1,50,0,0
100812,-89.2857142857143,4,2,1,50,0,0
101412,-178.571428571429,4,2,1,50,0,0
102012,-108.695652173913,4,2,1,50,0,0
102252,-81.9672131147541,4,2,1,50,0,0
103212,-163.934426229508,4,2,1,50,0,0
103932,-81.9672131147541,4,2,1,50,0,0
104652,-108.695652173913,4,2,1,50,0,0
105132,-217.391304347826,4,2,1,50,0,0
105612,-108.695652173913,4,2,1,50,0,0
107652,-163.934426229508,4,2,1,50,0,0
108012,-89.2857142857144,4,2,1,50,0,0
108492,-178.571428571429,4,2,1,50,0,0
109452,-81.9672131147541,4,2,1,55,0,0
109932,-89.2857142857143,4,2,1,55,0,0
110412,-178.571428571429,4,2,1,55,0,0
111372,-89.2857142857143,4,2,1,60,0,0
111852,-81.9672131147541,4,2,1,60,0,0
112332,-163.934426229508,4,2,1,60,0,0
113772,-81.9672131147541,4,2,1,65,0,0
114852,-163.934426229508,4,2,1,65,0,0
115212,-75.7575757575758,4,2,1,70,0,0
115452,-108.695652173913,4,2,1,70,0,0
115692,-75.7575757575758,4,2,1,70,0,0
115932,-108.695652173913,4,2,1,70,0,0
116172,-81.9672131147541,4,2,1,70,0,0
116772,-163.934426229508,4,2,1,70,0,0
117612,-81.9672131147541,4,2,1,77,0,0
118572,-163.934426229508,4,2,1,77,0,0
120972,-61.7283950617284,4,2,11,100,0,1
121453,-192.307692307692,4,2,11,100,0,1
121932,-192.307692307692,4,2,12,100,0,1
122052,-121.951219512195,4,2,13,100,0,1
122292,-121.951219512195,4,2,1,100,0,1
122413,-61.7283950617284,4,2,14,100,0,1
122892,-61.7283950617284,4,2,15,100,0,1
123072,-108.695652173913,4,2,14,100,0,1
123131,-108.695652173913,4,2,16,100,0,1
123372,-54.9450549450549,4,2,16,100,0,1
123612,-45.045045045045,4,2,16,100,0,1
123852,-90.0900900900901,4,2,16,100,0,1
124332,-90.0900900900901,4,2,1,100,0,1
124572,-70.4225352112676,4,2,16,100,0,1
124812,-70.4225352112676,4,2,13,100,0,1
125051,-70.4225352112676,4,2,14,100,0,1
125292,-61.7283950617284,4,2,14,100,0,1
125772,-123.456790123457,4,2,14,100,0,1
126252,-61.7283950617284,4,2,1,100,0,1
126492,-61.7283950617284,4,2,14,100,0,1
126732,-52.0833333333333,4,2,17,100,0,1
126972,-52.0833333333333,4,2,14,100,0,1
127212,-61.7283950617284,4,2,14,100,0,1
127692,-123.456790123457,4,2,14,100,0,1
128172,-89.2857142857143,4,2,1,100,0,1
128412,-70.4225352112676,4,2,15,100,0,1
128652,-161.290322580645,4,2,15,100,0,1
128891,-161.290322580645,4,2,14,100,0,1
129132,-54.9450549450549,4,2,17,100,0,1
129612,-49.5049504950495,4,2,12,100,0,1
129852,-49.5049504950495,4,2,13,100,0,1
129972,-65.7894736842105,4,2,14,100,0,1
130212,-65.7894736842105,4,2,13,100,0,1
130452,-65.7894736842105,4,2,1,100,0,1
130572,-54.9450549450549,4,2,14,100,0,1
130692,-54.9450549450549,4,2,1,100,0,1
130812,-108.695652173913,4,2,15,100,0,1
131052,-45.045045045045,4,2,12,100,0,1
131292,-81.9672131147541,4,2,13,100,0,1
131532,-54.9450549450549,4,2,14,100,0,1
131772,-54.9450549450549,4,2,15,100,0,1
131892,-54.9450549450549,4,2,14,100,0,1
132132,-109.89010989011,4,2,14,100,0,1
132372,-109.89010989011,4,2,1,100,0,1
132612,-98.0392156862745,4,2,14,100,0,1
132732,-98.0392156862745,4,2,1,100,0,1
132972,-52.0833333333333,4,2,17,100,0,1
133452,-58.1395348837209,4,2,14,100,0,1
133932,-116.279069767442,4,2,14,100,0,1
134412,-54.9450549450549,4,2,1,100,0,1
134652,-54.9450549450549,4,2,14,100,0,1
134892,-109.89010989011,4,2,13,100,0,1
135132,-109.89010989011,4,2,14,100,0,1
135372,-58.1395348837209,4,2,14,100,0,1
136092,-58.1395348837209,4,2,1,100,0,1
136332,-52.0833333333333,4,2,11,100,0,1
136812,-138.888888888889,4,2,11,100,0,1
137292,-138.888888888889,4,2,12,100,0,1
137412,-121.951219512195,4,2,13,100,0,1
137652,-121.951219512195,4,2,1,100,0,1
137772,-65.7894736842105,4,2,14,100,0,1
138252,-65.7894736842105,4,2,15,100,0,1
138432,-121.951219512195,4,2,14,100,0,1
138492,-121.951219512195,4,2,16,100,0,1
138732,-61.7283950617284,4,2,16,100,0,1
139212,-109.89010989011,4,2,16,100,0,1
139692,-75.7575757575758,4,2,1,100,0,1
139932,-61.7283950617284,4,2,16,100,0,1
140172,-65.7894736842105,4,2,13,100,0,1
140411,-65.7894736842105,4,2,14,100,0,1
140652,-52.0833333333333,4,2,14,100,0,1
141132,-104.166666666667,4,2,14,100,0,1
141612,-70.4225352112676,4,2,1,100,0,1
141852,-70.4225352112676,4,2,14,100,0,1
142092,-70.4225352112676,4,2,17,100,0,1
142331,-70.4225352112676,4,2,14,100,0,1
142572,-52.0833333333333,4,2,14,100,0,1
143052,-104.166666666667,4,2,14,100,0,1
143532,-61.7283950617284,4,2,1,100,0,1
143772,-61.7283950617284,4,2,15,100,0,1
144012,-138.888888888889,4,2,15,100,0,1
144252,-138.888888888889,4,2,14,100,0,1
144492,-54.9450549450549,4,2,17,100,0,1
144972,-54.9450549450549,4,2,12,100,0,1
145212,-54.9450549450549,4,2,13,100,0,1
145332,-54.9450549450549,4,2,14,100,0,1
145572,-54.9450549450549,4,2,13,100,0,1
145812,-54.9450549450549,4,2,1,100,0,1
145932,-47.1698113207547,4,2,14,100,0,1
146052,-47.1698113207547,4,2,1,100,0,1
146172,-98.0392156862745,4,2,15,100,0,1
146412,-43.1034482758621,4,2,12,100,0,1
146652,-98.0392156862745,4,2,13,100,0,1
146892,-61.7283950617284,4,2,14,100,0,1
147132,-61.7283950617284,4,2,15,100,0,1
147252,-52.0833333333333,4,2,14,100,0,1
147492,-104.166666666667,4,2,14,100,0,1
147732,-104.166666666667,4,2,1,100,0,1
147972,-104.166666666667,4,2,14,100,0,1
148092,-81.9672131147541,4,2,1,100,0,1
148332,-61.7283950617284,4,2,17,100,0,1
148812,-61.7283950617284,4,2,14,100,0,1
149292,-123.456790123457,4,2,14,100,0,1
149772,-61.7283950617284,4,2,1,100,0,1
150012,-61.7283950617284,4,2,14,100,0,1
150252,-123.456790123457,4,2,13,100,0,1
150492,-123.456790123457,4,2,14,100,0,1
151212,-165.289256198347,4,2,14,100,0,1
151452,-165.289256198347,4,2,1,100,0,0
151692,-192.307692307692,4,2,1,50,0,0
157452,-192.307692307692,4,2,1,55,0,0
159372,-138.888888888889,4,2,1,55,0,0
165132,-138.888888888889,4,2,1,60,0,0
174732,-121.951219512195,4,2,1,60,0,0
182412,-98.0392156862744,4,2,1,70,0,0
194412,-81.9672131147541,4,2,1,70,0,0
195372,-89.2857142857143,4,2,1,70,0,0
213132,-121.951219512195,4,2,1,55,0,0
213612,-192.307692307692,4,2,1,55,0,0
215172,-161.290322580645,4,2,1,55,0,0
215532,-121.951219512195,4,2,1,55,0,0
216012,-243.90243902439,4,2,1,55,0,0
216972,-81.9672131147541,4,2,1,55,0,0
217452,-108.695652173913,4,2,1,55,0,0
217932,-217.391304347826,4,2,1,55,0,0
218892,-104.166666666667,4,2,1,55,0,0
219372,-121.951219512195,4,2,1,55,0,0
219852,-243.90243902439,4,2,1,55,0,0
221292,-121.951219512195,4,2,1,63,0,0
222732,-89.2857142857143,4,2,1,63,0,0
222972,-178.571428571429,4,2,1,63,0,0
223212,-89.2857142857143,4,2,1,63,0,0
223452,-178.571428571429,4,2,1,63,0,0
223692,-89.2857142857143,4,2,1,63,0,0
224292,-178.571428571429,4,2,1,63,0,0
224772,-161.290322580645,4,2,1,63,0,0
225132,-98.0392156862745,4,2,1,63,0,0
226092,-196.078431372549,4,2,1,63,0,0
227052,-81.9672131147541,4,2,1,63,0,0
227532,-123.456790123457,4,2,1,63,0,0
228012,-246.913580246914,4,2,1,63,0,0
228492,-98.0392156862745,4,2,1,68,0,0
228972,-238.095238095238,4,2,1,68,0,0
229572,-217.391304347826,4,2,1,68,0,0
230532,-161.290322580645,4,2,1,68,0,0
230892,-108.695652173913,4,2,1,68,0,0
231372,-217.391304347826,4,2,1,68,0,0
232332,-75.7575757575758,4,2,1,68,0,0
232812,-108.695652173913,4,2,1,68,0,0
233292,-217.391304347826,4,2,1,68,0,0
234252,-98.0392156862745,4,2,1,73,0,0
235212,-196.078431372549,4,2,1,73,0,0
236652,-81.9672131147541,4,2,1,78,0,0
237492,-98.0392156862745,4,2,1,78,0,0
238092,-81.9672131147541,4,2,1,80,0,0
238332,-163.934426229508,4,2,1,80,0,0
238572,-81.9672131147541,4,2,1,80,0,0
238812,-163.934426229508,4,2,1,80,0,0
239052,-98.0392156862745,4,2,1,80,0,0
239652,-196.078431372549,4,2,1,80,0,0
240132,-138.888888888889,4,2,1,80,0,0
240492,-89.2857142857143,4,2,1,80,0,0
241452,-178.571428571429,4,2,1,80,0,0
243852,-138.888888888889,4,2,0,35,0,0
244332,-172.413793103448,4,2,0,35,0,0
244812,-238.095238095238,4,2,0,35,0,0
245292,-312.499999999999,4,2,0,32,0,0
245772,-312.499999999999,4,2,0,29,0,0
247692,-138.888888888889,4,2,0,35,0,0
248172,-172.413793103448,4,2,0,35,0,0
248652,-238.095238095239,4,2,0,35,0,0
249132,-312.500000000001,4,2,0,32,0,0
249612,-312.500000000001,4,2,0,29,0,0
251532,-138.888888888889,4,2,0,45,0,0
252012,-172.413793103448,4,2,0,45,0,0
252492,-238.095238095239,4,2,0,45,0,0
252972,-312.500000000001,4,2,0,38,0,0
253452,-312.500000000001,4,2,0,40,0,0
255372,-138.888888888889,4,2,0,63,0,0
255852,-172.413793103448,4,2,0,63,0,0
256332,-238.095238095239,4,2,0,63,0,0
256812,-312.500000000001,4,2,0,63,0,0
257292,-312.500000000001,4,2,0,68,0,0
257452,-312.500000000001,4,2,0,71,0,0
257612,-312.500000000001,4,2,0,74,0,0
257772,-312.500000000001,4,2,0,77,0,0
257932,-312.500000000001,4,2,0,80,0,0
258092,-312.500000000001,4,2,0,83,0,0
258252,-75.7575757575758,4,2,0,86,0,0
258732,-75.7575757575758,4,2,0,5,0,0
259212,-49.5049504950495,4,2,11,100,0,1
259692,-161.290322580645,4,2,11,100,0,1
260172,-161.290322580645,4,2,12,100,0,1
260292,-108.695652173913,4,2,13,100,0,1
260531,-108.695652173913,4,2,1,100,0,1
260652,-49.5049504950495,4,2,14,100,0,1
261132,-49.5049504950495,4,2,15,100,0,1
261312,-49.5049504950495,4,2,14,100,0,1
261371,-49.5049504950495,4,2,16,100,0,1
262092,-99.009900990099,4,2,16,100,0,1
262572,-49.5049504950495,4,2,1,100,0,1
262812,-49.5049504950495,4,2,16,100,0,1
263052,-49.5049504950495,4,2,13,100,0,1
263291,-49.5049504950495,4,2,14,100,0,1
264012,-99.009900990099,4,2,14,100,0,1
264492,-49.5049504950495,4,2,1,100,0,1
264732,-49.5049504950495,4,2,14,100,0,1
264972,-49.5049504950495,4,2,17,100,0,1
265211,-49.5049504950495,4,2,14,100,0,1
265932,-99.009900990099,4,2,14,100,0,1
266412,-54.9450549450549,4,2,1,100,0,1
266652,-54.9450549450549,4,2,15,100,0,1
266892,-98.0392156862745,4,2,15,100,0,1
267132,-98.0392156862745,4,2,14,100,0,1
267372,-54.9450549450549,4,2,17,100,0,1
267852,-54.9450549450549,4,2,12,100,0,1
268092,-54.9450549450549,4,2,13,100,0,1
268212,-54.9450549450549,4,2,14,100,0,1
268452,-54.9450549450549,4,2,13,100,0,1
268692,-54.9450549450549,4,2,1,100,0,1
268812,-54.9450549450549,4,2,14,100,0,1
268932,-54.9450549450549,4,2,1,100,0,1
269052,-138.888888888889,4,2,15,100,0,1
269292,-54.9450549450549,4,2,12,100,0,1
269532,-138.888888888889,4,2,13,100,0,1
269772,-54.945054945055,4,2,14,100,0,1
270012,-54.945054945055,4,2,15,100,0,1
270132,-49.5049504950495,4,2,14,100,0,1
270372,-99.009900990099,4,2,14,100,0,1
270611,-99.009900990099,4,2,1,100,0,1
270852,-70.4225352112676,4,2,14,100,0,1
270972,-70.4225352112676,4,2,1,100,0,1
271212,-49.5049504950495,4,2,17,100,0,1
271692,-49.5049504950495,4,2,14,100,0,1
272172,-99.009900990099,4,2,14,100,0,1
272652,-49.5049504950495,4,2,1,100,0,1
272892,-49.5049504950495,4,2,14,100,0,1
273132,-99.009900990099,4,2,13,100,0,1
273371,-99.009900990099,4,2,14,100,0,1
273612,-54.9450549450549,4,2,14,100,0,1
274332,-54.9450549450549,4,2,1,100,0,1
274572,-47.1698113207547,4,2,11,100,0,1
275052,-121.951219512195,4,2,11,100,0,1
275532,-108.695652173913,4,2,12,100,0,1
275652,-75.7575757575758,4,2,13,100,0,1
275891,-75.7575757575758,4,2,1,100,0,1
276012,-47.1698113207547,4,2,14,100,0,1
276492,-47.1698113207547,4,2,15,100,0,1
276672,-54.9450549450549,4,2,14,100,0,1
276732,-54.9450549450549,4,2,16,100,0,1
277452,-109.89010989011,4,2,16,100,0,1
277932,-54.9450549450549,4,2,1,100,0,1
278172,-54.9450549450549,4,2,16,100,0,1
278412,-54.9450549450549,4,2,13,100,0,1
278652,-54.9450549450549,4,2,14,100,0,1
279372,-109.89010989011,4,2,14,100,0,1
279852,-54.9450549450549,4,2,1,100,0,1
280092,-54.9450549450549,4,2,14,100,0,1
280332,-54.9450549450549,4,2,17,100,0,1
280572,-54.9450549450549,4,2,14,100,0,1
280812,-47.1698113207547,4,2,14,100,0,1
281292,-94.3396226415094,4,2,14,100,0,1
281772,-47.1698113207547,4,2,1,100,0,1
282012,-47.1698113207547,4,2,15,100,0,1
282252,-121.951219512195,4,2,15,100,0,1
282492,-121.951219512195,4,2,14,100,0,1
282732,-47.1698113207547,4,2,17,100,0,1
283212,-47.1698113207547,4,2,12,100,0,1
283452,-47.1698113207547,4,2,13,100,0,1
283572,-47.1698113207547,4,2,14,100,0,1
283812,-47.1698113207547,4,2,13,100,0,1
284052,-47.1698113207547,4,2,1,100,0,1
284172,-41.3223140495868,4,2,14,100,0,1
284291,-41.3223140495868,4,2,1,100,0,1
284412,-82.6446280991736,4,2,15,100,0,1
284652,-41.3223140495868,4,2,12,100,0,1
284892,-82.6446280991736,4,2,13,100,0,1
285132,-52.0833333333333,4,2,14,100,0,1
285372,-52.0833333333333,4,2,15,100,0,1
285492,-52.0833333333333,4,2,14,100,0,1
285732,-104.166666666667,4,2,14,100,0,1
285972,-104.166666666667,4,2,1,100,0,1
286212,-54.9450549450549,4,2,14,100,0,1
286332,-54.9450549450549,4,2,1,100,0,1
286572,-47.1698113207547,4,2,17,100,0,1
287052,-47.1698113207547,4,2,14,100,0,1
287532,-94.3396226415094,4,2,14,100,0,1
288012,-47.1698113207547,4,2,1,100,0,1
288252,-47.1698113207547,4,2,14,100,0,1
288492,-94.3396226415094,4,2,13,100,0,1
288732,-94.3396226415094,4,2,14,100,0,1
288972,-47.1698113207547,4,2,14,100,0,1
289212,-54.9450549450549,4,2,14,100,0,1
289452,-70.4225352112676,4,2,14,100,0,1
289692,-70.4225352112676,4,2,1,100,0,0
289932,-121.951219512195,4,2,1,55,0,0
301452,-121.951219512195,4,2,1,50,0,0
305292,-121.951219512195,4,2,1,47,0,0
312972,-161.290322580645,4,2,1,43,0,0
320652,-161.290322580645,4,2,1,40,0,0
321132,-1000,4,2,1,5,0,0
321612,-161.290322580645,4,2,1,40,0,0
321852,-1000,4,2,1,5,0,0
321972,-161.290322580645,4,2,1,40,0,0
323052,-1000,4,2,1,5,0,0
323532,-161.290322580645,4,2,1,40,0,0
323772,-1000,4,2,1,5,0,0
323892,-161.290322580645,4,2,1,40,0,0
324852,-161.290322580645,4,2,1,5,0,0
324856,-161.290322580645,4,2,1,40,0,0
324972,-1000,4,2,1,5,0,0
325452,-161.290322580645,4,2,1,40,0,0
325692,-1000,4,2,1,5,0,0
325812,-161.290322580645,4,2,1,40,0,0
326052,-1000,4,2,1,5,0,0
326292,-161.290322580645,4,2,1,40,0,0
326652,-1000,4,2,1,5,0,0
326772,-161.290322580645,4,2,1,40,0,0
327132,-161.290322580645,4,2,1,35,0,0
327612,-161.290322580645,4,2,1,30,0,0
328092,-161.290322580645,4,2,1,25,0,0
328572,-161.290322580645,4,2,1,20,0,0
329052,-161.290322580645,4,2,1,15,0,0
329532,-161.290322580645,4,2,1,10,0,0
329772,-1000,4,2,1,5,0,0

[Colours]
Combo1 : 255,166,100
Combo2 : 114,237,39
Combo3 : 163,248,126
Combo4 : 87,116,251
Combo5 : 113,221,244
Combo6 : 250,69,123
Combo7 : 254,114,167
Combo8 : 255,128,51

[HitObjects]
93,130,12,38,0,L|157:125,1,64.9999996032715,2|2,0:0|0:0,0:0:0:0:
219,184,492,2,0,L|283:188,1,64.9999996032715,2|0,0:0|0:0,0:0:0:0:
305,191,852,1,2,0:0:0:0:
305,191,972,2,0,P|325:205|349:257,1,64.9999996032715,2|0,0:0|0:0,0:0:0:0:
420,214,1452,2,0,P|424:238|404:291,1,64.9999996032715,2|0,0:0|0:0,0:0:0:0:
349,381,1932,6,0,P|339:350|343:318,1,64.9999996032715,2|2,0:0|0:0,0:0:0:0:
423,276,2412,2,0,P|432:245|428:213,1,64.9999996032715,2|0,0:0|0:0,0:0:0:0:
416,191,2772,1,2,0:0:0:0:
416,191,2892,2,0,L|422:114,1,64.9999996032715,2|0,0:0|0:0,0:0:0:0:
332,123,3372,2,0,L|326:46,1,64.9999996032715,2|0,0:0|0:0,0:0:0:0:
263,8,3852,102,0,P|232:-2|200:0,1,64.9999996032715,2|2,0:0|0:0,0:0:0:0:
154,70,4332,2,0,P|123:80|88:76,1,64.9999996032715,2|0,0:0|0:0,0:0:0:0:
64,65,4692,1,2,0:0:0:0:
64,65,4812,2,0,P|77:101|77:139,1,77.4999969253541,2|0,0:0|0:0,0:0:0:0:
15,209,5292,2,0,P|1:245|1:283,1,77.4999969253541,2|0,0:0|0:0,0:0:0:0:
55,360,5772,6,0,L|131:369,1,77.4999969253541,2|2,0:0|0:0,0:0:0:0:
210,319,6252,2,0,L|286:309,1,77.4999969253541,2|0,0:0|0:0,0:0:0:0:
309,307,6612,1,2,0:0:0:0:
309,307,6732,2,0,P|303:268|313:231,1,77.4999969253541,2|0,0:0|0:0,0:0:0:0:
227,193,7212,2,0,P|249:161|283:142,1,77.4999969253541,2|0,0:0|0:0,0:0:0:0:
441,163,7692,102,0,P|403:172|364:165,1,77.4999969253541,2|2,2:0|2:0,0:0:0:0:
325,57,8172,2,0,P|287:47|248:54,1,77.4999969253541,2|0,2:0|2:0,0:0:0:0:
223,70,8532,1,2,0:0:0:0:
223,70,8652,2,0,L|229:156,1,77.4999969253541,2|0,0:0|0:0,0:0:0:0:
155,189,9132,2,0,L|149:275,1,77.4999969253541,2|0,0:0|0:0,0:0:0:0:
213,364,9612,6,0,B|234:347|234:347|225:274,1,90.0000021972657,2|2,3:2|0:0,0:0:0:0:
322,249,10092,2,0,B|301:266|301:266|310:339,1,90.0000021972657,2|0,3:2|0:0,0:0:0:0:
313,353,10452,1,2,0:0:0:0:
313,353,10572,2,0,B|355:365|355:365|398:355,1,90.0000021972657,2|0,3:2|0:0,0:0:0:0:
488,268,11052,2,0,B|444:257|444:257|402:270,1,90.0000021972657,2|0,3:2|0:0,0:0:0:0:
321,209,11532,102,0,B|358:198|358:198|370:204|370:204|412:191,1,90.0000021972657,2|2,3:2|0:0,0:0:0:0:
507,133,12012,2,0,B|470:122|470:122|457:128|457:128|415:115,1,90.0000021972657,2|0,3:2|0:0,0:0:0:0:
399,108,12372,1,2,0:0:0:0:
399,108,12492,2,0,B|352:121|352:121|312:109,1,90.0000021972657,2|0,3:2|0:0,0:0:0:0:
162,170,12972,2,0,B|209:157|209:157|249:169,1,90.0000021972657,2|0,3:2|0:0,0:0:0:0:
317,268,13452,6,0,B|339:280|339:280|335:203,1,102.500001564026,2|2,3:2|0:0,0:0:0:0:
268,105,13932,2,0,B|245:93|245:93|249:170,1,102.500001564026,2|0,3:2|0:0,0:0:0:0:
251,200,14292,1,2,0:0:0:0:
251,200,14412,2,0,B|234:225|234:225|145:209,1,102.500001564026,2|0,3:2|0:0,0:0:0:0:
88,133,14892,2,0,B|71:108|71:108|0:120,1,102.500001564026,2|0,3:2|0:0,0:0:0:0:
13,224,15372,102,0,B|37:252|37:252|25:316,1,102.500001564026,2|2,3:2|0:0,0:0:0:0:
119,367,15852,2,0,B|107:302|107:302|131:274,1,102.500001564026,2|0,3:2|0:0,0:0:0:0:
152,254,16212,1,2,0:0:0:0:
151,254,16332,2,0,B|197:231|197:231|248:238,1,102.500001564026,2|0,3:2|0:0,0:0:0:0:
235,155,16812,2,0,B|285:161|285:161|323:195,1,102.500001564026,2|0,3:2|0:0,0:0:0:0:
365,121,17292,6,0,B|402:154|402:154|384:275,1,172.49999420929,2|0,3:2|0:0,0:0:0:0:
380,298,17772,102,0,B|394:342|394:342|262:324,1,172.49999420929,2|0,3:2|0:0,0:0:0:0:
250,323,18252,6,0,B|210:353|210:353|196:225,1,172.49999420929,2|0,3:2|0:0,0:0:0:0:
192,207,18732,102,0,B|116:202|116:202|105:214|105:214|25:210,1,172.49999420929,2|0,3:2|0:0,0:0:0:0:
3,209,19212,6,0,L|0:131,1,77.4999969253541,2|2,0:0|0:0,0:0:0:0:
118,106,19692,2,0,L|115:183,1,77.4999969253541,2|0,0:0|0:0,0:0:0:0:
120,205,20052,1,2,0:0:0:0:
119,205,20172,2,0,P|155:216|193:210,1,77.4999969253541,2|0,0:0|0:0,0:0:0:0:
249,132,20652,2,0,P|284:119|322:125,1,77.4999969253541,2|0,0:0|0:0,0:0:0:0:
434,278,21132,86,0,P|360:284|421:327,1,191.250001167297,0|0,3:2|2:0,0:0:0:0:
373,188,21612,2,0,B|340:196|314:218|300:246|300:246|300:246|300:246|275:223|243:214|212:218,1,191.250001167297,0|0,3:2|2:0,0:0:0:0:
190,223,22092,21,0,3:2:0:0:
190,223,22452,85,0,2:0:0:0:
225,328,22572,1,0,3:2:0:0:
281,278,22692,2,0,L|153:276,1,127.500000778198,0|0,2:0|2:0,0:0:0:0:
15,288,23052,22,0,B|-19:334|47:382|93:347|96:274|68:244,1,191.250001167297,0|0,3:2|2:0,0:0:0:0:
17,201,23532,2,0,P|38:125|153:95,1,191.250001167297,0|0,3:2|2:0,0:0:0:0:
167,102,24012,85,0,3:2:0:0:
167,102,24372,21,0,2:0:0:0:
134,209,24492,1,0,3:2:0:0:
74,162,24612,2,0,L|224:160,1,127.500000778198,0|0,2:0|2:0,0:0:0:0:
369,165,24972,86,0,B|379:101|309:79|309:79|258:126|292:180,1,228.749990575791,0|0,3:2|2:0,0:0:0:0:
442,158,25452,2,0,P|411:60|320:9,1,210.000002563477,0|0,3:2|2:0,0:0:0:0:
288,9,25932,21,0,3:2:0:0:
288,9,26292,85,0,2:0:0:0:
318,166,26412,2,0,P|351:104|404:60,1,140.000001708984,0|0,3:2|0:0,0:0:0:0:
496,109,26772,1,0,2:0:0:0:
496,109,26892,22,0,P|403:153|383:250,1,210.000002563477,0|0,3:2|2:0,0:0:0:0:
506,262,27372,2,0,P|503:183|462:250,1,210.000002563477,0|0,3:2|2:0,0:0:0:0:
512,352,27852,86,0,B|456:374|411:349|411:349|363:321|311:345,1,210.000002563477,0|0,3:2|2:0,0:0:0:0:
207,384,28332,2,0,L|137:377,1,70.0000008544922,0|0,3:2|2:0,0:0:0:0:
232,281,28572,2,0,L|301:274,1,70.0000008544922,0|0,2:0|2:0,0:0:0:0:
420,262,28812,22,0,B|445:225|429:170|391:154|391:154|347:178|353:221,1,210.000002563477,0|0,3:2|2:0,0:0:0:0:
489,281,29292,2,0,P|495:176|432:96,1,210.000002563477,0|0,3:2|2:0,0:0:0:0:
413,87,29772,85,0,3:2:0:0:
413,87,30132,21,0,2:0:0:0:
302,136,30252,1,0,3:2:0:0:
354,196,30372,2,0,L|346:46,1,140.000001708984,0|0,2:0|2:0,0:0:0:0:
252,0,30732,86,0,B|200:27|200:27|231:175,1,210.000002563477,0|0,3:2|2:0,0:0:0:0:
273,249,31212,2,0,B|232:269|190:250|190:250|170:264|170:264|128:247|91:262,1,191.250001167297,0|0,3:2|2:0,0:0:0:0:
74,260,31692,21,0,3:2:0:0:
74,260,32052,85,0,2:0:0:0:
95,144,32172,1,0,3:2:0:0:
154,193,32292,2,0,L|21:190,1,127.500000778198,0|0,2:0|2:0,0:0:0:0:
169,112,32652,22,0,B|200:116|223:138|232:164|232:164|232:164|232:164|246:137|274:122|302:123,1,172.49999420929,0|0,3:2|2:0,0:0:0:0:
382,141,33132,2,0,B|400:85|351:54|351:54|300:74|302:124,1,191.250001167297,0|0,3:2|2:0,0:0:0:0:
303,139,33612,85,0,3:2:0:0:
303,139,33972,21,0,2:0:0:0:
382,264,34092,2,0,P|395:202|380:140,1,127.500000778198,0|0,3:2|0:0,0:0:0:0:
267,203,34452,1,0,2:0:0:0:
267,203,34572,86,0,B|199:157|225:81|270:60|323:106|299:146,1,210.000002563477,0|0,3:2|2:0,0:0:0:0:
161,141,35052,2,0,P|199:47|298:24,1,210.000002563477,0|0,3:2|2:0,0:0:0:0:
394,103,35532,22,0,B|384:161|452:179|452:179|497:136|471:87,1,210.000002563477,0|0,3:2|2:0,0:0:0:0:
315,94,36012,2,0,L|230:98,1,70.0000008544922,0|0,3:2|2:0,0:0:0:0:
266,188,36252,2,0,L|350:192,1,70.0000008544922,0|0,2:0|2:0,0:0:0:0:
175,64,36492,86,0,B|158:104|181:141|181:141|166:175|166:175|192:219|171:265,1,210.000002563477,0|0,3:2|2:0,0:0:0:0:
82,338,36972,2,0,B|134:312|183:341|183:341|231:369|283:345,1,210.000002563477,0|0,3:2|2:0,0:0:0:0:
298,337,37452,21,0,3:2:0:0:
298,337,37812,85,0,2:0:0:0:
249,230,37932,1,0,3:2:0:0:
182,279,38052,2,0,L|339:269,1,140.000001708984,0|0,2:0|2:0,0:0:0:0:
138,212,38412,22,0,B|95:246|107:305|107:305|75:250|16:258,1,210.000002563477,0|0,3:2|2:0,0:0:0:0:
66,166,38892,2,0,B|113:130|113:130|261:154,1,210.000002563477,0|0,3:2|2:0,0:0:0:0:
276,156,39372,85,0,3:2:0:0:
276,156,39732,21,0,2:0:0:0:
255,269,39852,1,0,3:2:0:0:
191,220,39972,2,0,L|330:228,1,140.000001708984,0|0,2:0|2:0,0:0:0:0:
479,236,40332,86,0,B|439:188|439:188|468:49,1,191.250001167297,0|0,3:2|2:0,0:0:0:0:
352,27,40812,2,0,B|406:2|406:2|373:148,1,210.000002563477,0|0,3:2|2:0,0:0:0:0:
369,167,41292,21,0,3:2:0:0:
369,167,41652,85,0,2:0:0:0:
250,81,41772,2,0,P|276:146|274:216,1,140.000001708984,0|0,3:2|0:0,0:0:0:0:
261,362,42132,1,0,2:0:0:0:
261,362,42252,22,0,B|221:378|191:346|191:346|206:287|269:280|297:300,1,210.000002563477,0|0,3:2|2:0,0:0:0:0:
362,341,42732,2,0,P|434:336|503:212,1,210.000002563477,0|0,3:2|2:0,0:0:0:0:
356,222,43212,86,0,P|422:257|375:199,1,210.000002563477,0|0,3:2|2:0,0:0:0:0:
282,260,43692,2,0,L|287:329,1,70.0000008544922,0|0,3:2|2:0,0:0:0:0:
209,256,43932,2,0,L|214:186,1,70.0000008544922,0|0,2:0|2:0,0:0:0:0:
179,332,44172,22,0,B|131:363|131:363|141:201,1,210.000002563477,0|0,3:2|2:0,0:0:0:0:
148,87,44652,2,0,B|168:47|128:18|128:18|64:42|63:107|103:153,1,210.000002563477,0|0,3:2|2:0,0:0:0:0:
93,136,45132,85,0,3:2:0:0:
93,136,45492,21,0,2:0:0:0:
226,198,45612,1,0,3:2:0:0:
180,116,45732,2,0,L|175:243,1,127.500000778198,0|0,2:0|2:0,0:0:0:0:
171,331,46092,86,0,B|127:383|127:383|270:373,1,210.000002563477,0|0,3:2|2:0,0:0:0:0:
301,270,46572,2,0,B|348:236|402:267|402:267|456:298|498:267,1,210.000002563477,0|0,3:2|2:0,0:0:0:0:
512,255,47052,21,0,3:2:0:0:
512,255,47412,85,0,2:0:0:0:
391,179,47532,1,0,3:2:0:0:
435,260,47652,2,0,L|428:91,1,152.499993717194,0|0,2:0|2:0,0:0:0:0:
343,35,48012,2,0,B|288:-2|232:35|232:35|204:90|139:87,1,229.999992279053,0|0,2:0|2:0,0:0:0:0:
256,192,48612,12,2,51852,2:0:0:0:
342,279,59532,86,0,B|272:274|272:274|247:294|247:294|176:289,1,172.49999420929,2|0,2:0|2:0,0:0:0:0:
156,288,60012,1,8,2:0:0:0:
156,288,60492,102,0,P|217:323|286:315,1,140.000001708984,2|0,2:0|2:0,0:0:0:0:
347,236,60852,2,0,P|349:202|340:168,1,70.0000008544922,2|8,2:0|2:0,0:0:0:0:
419,167,61092,2,0,P|408:134|389:106,1,70.0000008544922,2|0,2:0|2:0,0:0:0:0:
258,48,61332,1,2,2:0:0:0:
258,48,61452,6,0,B|206:21|160:50|160:50|108:84|59:56,1,210.000002563477,2|0,2:0|2:0,0:0:0:0:
40,47,61932,1,8,2:0:0:0:
373,73,62412,102,0,P|403:135|384:200,1,140.000001708984,2|0,2:2|2:0,0:0:0:0:
240,206,62772,2,0,P|221:177|215:142,1,70.0000008544922,2|8,2:0|2:0,0:0:0:0:
137,156,63012,2,0,P|137:122|154:90,1,70.0000008544922,2|0,2:0|2:0,0:0:0:0:
301,41,63252,6,0,B|383:36|383:36|410:57|410:57|498:53,1,205.000003128052,2|0,2:0|2:0,0:0:0:0:
512,51,63852,1,8,2:0:0:0:
350,122,64332,102,0,L|210:130,1,140.000001708984,2|0,2:0|2:0,0:0:0:0:
249,203,64692,1,2,2:0:0:0:
249,203,64812,2,0,B|345:197|345:197|305:222,1,140.000001708984,8|0,2:0|2:0,0:0:0:0:
243,286,65172,1,2,2:0:0:0:
174,240,65292,6,0,P|170:177|211:130,1,127.500000778198,2|0,2:0|2:0,0:0:0:0:
243,286,65652,2,0,P|192:320|131:309,1,127.500000778198,0|0,2:0|2:0,0:0:0:0:
249,203,66012,102,0,P|305:230|326:289,1,127.500000778198,0|0,2:0|2:0,0:0:0:0:
136,349,66732,5,8,2:0:0:0:
128,340,66852,2,0,L|131:284,1,31.8750001945496,2|0,2:0|2:0,0:0:0:0:
169,147,67212,102,0,B|202:138|235:153|252:180|252:180|274:153|309:145|338:156,1,191.250001167297,2|0,2:0|2:0,0:0:0:0:
357,166,67692,1,8,2:0:0:0:
357,165,68172,6,0,P|376:225|363:287,1,127.500000778198,2|0,2:0|2:0,0:0:0:0:
199,338,68532,2,0,P|171:321|150:297,1,63.7500003890991,2|8,2:0|2:0,0:0:0:0:
61,336,68772,2,0,P|53:305|55:273,1,63.7500003890991,2|0,2:0|2:0,0:0:0:0:
118,80,69012,1,2,2:0:0:0:
118,80,69132,102,0,P|150:185|152:295,1,202.500004943848,2|0,2:0|2:0,0:0:0:0:
151,298,69612,1,8,2:0:0:0:
277,94,70092,6,0,P|254:154|242:217,1,127.500000778198,2|0,2:0|2:0,0:0:0:0:
438,268,70452,2,0,P|439:237|431:205,1,63.7500003890991,2|8,2:0|2:0,0:0:0:0:
512,138,70692,2,0,P|490:115|462:98,1,63.7500003890991,2|0,2:0|2:0,0:0:0:0:
291,170,70932,102,0,B|242:216|242:216|417:205,1,229.999992279053,2|0,2:0|2:0,0:0:0:0:
431,205,71532,1,8,2:0:0:0:
239,116,72012,6,0,P|276:93|321:90,1,90.0000021972657,2|0,2:0|2:0,0:0:0:0:
369,241,72372,1,2,2:0:0:0:
369,241,72492,2,0,P|329:219|305:182,1,90.0000021972657,2|0,2:0|2:0,0:0:0:0:
321,90,72852,1,2,2:0:0:0:
411,67,72972,102,0,P|412:111|392:151,1,90.0000021972657,2|0,2:0|2:0,0:0:0:0:
383,161,73452,1,8,2:0:0:0:
202,305,74412,5,8,2:0:0:0:
195,320,74532,2,0,L|201:364,1,45.0000010986328,2|0,2:0|2:0,0:0:0:0:
104,143,74892,22,0,B|158:114|213:145|213:145|270:175|323:149,1,228.749990575791,0|0,3:2|0:0,0:0:0:0:
338,132,75372,2,0,P|301:122|325:237,1,228.749990575791,8|0,0:0|0:0,0:0:0:0:
332,230,75852,2,0,P|365:213|403:211,1,76.2499968585969,0|0,3:2|0:0,0:0:0:0:
401,203,76212,86,0,P|363:205|329:222,1,76.2499968585969,2|8,0:0|0:0,0:0:0:0:
277,150,76452,2,0,P|251:178|240:214,1,76.2499968585969,2|0,0:0|0:0,0:0:0:0:
152,199,76692,1,2,0:0:0:0:
152,199,76812,22,0,B|146:240|167:277|201:294|201:294|240:282|264:245|264:207,1,228.74999057579,2|0,3:2|0:0,0:0:0:0:
263,186,77292,2,0,P|200:97|91:104,1,228.749990575791,8|0,0:0|0:0,0:0:0:0:
62,122,77772,2,0,P|83:153|116:171,1,76.2499968585969,0|0,3:2|0:0,0:0:0:0:
110,177,78132,86,0,P|77:159|56:128,1,76.2499968585969,2|8,0:0|0:0,0:0:0:0:
130,102,78372,2,0,P|129:64|145:30,1,76.2499968585969,2|0,0:0|0:0,0:0:0:0:
210,82,78612,1,2,0:0:0:0:
210,82,78732,22,0,B|238:53|284:51|314:75|314:75|335:38|380:25|416:42,1,228.749990575791,0|0,3:2|0:0,0:0:0:0:
432,61,79212,2,0,B|476:112|436:178|431:152|386:211|429:274,1,228.749990575791,8|0,0:0|0:0,0:0:0:0:
461,284,79692,2,0,L|456:207,1,76.2499968585969,0|0,3:2|0:0,0:0:0:0:
410,48,80052,2,0,L|405:124,1,76.2499968585969,2|0,0:0|3:0,0:0:0:0:
297,335,80532,1,2,0:0:0:0:
367,311,80652,86,0,B|426:242|376:169|323:159|279:223|316:259,1,228.749990575791,2|0,3:2|0:0,0:0:0:0:
284,262,81132,2,0,P|321:168|409:218,1,228.749990575791,8|0,0:0|0:0,0:0:0:0:
409,243,81612,1,0,3:2:0:0:
295,84,82092,21,0,3:0:0:0:
300,76,82212,2,0,L|296:19,1,57.4999980697632,2|0,0:0|0:0,0:0:0:0:
443,166,82572,86,0,B|356:162|356:162|320:184|320:184|221:186,1,228.749990575791,0|0,3:2|0:0,0:0:0:0:
183,185,83052,2,0,B|157:218|176:255|176:255|222:198|183:91,1,247.49999924469,8|0,0:0|0:0,0:0:0:0:
168,74,83532,2,0,P|141:47|105:36,1,76.2499968585969,0|0,3:2|0:0,0:0:0:0:
109,29,83892,22,0,P|145:40|172:67,1,76.2499968585969,2|8,0:0|0:0,0:0:0:0:
247,43,84132,2,0,P|250:81|234:115,1,76.2499968585969,2|0,0:0|0:0,0:0:0:0:
283,176,84372,1,2,0:0:0:0:
283,176,84492,86,0,B|251:202|206:198|179:171|179:171|150:142|104:141|74:165,1,228.749990575791,0|0,3:2|0:0,0:0:0:0:
57,193,84972,2,0,B|16:237|49:300|49:300|120:283|123:225,1,228.749990575791,8|0,0:0|0:0,0:0:0:0:
155,235,85452,2,0,P|144:271|121:300,1,76.2499968585969,0|0,3:2|0:0,0:0:0:0:
128,305,85812,22,0,P|151:276|162:240,1,76.2499968585969,2|8,0:0|0:0,0:0:0:0:
255,249,86052,2,0,P|250:211|232:178,1,76.2499968585969,2|0,0:0|0:0,0:0:0:0:
304,118,86292,1,2,0:0:0:0:
304,118,86412,86,0,B|240:91|240:91|255:249,1,228.749990575791,0|0,3:2|0:0,0:0:0:0:
257,266,86892,2,0,B|313:240|364:265|364:265|421:296|478:272,1,228.749990575791,8|0,0:0|0:0,0:0:0:0:
490,261,87372,2,0,L|492:184,1,76.2499968585969,0|0,3:2|0:0,0:0:0:0:
247,278,87732,2,0,L|249:355,1,76.2499968585969,2|8,0:0|0:0,0:0:0:0:
356,136,88212,1,2,0:0:0:0:
423,113,88332,22,0,B|456:101|456:101|516:132|520:233|452:267,1,228.749990575791,2|0,3:2|0:0,0:0:0:0:
444,274,88812,2,0,P|351:215|254:265,1,228.749990575791,8|0,0:0|0:0,0:0:0:0:
247,278,89292,1,0,3:2:0:0:
340,124,89772,85,0,3:2:0:0:
345,116,89892,2,0,L|341:59,1,57.4999980697632,2|0,2:0|0:0,0:0:0:0:
303,269,90252,86,0,B|255:290|255:336|255:336|243:292|197:281,1,172.49999420929,2|0,2:0|2:0,0:0:0:0:
170,284,90732,1,8,2:0:0:0:
170,284,91212,101,2,2:0:0:0:
169,267,91332,2,0,P|155:237|83:205,1,114.999996139526,2|0,2:0|2:0,0:0:0:0:
55,208,91692,2,0,P|109:192|140:145,1,114.999996139526,10|0,2:0|2:0,0:0:0:0:
29,54,92172,5,2,2:0:0:0:
29,54,92292,2,0,L|25:14,2,28.7499990348816,2|2|0,2:0|2:0|2:0,0:0:0:0:
140,145,92652,102,0,P|168:141|195:132,1,57.4999980697632,2|0,2:0|2:0,0:0:0:0:
271,27,92892,2,0,P|259:53|254:81,1,57.4999980697632,2|0,2:0|2:0,0:0:0:0:
307,199,93132,6,0,P|289:176|268:157,1,57.4999980697632,2|0,2:0|2:0,0:0:0:0:
214,214,93492,102,0,P|185:209|156:211,1,57.4999980697632,2|0,2:0|2:0,0:0:0:0:
81,252,93852,1,2,2:0:0:0:
215,317,94092,6,0,B|242:261|214:214|214:214|201:233|208:251,1,140.000001708984,2|2,2:0|2:0,0:0:0:0:
321,305,94572,2,0,P|349:303|376:311,1,57.4999980697632,2|0,2:0|2:0,0:0:0:0:
313,226,94812,2,0,P|336:210|364:203,1,57.4999980697632,2|0,2:0|2:0,0:0:0:0:
268,162,95052,102,0,P|281:135|301:116,1,57.4999980697632,2|0,2:0|2:0,0:0:0:0:
376,130,95412,6,0,P|403:120|432:121,1,57.4999980697632,2|0,2:0|2:0,0:0:0:0:
508,186,95772,1,2,2:0:0:0:
347,362,96012,102,0,P|385:278|462:329,1,210.000002563477,2|0,2:0|0:0,0:0:0:0:
480,349,96492,2,0,P|479:317|466:288,1,63.7500003890991,2|0,2:0|2:0,0:0:0:0:
415,139,96732,2,0,P|401:167|400:199,1,63.7500003890991,2|0,2:0|2:0,0:0:0:0:
494,348,96972,6,0,P|492:316|479:287,1,63.7500003890991,2|0,2:0|2:0,0:0:0:0:
468,171,97332,102,0,P|444:149|414:138,1,63.7500003890991,2|0,2:0|2:0,0:0:0:0:
325,204,97692,1,2,2:0:0:0:
174,32,97932,6,0,L|178:84,1,52.4999983978272,0|2,2:0|2:0,0:0:0:0:
252,14,98412,102,0,L|240:204,1,191.250001167297,2|0,2:0|2:0,0:0:0:0:
238,230,98892,2,0,P|207:232|172:222,1,63.7500003890991,2|0,2:0|2:0,0:0:0:0:
125,145,99132,1,2,2:0:0:0:
125,145,99252,2,0,P|94:142|59:152,1,63.7500003890991,2|0,2:0|2:0,0:0:0:0:
153,53,99492,6,0,P|180:69|202:93,1,63.7500003890991,2|0,2:0|2:0,0:0:0:0:
240,286,99852,102,0,B|229:280|229:280|237:229,1,63.7500003890991,2|0,2:0|2:0,0:0:0:0:
280,119,100092,2,0,L|280:163,1,45.0000010986328,2|0,2:0|2:0,0:0:0:0:
231,296,100332,6,0,B|219:289|219:289|228:228,1,76.2499968585969,2|0,2:0|2:0,0:0:0:0:
292,113,100572,2,0,L|292:164,1,51.250000782013,2|0,2:0|2:0,0:0:0:0:
396,293,100812,102,0,B|401:255|369:233|369:233|331:245|324:282,1,140.000001708984,2|2,2:0|2:0,0:0:0:0:
470,299,101172,2,0,P|469:264|460:230,1,70.0000008544922,2|0,2:0|2:0,0:0:0:0:
421,104,101412,6,0,P|411:137|411:172,1,70.0000008544922,2|0,2:0|2:0,0:0:0:0:
460,230,101772,1,2,2:0:0:0:
320,184,101892,102,0,L|337:181,1,17.5000002136231,2|2,2:0|2:0,0:0:0:0:
312,178,102012,6,0,L|254:182,1,57.4999980697632,2|0,2:0|0:0,0:0:0:0:
147,156,102252,102,0,B|134:173|140:207|140:207|110:164|137:113|137:130|164:88|150:40,1,228.749990575791,2|0,2:0|2:0,0:0:0:0:
132,16,102732,2,0,P|101:39|82:72,1,76.2499968585969,2|0,2:0|2:0,0:0:0:0:
249,100,102972,2,0,P|211:94|174:104,1,76.2499968585969,2|0,2:0|2:0,0:0:0:0:
273,241,103212,6,0,P|250:210|217:191,1,76.2499968585969,2|0,2:0|2:0,0:0:0:0:
155,255,103572,102,0,P|117:259|84:278,1,76.2499968585969,2|0,2:0|2:0,0:0:0:0:
52,365,103932,1,2,2:0:0:0:
125,153,104172,6,0,B|161:140|161:140|154:254,1,152.499993717194,10|2,2:0|2:0,0:0:0:0:
100,356,104652,102,0,L|96:298,1,57.4999980697632,2|0,2:0|0:0,0:0:0:0:
37,258,104892,2,0,L|88:283,1,57.4999980697632,2|0,2:0|0:0,0:0:0:0:
153,253,105132,6,0,L|105:284,1,57.4999980697632,10|0,2:0|0:0,0:0:0:0:
345,251,105612,102,0,P|375:200|294:210,1,172.49999420929,2|0,2:0|2:0,0:0:0:0:
294,220,106092,1,8,2:0:0:0:
294,220,106572,5,2,2:0:0:0:
282,225,106692,2,0,P|244:205|167:215,1,114.999996139526,2|0,2:0|2:0,0:0:0:0:
107,267,107052,2,0,P|55:290|0:281,1,114.999996139526,10|0,2:0|2:0,0:0:0:0:
172,150,107532,101,2,2:0:0:0:
172,150,107652,2,0,L|205:142,2,19.0624992146492,2|2|0,2:0|2:0|2:0,0:0:0:0:
226,50,108012,2,0,P|253:36|303:34,1,70.0000008544922,2|0,2:0|2:0,0:0:0:0:
349,142,108252,2,0,P|317:126|283:124,1,70.0000008544922,2|0,2:0|2:0,0:0:0:0:
228,235,108492,6,0,P|259:219|293:217,1,70.0000008544922,2|0,2:0|2:0,0:0:0:0:
359,138,108852,102,0,P|390:153|411:180,1,70.0000008544922,2|0,2:0|2:0,0:0:0:0:
350,297,109212,1,2,2:0:0:0:
363,64,109452,6,0,P|294:101|297:180,1,152.499993717194,2|2,2:0|2:0,0:0:0:0:
323,359,109932,2,0,P|345:331|350:297,1,70.0000008544922,2|0,2:0|2:0,0:0:0:0:
456,281,110172,2,0,P|434:253|429:219,1,70.0000008544922,2|0,2:0|2:0,0:0:0:0:
331,199,110412,102,0,P|353:171|358:137,1,70.0000008544922,2|0,2:0|2:0,0:0:0:0:
283,88,110772,6,0,P|261:61|256:27,1,70.0000008544922,2|0,2:0|2:0,0:0:0:0:
379,0,111132,1,2,2:0:0:0:
391,215,111372,102,0,B|340:216|304:265|304:265|267:227|209:229,1,210.000002563477,2|0,2:0|0:0,0:0:0:0:
353,149,111852,2,0,P|390:138|427:147,1,76.2499968585969,2|0,2:0|2:0,0:0:0:0:
360,340,112092,2,0,P|326:356|288:357,1,76.2499968585969,2|0,2:0|2:0,0:0:0:0:
402,126,112332,6,0,P|439:139|468:168,1,76.2499968585969,2|0,2:0|2:0,0:0:0:0:
392,215,112692,102,0,P|409:249|409:286,1,76.2499968585969,2|0,2:0|2:0,0:0:0:0:
303,234,113052,6,0,P|302:196|318:161,1,76.2499968585969,2|0,2:0|2:0,0:0:0:0:
479,106,113532,1,2,2:0:0:0:
303,234,113772,102,0,L|74:216,1,228.749990575791,2|0,2:0|2:0,0:0:0:0:
185,326,114252,2,0,L|279:321,1,76.2499968585969,2|0,2:0|2:0,0:0:0:0:
404,276,114492,1,2,2:0:0:0:
317,160,114612,2,0,P|304:195|304:240,1,76.2499968585969,2|0,2:0|2:0,0:0:0:0:
504,236,114852,6,0,P|502:198|488:162,1,76.2499968585969,2|0,2:0|2:0,0:0:0:0:
326,86,115212,102,0,L|213:80,1,82.49999974823,2|0,2:0|2:0,0:0:0:0:
317,160,115452,2,0,L|259:156,1,57.4999980697632,2|0,2:0|2:0,0:0:0:0:
105,162,115692,6,0,L|218:156,1,82.49999974823,2|0,2:0|2:0,0:0:0:0:
101,87,115932,2,0,L|158:83,1,57.4999980697632,2|0,2:0|2:0,0:0:0:0:
326,86,116172,102,0,P|382:79|338:128,1,152.499993717194,2|2,2:0|2:0,0:0:0:0:
254,146,116532,2,0,P|236:114|232:76,1,76.2499968585969,2|0,2:0|2:0,0:0:0:0:
383,210,116772,6,0,P|379:247|361:280,1,76.2499968585969,2|0,2:0|2:0,0:0:0:0:
281,312,117132,1,2,2:0:0:0:
198,208,117252,102,0,B|199:189,1,19.0624992146492,2|2,2:0|2:0,0:0:0:0:
203,219,117372,6,0,B|199:257,1,38.1249984292985,2|0,2:0|0:0,0:0:0:0:
166,345,117612,102,0,B|109:370|109:370|122:205,1,228.749990575791,2|0,2:0|2:0,0:0:0:0:
248,312,118092,2,0,L|327:307,1,76.2499968585969,2|0,2:0|2:0,0:0:0:0:
198,208,118332,2,0,L|119:203,1,76.2499968585969,2|0,2:0|2:0,0:0:0:0:
232,108,118572,6,0,L|311:103,1,76.2499968585969,2|0,2:0|2:0,0:0:0:0:
360,190,118932,102,0,L|436:194,1,76.2499968585969,2|0,2:0|2:0,0:0:0:0:
488,137,119292,1,2,2:0:0:0:
302,27,119532,6,0,L|307:103,1,76.2499968585969,10|2,2:0|2:0,0:0:0:0:
319,278,120012,1,2,2:0:0:0:
404,95,120252,1,2,2:0:0:0:
166,242,120492,1,10,2:0:0:0:
166,242,120972,102,0,B|42:228|59:47|179:51|203:131|167:160,1,303.750007415772,2|0,3:2|2:0,0:0:0:0:
73,201,121453,86,0,L|8:196,1,64.9999996032715,8|0,2:0|2:0,0:0:0:0:
0,195,121813,1,0,2:0:0:0:
86,307,121932,1,2,3:2:0:0:
198,210,122052,2,0,P|156:200|166:242,1,102.500001564026,2|2,2:0|2:0,0:0:0:0:
237,268,122413,54,0,L|439:262,1,202.500004943848,10|0,2:0|2:0,0:0:0:0:
460,262,122772,1,0,2:0:0:0:
276,359,122892,1,2,3:2:0:0:
352,338,123012,21,2,2:0:0:0:
358,344,123072,2,0,L|404:349,1,28.7499990348816,2|2,2:0|2:0,0:0:0:0:
503,201,123372,54,0,L|513:315,1,113.750003818512,10|0,2:0|2:0,0:0:0:0:
402,204,123612,2,0,L|413:66,1,138.750003387451,2|0,2:0|2:0,0:0:0:0:
310,226,123852,86,0,L|321:364,1,138.750003387451,2|0,3:2|2:0,0:0:0:0:
321,384,124212,1,2,2:0:0:0:
190,267,124332,54,0,L|197:198,1,69.3750016937256,10|2,2:0|2:0,0:0:0:0:
211,61,124572,2,0,P|203:25|231:50,1,88.7499955310824,2|0,2:0|2:0,0:0:0:0:
105,143,124812,22,0,P|73:159|106:109,1,177.499991062165,2|2,3:2|2:0,0:0:0:0:
335,73,125292,2,0,P|343:35|314:61,1,101.250002471924,10|0,2:0|2:0,0:0:0:0:
405,173,125532,2,0,P|437:152|398:150,1,101.250002471924,2|0,2:0|2:0,0:0:0:0:
370,296,125772,54,0,P|407:304|381:275,1,101.250002471924,2|0,3:2|2:0,0:0:0:0:
266,307,126132,1,2,2:0:0:0:
405,173,126252,86,0,P|454:191|490:227,1,101.250002471924,10|0,2:0|2:0,0:0:0:0:
335,73,126492,2,0,P|382:51|433:51,1,101.250002471924,2|0,2:0|2:0,0:0:0:0:
246,209,126732,54,0,B|183:175|193:103|244:76|244:76|279:116|248:149,1,240.000005859375,2|2,3:2|2:0,0:0:0:0:
5,326,127212,2,0,P|40:346|2:360,1,101.250002471924,10|0,2:0|2:0,0:0:0:0:
35,155,127452,2,0,P|43:195|8:174,1,101.250002471924,2|0,2:0|2:0,0:0:0:0:
166,36,127692,22,0,P|137:65|132:24,1,101.250002471924,2|0,3:2|2:0,0:0:0:0:
166,9,128052,1,10,2:0:0:0:
316,44,128172,54,0,L|321:114,1,70.0000008544922,10|2,2:0|2:0,0:0:0:0:
280,246,128412,2,0,P|316:236|289:265,1,88.7499955310824,2|0,2:0|2:0,0:0:0:0:
178,304,128652,86,0,B|144:301|144:301|141:303|141:303|100:298,1,77.4999969253541,0|2,3:2|2:0,0:0:0:0:
158,1,129132,54,0,B|219:37|219:37|177:303,1,341.250011455536,10|0,2:0|2:0,0:0:0:0:
73,163,129612,22,0,P|43:145|95:134,1,126.249997495651,2|0,3:2|2:0,0:0:0:0:
218,231,129852,1,2,2:0:0:0:
107,329,129972,2,0,P|87:360|123:352,1,94.999998840332,2|8,2:0|2:0,0:0:0:0:
110,239,130212,2,0,L|15:244,1,94.999998840332,2|0,2:0|2:0,0:0:0:0:
0,246,130452,1,2,2:0:0:0:
170,94,130572,54,0,L|289:104,1,113.750003818512,2|2,3:2|2:0,0:0:0:0:
354,155,130812,2,0,L|296:150,1,57.4999980697632,2|0,2:0|2:0,0:0:0:0:
152,276,131052,86,0,L|290:264,1,138.750003387451,10|0,2:0|2:0,0:0:0:0:
374,287,131292,2,0,L|298:293,1,76.2499968585969,2|0,2:0|2:0,0:0:0:0:
109,271,131532,54,0,P|151:232|118:303,1,227.500007637024,2|2,3:2|2:0,0:0:0:0:
55,139,131892,2,0,P|13:127|38:163,1,113.750003818512,2|8,2:0|2:0,0:0:0:0:
196,38,132132,22,0,P|238:26|214:63,1,113.750003818512,2|2,2:0|2:0,0:0:0:0:
50,7,132492,1,2,3:2:0:0:
153,104,132612,53,2,2:0:0:0:
6,228,132732,2,0,L|15:165,1,63.7500003890991,2|0,2:0|2:0,0:0:0:0:
85,330,132972,86,0,B|107:380|107:380|22:352|22:352|55:137,1,360.000008789063,10|0,2:0|2:0,0:0:0:0:
279,211,133452,2,0,P|320:182|376:180,1,107.50000164032,2|0,3:2|2:0,0:0:0:0:
151,171,133692,2,0,P|110:141|54:139,1,107.50000164032,2|0,2:0|2:0,0:0:0:0:
279,90,133932,54,0,P|321:60|377:58,1,107.50000164032,2|0,3:2|2:0,0:0:0:0:
402,71,134292,1,2,2:0:0:0:
375,275,134412,22,0,P|332:281|359:246,1,113.750003818512,2|0,3:2|2:0,0:0:0:0:
56,232,134652,2,0,P|100:238|73:203,1,113.750003818512,2|0,2:0|2:0,0:0:0:0:
345,88,134892,54,0,B|314:70|314:70|325:149,1,113.750003818512,10|2,2:0|2:0,0:0:0:0:
327,168,135252,1,0,2:0:0:0:
153,33,135372,86,0,L|261:23,1,107.50000164032,2|0,3:2|2:0,0:0:0:0:
254,135,135612,2,0,L|147:125,1,107.50000164032,2|0,2:0|2:0,0:0:0:0:
123,234,135852,2,0,L|231:224,1,107.50000164032,10|0,2:0|2:0,0:0:0:0:
271,315,136092,1,2,2:0:0:0:
396,144,136332,54,0,B|421:122|419:59|419:59|469:119|429:203|392:157|361:250|411:306,1,360.000008789063,2|0,3:2|2:0,0:0:0:0:
469,240,136812,22,0,L|371:231,1,90.0000021972657,8|0,2:0|2:0,0:0:0:0:
365,230,137172,1,0,2:0:0:0:
443,384,137292,1,2,3:2:0:0:
475,221,137412,2,0,P|461:258|490:234,1,102.500001564026,2|2,2:0|2:0,0:0:0:0:
425,152,137772,54,0,L|196:166,1,189.999997680664,10|0,2:0|2:0,0:0:0:0:
218,165,138132,1,0,2:0:0:0:
344,30,138252,1,2,3:2:0:0:
427,109,138372,85,2,2:0:0:0:
436,119,138432,2,0,L|481:115,1,25.6250003910065,2|2,2:0|2:0,0:0:0:0:
283,259,138732,54,0,L|160:251,1,101.250002471924,10|0,2:0|2:0,0:0:0:0:
334,126,138972,2,0,L|435:119,1,101.250002471924,2|0,2:0|2:0,0:0:0:0:
266,290,139212,22,0,L|152:282,1,113.750003818512,2|0,3:2|2:0,0:0:0:0:
127,278,139572,1,2,2:0:0:0:
349,226,139692,54,0,L|343:144,1,82.49999974823,10|2,2:0|2:0,0:0:0:0:
329,22,139932,2,0,P|298:7|319:47,1,101.250002471924,2|0,2:0|2:0,0:0:0:0:
460,177,140172,86,0,P|514:126|439:124,1,189.999997680664,2|2,3:2|2:0,0:0:0:0:
353,284,140652,2,0,B|373:309|354:340|354:340|318:327|318:296,1,120.000002929688,10|0,2:0|2:0,0:0:0:0:
210,254,140892,2,0,B|206:286|171:294|171:294|155:259|176:238,1,120.000002929688,2|0,2:0|2:0,0:0:0:0:
160,127,141132,54,0,B|131:142|104:118|104:118|123:85|153:90,1,120.000002929688,2|0,3:2|2:0,0:0:0:0:
276,165,141492,1,2,2:0:0:0:
98,282,141612,22,0,P|101:238|122:199,1,88.7499955310824,10|0,2:0|2:0,0:0:0:0:
294,384,141852,2,0,P|265:351|252:309,1,88.7499955310824,2|0,2:0|2:0,0:0:0:0:
317,97,142092,54,0,B|376:84|376:84|351:198,1,177.499991062165,2|2,3:2|2:0,0:0:0:0:
246,37,142572,2,0,B|229:13|192:23|192:23|195:59|226:69,1,120.000002929688,10|0,2:0|2:0,0:0:0:0:
158,159,142812,2,0,B|128:159|115:195|115:195|145:214|171:194,1,120.000002929688,2|0,2:0|2:0,0:0:0:0:
210,297,143052,86,0,B|189:318|205:353|205:353|241:344|244:312,1,120.000002929688,2|0,3:2|2:0,0:0:0:0:
235,276,143412,1,10,2:0:0:0:
158,159,143532,54,0,P|113:136|62:135,1,101.250002471924,10|2,2:0|2:0,0:0:0:0:
309,228,143772,2,0,P|359:227|404:204,1,101.250002471924,2|0,2:0|2:0,0:0:0:0:
235,276,144012,22,0,B|237:319|237:319|242:325|242:325|244:373,1,90.0000021972657,0|2,3:2|2:0,0:0:0:0:
287,43,144492,54,0,B|337:49|407:102|370:206|323:193|309:227|309:227|305:191|268:188|273:141,1,341.250011455536,10|0,2:0|2:0,0:0:0:0:
452,120,144972,86,0,P|492:103|450:90,1,113.750003818512,2|0,3:2|2:0,0:0:0:0:
351,0,145212,1,2,2:0:0:0:
219,78,145332,2,0,P|174:79|207:49,1,113.750003818512,2|8,2:0|2:0,0:0:0:0:
281,141,145572,2,0,L|270:277,1,113.750003818512,2|0,2:0|2:0,0:0:0:0:
270,272,145812,1,2,2:0:0:0:
113,362,145932,54,0,B|91:336|91:336|110:240,1,132.500000202179,2|2,3:2|2:0,0:0:0:0:
189,118,146172,2,0,L|201:181,1,63.7500003890991,2|0,2:0|2:0,0:0:0:0:
302,384,146412,22,0,B|326:356|326:356|304:250,1,145.000004425049,10|0,2:0|2:0,0:0:0:0:
226,140,146652,2,0,L|213:203,1,63.7500003890991,2|0,2:0|2:0,0:0:0:0:
113,362,146892,54,0,P|50:331|131:318,1,202.500004943848,2|2,3:2|2:0,0:0:0:0:
265,181,147252,2,0,B|261:149|226:141|226:141|210:176|231:197,1,120.000002929688,2|8,2:0|2:0,0:0:0:0:
354,283,147492,86,0,B|358:251|393:243|393:243|409:278|388:299,1,120.000002929688,2|2,2:0|2:0,0:0:0:0:
235,344,147852,1,2,3:2:0:0:
333,179,147972,53,2,2:0:0:0:
389,299,148092,2,0,L|397:375,1,76.2499968585969,2|0,2:0|2:0,0:0:0:0:
275,132,148332,22,0,B|210:110|210:110|234:343,1,303.750007415772,10|0,2:0|2:0,0:0:0:0:
390,300,148812,2,0,P|429:293|391:277,1,101.250002471924,2|0,3:2|2:0,0:0:0:0:
365,148,149052,2,0,P|342:115|380:131,1,101.250002471924,2|0,2:0|2:0,0:0:0:0:
243,257,149292,54,0,P|276:235|269:274,1,101.250002471924,2|0,3:2|2:0,0:0:0:0:
135,354,149652,1,2,2:0:0:0:
211,185,149772,86,0,P|181:226|180:275,1,101.250002471924,2|0,3:2|2:0,0:0:0:0:
125,350,150012,2,0,P|95:309|94:259,1,101.250002471924,2|0,2:0|2:0,0:0:0:0:
19,206,150252,54,0,B|1:184|1:184|5:259,1,101.250002471924,10|2,2:0|2:0,0:0:0:0:
8,278,150612,1,0,2:0:0:0:
216,250,150732,22,0,L|278:236,1,50.6250012359619,2|0,3:2|2:0,0:0:0:0:
133,239,150972,2,0,L|89:191,1,50.6250012359619,2|0,2:0|2:0,0:0:0:0:
164,315,151212,2,0,L|152:351,1,37.8124989326001,10|0,2:0|2:0,0:0:0:0:
145,372,151452,1,2,2:0:0:0:
327,167,151692,102,0,L|391:171,1,64.9999996032715,2|0,2:0|2:0,0:0:0:0:
458,175,152052,2,0,L|490:177,2,32.4999998016357,2|2|2,2:0|2:0|2:0,0:0:0:0:
410,238,152412,2,0,L|377:240,1,32.4999998016357,2|0,2:0|2:0,0:0:0:0:
327,167,152652,54,0,L|262:162,1,64.9999996032715,2|0,2:0|2:0,0:0:0:0:
196,157,153012,2,0,L|163:154,1,32.4999998016357,10|0,2:0|2:0,0:0:0:0:
97,148,153252,2,0,L|64:145,1,32.4999998016357,2|0,2:0|2:0,0:0:0:0:
188,233,153492,1,2,2:0:0:0:
188,233,153612,54,0,L|117:237,1,64.9999996032715,2|0,2:0|2:0,0:0:0:0:
53,241,153972,2,0,L|17:242,2,32.4999998016357,2|2|2,2:0|2:0|2:0,0:0:0:0:
108,306,154332,2,0,L|140:307,1,32.4999998016357,2|0,2:0|2:0,0:0:0:0:
188,233,154572,54,0,L|259:229,1,64.9999996032715,2|0,2:0|2:0,0:0:0:0:
320,226,154932,2,0,L|352:224,1,32.4999998016357,10|0,2:0|2:0,0:0:0:0:
419,219,155172,2,0,L|451:217,1,32.4999998016357,2|0,2:0|2:0,0:0:0:0:
512,368,155412,54,0,L|414:359,1,97.4999994049072,2|0,2:0|2:0,0:0:0:0:
315,351,155892,2,0,L|347:353,2,32.4999998016357,2|2|2,2:0|2:0|2:0,0:0:0:0:
282,285,156252,2,0,L|249:287,1,32.4999998016357,2|0,2:0|2:0,0:0:0:0:
196,337,156492,54,0,L|131:331,1,64.9999996032715,2|0,2:0|2:0,0:0:0:0:
64,324,156852,2,0,L|31:321,1,32.4999998016357,10|0,2:0|2:0,0:0:0:0:
196,337,157332,53,2,2:0:0:0:
273,284,157452,54,0,L|270:219,1,64.9999996032715,2|0,2:0|2:0,0:0:0:0:
213,163,157812,1,2,2:0:0:0:
213,163,157932,2,0,L|214:130,1,32.4999998016357,2|2,2:0|2:0,0:0:0:0:
279,104,158172,1,2,2:0:0:0:
279,104,158292,2,0,L|277:71,1,32.4999998016357,2|0,2:0|2:0,0:0:0:0:
213,0,158532,2,0,L|211:32,1,32.4999998016357,2|0,2:0|2:0,0:0:0:0:
210,51,158772,1,2,2:0:0:0:
204,191,159012,1,2,2:0:0:0:
204,191,159372,54,0,L|114:184,1,90.0000021972657,2|0,2:0|2:0,0:0:0:0:
46,178,159732,2,0,L|1:174,2,45.0000010986328,2|2|2,2:0|2:0|2:0,0:0:0:0:
113,117,160092,2,0,L|158:113,1,45.0000010986328,2|0,2:0|2:0,0:0:0:0:
204,191,160332,54,0,L|294:198,1,90.0000021972657,2|0,2:0|2:0,0:0:0:0:
358,204,160692,2,0,L|403:207,1,45.0000010986328,10|0,2:0|2:0,0:0:0:0:
468,212,160932,2,0,L|513:215,1,45.0000010986328,2|0,2:0|2:0,0:0:0:0:
313,118,161172,1,2,2:0:0:0:
313,118,161292,54,0,L|403:111,1,90.0000021972657,2|0,2:0|2:0,0:0:0:0:
468,106,161652,2,0,L|513:102,2,45.0000010986328,2|2|2,2:0|2:0|2:0,0:0:0:0:
399,43,162012,2,0,L|354:39,1,45.0000010986328,2|0,2:0|2:0,0:0:0:0:
313,118,162252,54,0,L|223:125,1,90.0000021972657,2|0,2:0|2:0,0:0:0:0:
156,130,162612,2,0,L|111:133,1,45.0000010986328,10|0,2:0|2:0,0:0:0:0:
44,138,162852,2,0,L|-1:141,1,45.0000010986328,2|0,2:0|2:0,0:0:0:0:
59,19,163092,54,0,L|199:30,1,135.000003295899,2|0,2:0|2:0,0:0:0:0:
308,38,163572,2,0,L|264:35,2,45.0000010986328,2|2|2,2:0|2:0|2:0,0:0:0:0:
371,115,163932,2,0,L|415:111,1,45.0000010986328,2|0,2:0|0:0,0:0:0:0:
315,190,164172,54,0,L|225:191,1,90.0000021972657,2|0,2:0|2:0,0:0:0:0:
153,194,164532,2,0,L|108:195,1,45.0000010986328,10|0,2:0|2:0,0:0:0:0:
184,346,165012,53,2,2:0:0:0:
115,278,165132,54,0,L|20:274,1,90.0000021972657,2|0,2:0|2:0,0:0:0:0:
111,185,165492,1,2,2:0:0:0:
111,185,165612,2,0,L|155:183,1,45.0000010986328,2|2,2:0|2:0,0:0:0:0:
223,228,165852,1,2,2:0:0:0:
223,228,165972,2,0,L|267:229,1,45.0000010986328,2|0,2:0|2:0,0:0:0:0:
369,158,166212,2,0,L|324:159,1,45.0000010986328,2|0,2:0|2:0,0:0:0:0:
300,161,166452,1,2,2:0:0:0:
115,168,166692,1,2,2:0:0:0:
115,168,167052,38,0,P|146:210|137:309,1,135.000003295899,2|0,3:3|2:0,0:0:0:0:
57,226,167532,2,0,P|26:268|71:239,1,135.000003295899,0|0,3:0|2:0,0:0:0:0:
115,168,168012,1,2,3:3:0:0:
115,168,168372,6,0,L|169:161,1,45.0000010986328,2|0,2:0|3:0,0:0:0:0:
234,121,168612,2,0,L|288:128,1,45.0000010986328,2|0,2:0|2:0,0:0:0:0:
358,136,168852,1,2,2:0:0:0:
240,43,168972,102,0,B|188:38|188:38|163:56|163:56|99:60,1,135.000003295899,2|0,3:2|2:0,0:0:0:0:
13,26,169452,2,0,B|37:58|37:58|21:154,1,135.000003295899,0|0,3:0|2:0,0:0:0:0:
5,237,169932,1,2,3:3:0:0:
5,237,170292,6,0,L|9:290,1,45.0000010986328,2|0,2:0|3:0,0:0:0:0:
59,378,170532,2,0,L|63:334,1,45.0000010986328,2|0,2:0|2:0,0:0:0:0:
79,215,170772,1,2,2:0:0:0:
79,215,170892,102,0,B|109:187|145:196|145:196|174:221|217:214,1,135.000003295899,0|0,3:3|2:0,0:0:0:0:
203,136,171372,2,0,P|233:110|331:106,1,135.000003295899,0|0,3:0|2:0,0:0:0:0:
388,134,171852,1,2,3:3:0:0:
391,137,172212,5,2,2:0:0:0:
391,137,172332,2,0,P|349:174|293:173,1,90.0000021972657,0|0,3:0|2:0,0:0:0:0:
257,140,172692,1,2,2:0:0:0:
361,71,172812,102,0,B|393:56|427:73|427:73|461:91|491:77,1,135.000003295899,2|0,3:3|2:0,0:0:0:0:
391,137,173292,2,0,P|387:158|385:181,1,45.0000010986328,2|2,3:2|2:0,0:0:0:0:
449,226,173532,2,0,P|455:248|455:271,1,45.0000010986328,2|2,2:0|2:0,0:0:0:0:
433,347,173772,2,0,L|480:353,2,45.0000010986328,2|2|2,3:3|2:0|2:0,0:0:0:0:
406,343,174132,1,2,2:0:0:0:
207,318,174372,1,2,2:0:0:0:
207,318,174732,6,0,P|211:247|159:183,1,153.750002346039,2|0,3:3|2:0,0:0:0:0:
75,282,175212,2,0,P|133:300|109:243,1,153.750002346039,0|0,3:0|2:0,0:0:0:0:
12,211,175692,1,2,3:3:0:0:
12,211,176052,102,0,L|14:159,1,51.250000782013,2|0,2:0|3:0,0:0:0:0:
85,48,176292,2,0,L|87:100,1,51.250000782013,2|0,2:0|2:0,0:0:0:0:
90,179,176532,1,2,2:0:0:0:
175,66,176652,6,0,B|215:50|215:50|200:160,1,153.750002346039,2|0,3:3|2:0,0:0:0:0:
116,262,177132,2,0,B|156:233|156:233|257:257,1,153.750002346039,0|0,3:0|2:0,0:0:0:0:
360,278,177612,1,2,3:3:0:0:
360,278,177972,102,0,L|362:217,1,51.250000782013,2|0,2:0|3:0,0:0:0:0:
308,113,178212,2,0,L|309:164,1,51.250000782013,2|0,2:0|2:0,0:0:0:0:
209,239,178452,1,2,2:0:0:0:
209,239,178572,2,0,B|182:205|182:205|68:222,1,153.750002346039,0|0,3:0|2:0,0:0:0:0:
169,124,179052,2,0,B|212:117|240:144|240:144|266:113|308:112,1,153.750002346039,0|0,3:0|2:0,0:0:0:0:
387,115,179532,1,2,3:3:0:0:
390,119,179892,5,2,2:0:0:0:
390,119,180012,2,0,L|383:225,1,102.500001564026,0|0,3:0|2:0,0:0:0:0:
379,293,180372,1,2,2:0:0:0:
243,248,180492,102,0,B|210:230|171:248|171:248|148:280|102:281,1,153.750002346039,2|0,3:3|2:0,0:0:0:0:
107,201,180972,2,0,P|82:194|56:196,1,51.250000782013,2|2,3:2|0:0,0:0:0:0:
0,120,181212,2,0,P|25:121|50:115,1,51.250000782013,2|2,0:0|2:0,0:0:0:0:
180,107,181452,2,0,L|128:112,2,51.250000782013,2|2|2,3:3|2:0|2:0,0:0:0:0:
211,104,181812,1,2,2:0:0:0:
408,86,182052,1,2,2:0:0:0:
408,86,182412,38,0,P|397:157|360:90,1,191.250001167297,0|0,3:0|2:0,0:0:0:0:
471,33,182892,2,0,B|494:-7|494:-7|350:11,1,191.250001167297,8|0,2:0|2:0,0:0:0:0:
235,25,183372,1,2,3:3:0:0:
235,25,183732,85,2,2:0:0:0:
183,104,183852,2,0,L|189:172,2,63.7500003890991,8|2|0,2:0|2:0|2:0,0:0:0:0:
113,47,184212,1,2,2:0:0:0:
113,47,184332,22,0,P|30:81|1:179,1,191.250001167297,2|0,3:3|2:0,0:0:0:0:
149,162,184812,2,0,P|78:176|130:126,1,191.250001167297,8|0,2:0|2:0,0:0:0:0:
204,220,185292,1,2,3:3:0:0:
204,220,185652,85,2,2:0:0:0:
259,301,185772,2,0,L|256:366,2,63.7500003890991,8|2|0,2:0|2:0|2:0,0:0:0:0:
332,228,186132,1,2,2:0:0:0:
332,228,186252,22,0,B|424:255|424:255|503:202,1,191.250001167297,0|0,3:3|2:0,0:0:0:0:
366,146,186732,2,0,B|320:126|266:149|281:165|229:185|181:162,1,191.250001167297,8|0,2:0|2:0,0:0:0:0:
89,100,187212,1,2,3:3:0:0:
89,100,187572,85,2,2:0:0:0:
167,28,187692,2,0,L|243:32,1,63.7500003890991,8|0,2:0|2:0,0:0:0:0:
483,48,188052,21,2,2:0:0:0:
483,48,188172,2,0,B|385:43|385:43|388:40|388:40|281:35,1,191.250001167297,2|0,3:3|2:0,0:0:0:0:
181,30,188652,85,10,2:0:0:0:
205,79,188772,1,2,2:0:0:0:
179,132,188892,1,2,2:0:0:0:
208,190,189012,1,2,2:0:0:0:
176,254,189132,2,0,L|97:257,2,63.7500003890991,2|2|2,3:3|2:0|2:0,0:0:0:0:
195,253,189492,1,2,2:0:0:0:
386,246,189732,1,2,2:0:0:0:
386,246,190092,22,0,B|357:196|403:164|403:164|458:177|450:235,1,191.250001167297,2|0,3:3|2:0,0:0:0:0:
335,298,190572,2,0,P|301:210|336:124,1,191.250001167297,8|0,2:0|2:0,0:0:0:0:
431,89,191052,1,2,3:3:0:0:
431,89,191412,85,2,2:0:0:0:
312,31,191532,2,0,L|236:36,2,63.7500003890991,8|2|0,2:3|2:0|2:0,0:0:0:0:
201,96,191892,1,2,2:0:0:0:
201,96,192012,22,0,B|243:132|243:132|232:290,1,191.250001167297,2|0,3:3|2:0,0:0:0:0:
233,363,192492,2,0,B|286:360|313:316|313:316|340:270|390:270,1,191.250001167297,8|0,2:0|2:0,0:0:0:0:
507,272,192972,1,2,3:3:0:0:
507,272,193332,85,2,2:0:0:0:
433,168,193452,2,0,L|436:104,2,63.7500003890991,8|2|0,2:0|2:0|2:0,0:0:0:0:
311,207,193812,1,2,2:0:0:0:
311,207,193932,22,0,B|272:175|220:200|220:200|183:243|123:229,1,191.250001167297,0|0,3:3|2:0,0:0:0:0:
104,95,194412,2,0,B|78:45|136:3|196:30|196:111|155:158,1,228.749990575791,8|0,2:0|2:0,0:0:0:0:
71,247,194892,1,2,3:3:0:0:
71,247,195252,85,2,2:0:0:0:
145,329,195372,2,0,L|215:319,1,70.0000008544922,10|0,2:0|2:0,0:0:0:0:
462,284,195732,21,2,2:0:0:0:
462,284,195852,2,0,B|400:328|400:328|415:191,1,210.000002563477,2|0,3:3|2:0,0:0:0:0:
427,102,196332,85,10,2:2:0:0:
371,140,196452,1,2,2:0:0:0:
308,97,196572,1,2,2:0:0:0:
232,148,196692,1,2,2:0:0:0:
145,89,196812,2,0,L|149:12,2,70.0000008544922,2|2|2,3:3|2:0|2:0,0:0:0:0:
144,112,197172,1,2,2:0:0:0:
133,320,197412,1,2,2:0:0:0:
0,384,197772,21,2,2:0:0:0:
452,118,213132,54,0,P|402:144|458:146,1,153.750002346039,2|0,3:3|2:0,0:0:0:0:
359,66,213612,102,0,L|261:70,1,97.4999994049072,0|0,3:3|2:0,0:0:0:0:
167,74,214092,1,2,3:3:0:0:
114,157,214212,2,0,P|127:180|136:155,1,64.9999996032715,2|0,2:0|2:0,0:0:0:0:
39,108,214572,1,2,3:3:0:0:
39,108,215052,5,2,3:3:0:0:
39,108,215172,2,0,L|37:88,2,19.3749992313385,2|2|0,2:0|2:0|2:0,0:0:0:0:
145,247,215532,2,0,P|172:256|198:255,1,51.250000782013,2|0,3:3|2:0,0:0:0:0:
144,116,215772,2,0,P|122:134|110:157,1,51.250000782013,2|0,2:0|2:0,0:0:0:0:
257,179,216012,102,0,P|251:151|237:129,1,51.250000782013,2|0,3:3|2:0,0:0:0:0:
184,51,216372,6,0,P|189:23|203:2,1,51.250000782013,2|0,2:0|2:0,0:0:0:0:
309,0,216732,1,2,2:0:0:0:
285,197,216972,102,0,B|257:179|257:179|254:60,1,152.499993717194,2|2,3:3|2:0,0:0:0:0:
369,168,217452,2,0,P|374:196|370:224,1,57.4999980697632,2|0,3:3|2:0,0:0:0:0:
264,306,217692,2,0,P|285:287|312:276,1,57.4999980697632,2|0,2:0|2:0,0:0:0:0:
436,329,217932,6,0,P|408:319|386:302,1,57.4999980697632,2|0,3:3|2:0,0:0:0:0:
285,197,218292,102,0,P|256:197|229:207,1,57.4999980697632,2|0,2:0|2:0,0:0:0:0:
163,298,218652,1,2,2:0:0:0:
96,76,218892,6,0,P|59:157|63:246,1,180.000004394531,2|0,3:3|0:0,0:0:0:0:
53,251,219372,2,0,P|48:226|47:201,1,51.250000782013,2|0,3:3|2:0,0:0:0:0:
163,298,219612,2,0,P|141:283|122:266,1,51.250000782013,2|0,2:0|2:0,0:0:0:0:
272,253,219852,102,0,P|246:258|221:259,1,51.250000782013,2|0,3:3|2:0,0:0:0:0:
329,191,220212,6,0,P|354:192|379:197,1,51.250000782013,2|0,2:0|2:0,0:0:0:0:
339,297,220572,1,2,2:0:0:0:
261,145,220812,1,0,3:3:0:0:
420,277,221052,1,2,2:0:0:0:
185,285,221292,102,0,L|180:119,1,153.750002346039,2|0,3:0|2:0,0:0:0:0:
260,262,221772,2,0,L|255:314,1,51.250000782013,2|0,3:3|2:0,0:0:0:0:
249,384,222012,1,2,2:0:0:0:
365,294,222132,2,0,L|360:242,1,51.250000782013,2|0,2:0|3:3,0:0:0:0:
354,158,222372,2,0,L|349:106,1,51.250000782013,2|0,2:0|2:0,0:0:0:0:
230,23,222732,6,0,P|201:41|184:75,1,70.0000008544922,2|0,3:3|2:0,0:0:0:0:
263,122,222972,2,0,P|262:104|251:90,1,35.0000004272461,2|0,2:0|2:0,0:0:0:0:
194,200,223212,102,0,P|224:216|262:214,1,70.0000008544922,2|0,3:3|2:0,0:0:0:0:
263,122,223452,2,0,P|248:131|241:147,1,35.0000004272461,2|0,2:0|2:0,0:0:0:0:
334,135,223692,6,0,P|332:100|312:68,1,70.0000008544922,2|0,3:3|2:0,0:0:0:0:
216,65,223932,1,2,2:0:0:0:
308,212,224052,2,0,L|409:206,1,70.0000008544922,2|0,2:0|3:3,0:0:0:0:
471,295,224292,102,0,L|401:290,1,70.0000008544922,2|0,2:0|2:0,0:0:0:0:
322,285,224652,1,0,3:3:0:0:
224,201,224772,6,0,B|222:181,1,19.3749992313385,2|2,2:0|2:0,0:0:0:0:
231,208,224892,102,0,B|233:247,1,38.7499984626771,2|0,2:0|0:0,0:0:0:0:
187,323,225132,6,0,B|140:353|140:353|149:217,1,191.250001167297,2|0,3:3|2:0,0:0:0:0:
96,82,225612,2,0,P|84:111|84:143,1,63.7500003890991,2|0,3:3|2:0,0:0:0:0:
225,143,225852,2,0,P|224:111|213:81,1,63.7500003890991,2|0,2:0|2:0,0:0:0:0:
370,84,226092,102,0,P|358:113|358:145,1,63.7500003890991,2|0,3:3|2:0,0:0:0:0:
421,217,226452,6,0,P|432:246|432:278,1,63.7500003890991,2|0,2:0|2:0,0:0:0:0:
326,348,226812,1,2,2:0:0:0:
212,107,227052,102,0,B|234:100|234:100|216:240,1,152.499993717194,2|2,3:3|2:0,0:0:0:0:
123,363,227532,2,0,L|150:320,1,50.6250012359619,2|0,3:3|2:0,0:0:0:0:
228,318,227772,2,0,L|177:315,1,50.6250012359619,2|0,2:0|2:0,0:0:0:0:
135,250,228012,6,0,L|158:294,1,50.6250012359619,2|0,3:3|2:0,0:0:0:0:
269,156,228492,102,0,B|269:117|224:101|224:101|170:155|225:223,1,191.250001167297,2|0,3:3|2:0,0:0:0:0:
292,241,228972,6,0,L|376:235,1,78.7499975967408,0|0,3:3|2:0,0:0:0:0:
479,228,229452,1,2,3:3:0:0:
403,142,229572,2,0,P|372:123|339:120,1,57.4999980697632,2|0,2:0|2:0,0:0:0:0:
257,170,229932,2,0,P|226:188|193:191,1,57.4999980697632,2|0,3:3|0:0,0:0:0:0:
57,97,230412,1,2,3:3:0:0:
57,97,230532,2,0,L|59:77,2,19.3749992313385,2|2|0,2:0|2:0|2:0,0:0:0:0:
36,309,230892,2,0,P|62:298|91:299,1,57.4999980697632,2|0,3:3|2:0,0:0:0:0:
106,227,231132,2,0,P|132:238|151:259,1,57.4999980697632,2|0,2:0|2:0,0:0:0:0:
221,274,231372,102,0,P|223:245|213:219,1,57.4999980697632,2|0,3:3|2:0,0:0:0:0:
261,334,231732,6,0,P|283:314|295:289,1,57.4999980697632,2|0,2:0|2:0,0:0:0:0:
213,219,232092,1,2,2:0:0:0:
380,251,232332,102,0,B|402:249|418:263|418:263|361:306|301:268,1,164.99999949646,2|2,3:3|2:0,0:0:0:0:
275,139,232812,2,0,P|256:119|230:107,1,57.4999980697632,2|0,3:3|2:0,0:0:0:0:
347,153,233052,2,0,P|347:125|337:98,1,57.4999980697632,2|0,2:0|2:0,0:0:0:0:
417,168,233292,6,0,P|406:193|386:214,1,57.4999980697632,2|0,3:3|2:0,0:0:0:0:
427,274,233652,102,0,P|400:284|371:285,1,57.4999980697632,2|0,2:0|2:0,0:0:0:0:
418,169,234012,1,2,2:0:0:0:
237,277,234252,6,0,B|214:327|253:364|253:364|305:340|301:288,1,191.250001167297,2|0,3:3|0:0,0:0:0:0:
189,181,234732,2,0,P|167:157|158:127,1,63.7500003890991,2|0,3:3|2:0,0:0:0:0:
259,70,234972,2,0,P|237:93|228:123,1,63.7500003890991,2|0,2:0|2:0,0:0:0:0:
329,182,235212,102,0,P|307:158|298:128,1,63.7500003890991,2|0,3:3|2:0,0:0:0:0:
367,124,235572,6,0,P|377:93|399:71,1,63.7500003890991,2|0,2:0|2:0,0:0:0:0:
417,212,235932,1,2,2:0:0:0:
417,212,236172,2,0,P|427:234|430:282,1,63.7500003890991,0|2,3:3|2:0,0:0:0:0:
246,319,236652,102,0,L|489:303,1,228.749990575791,2|0,3:0|2:0,0:0:0:0:
506,302,237132,6,0,P|508:267|486:297,1,76.2499968585969,2|0,3:3|2:0,0:0:0:0:
464,371,237372,1,2,2:0:0:0:
384,244,237492,2,0,L|386:180,1,63.7500003890991,2|0,2:0|3:3,0:0:0:0:
322,314,237732,2,0,L|324:377,1,63.7500003890991,2|0,2:0|2:0,0:0:0:0:
260,140,238092,102,0,L|336:144,1,76.2499968585969,2|0,3:3|2:0,0:0:0:0:
462,139,238332,2,0,L|422:141,1,38.1249984292985,2|0,2:0|2:0,0:0:0:0:
476,68,238572,6,0,L|400:72,1,76.2499968585969,2|0,3:3|2:0,0:0:0:0:
275,71,238812,2,0,L|312:72,1,38.1249984292985,2|0,2:0|2:0,0:0:0:0:
376,130,239052,102,0,P|375:180|340:144,1,127.500000778198,2|2,3:3|2:0,0:0:0:0:
275,71,239412,2,0,P|235:56|204:57,1,63.7500003890991,2|0,2:0|3:3,0:0:0:0:
138,121,239652,6,0,P|98:136|67:135,1,63.7500003890991,2|0,2:0|2:0,0:0:0:0:
1,85,240012,1,0,3:3:0:0:
42,253,240132,102,0,P|31:255|19:256,1,22.5000005493164,2|2,2:0|2:0,0:0:0:0:
51,242,240252,6,0,P|69:239|98:243,1,45.0000010986328,2|0,2:0|0:0,0:0:0:0:
211,346,240492,2,0,P|271:341|199:308,1,210.000002563477,2|0,3:3|2:0,0:0:0:0:
410,308,240972,2,0,P|383:284|350:274,1,70.0000008544922,2|0,3:3|2:0,0:0:0:0:
362,189,241212,2,0,P|328:192|298:209,1,70.0000008544922,2|0,2:0|2:0,0:0:0:0:
212,200,241452,102,0,P|222:166|245:140,1,70.0000008544922,2|0,3:3|2:0,0:0:0:0:
363,190,241812,1,2,2:0:0:0:
363,190,241932,5,0,3:2:0:0:
228,29,242172,1,2,2:0:0:0:
128,203,242412,2,0,L|42:198,1,70.0000008544922,2|2,3:3|2:0,0:0:0:0:
255,134,242892,1,2,3:3:0:0:
443,250,243132,1,2,2:0:0:0:
128,203,243372,1,2,3:3:0:0:
128,203,243852,102,0,L|247:195,1,120.000002929688,2|0,2:0|2:0,0:0:0:0:
291,262,244332,2,0,L|387:268,1,96.6666696166993,0|0,3:0|2:0,0:0:0:0:
440,203,244812,2,0,L|509:198,1,69.9999978637696,0|0,3:0|2:0,0:0:0:0:
375,147,245292,2,0,L|321:143,1,53.3333333333333,0|0,3:0|2:0,0:0:0:0:
169,133,245772,21,0,3:0:0:0:
167,159,245932,1,0,3:0:0:0:
166,186,246092,1,0,3:0:0:0:
188,240,246252,5,0,3:0:0:0:
189,213,246412,1,0,3:0:0:0:
191,187,246572,1,0,3:0:0:0:
135,133,246732,101,0,3:0:0:0:
140,159,246892,1,0,3:0:0:0:
143,186,247052,1,0,3:0:0:0:
220,240,247212,5,0,3:0:0:0:
216,213,247372,1,0,3:0:0:0:
212,187,247532,1,0,3:0:0:0:
227,77,247692,86,0,B|259:64|259:64|343:81,1,120.000002929688,2|0,2:0|2:0,0:0:0:0:
402,156,248172,2,0,B|421:177|421:177|488:163,1,96.6666696166993,0|0,3:0|2:0,0:0:0:0:
379,260,248652,2,0,B|386:239|386:239|354:203,1,69.9999978637696,0|0,3:0|2:0,0:0:0:0:
473,234,249132,2,0,B|457:238|457:238|444:277,1,53.3333333333333,0|0,3:0|2:0,0:0:0:0:
430,384,249612,21,0,3:0:0:0:
382,360,249772,1,0,3:0:0:0:
330,362,249932,1,0,3:0:0:0:
263,324,250092,101,0,3:0:0:0:
308,295,250252,1,0,3:0:0:0:
361,293,250412,1,0,3:0:0:0:
255,248,250572,5,0,3:0:0:0:
210,276,250732,1,0,3:0:0:0:
186,324,250892,1,0,3:0:0:0:
118,362,251052,101,0,3:0:0:0:
115,308,251212,1,0,3:0:0:0:
140,262,251372,1,0,3:0:0:0:
255,248,251532,86,0,P|251:188|219:139,1,120.000002929688,2|0,2:0|2:0,0:0:0:0:
164,198,252012,2,0,P|129:165|83:156,1,96.6666696166993,0|0,3:0|2:0,0:0:0:0:
92,232,252492,2,0,P|57:234|28:252,1,69.9999978637696,0|0,3:0|2:0,0:0:0:0:
77,300,252972,2,0,P|58:318|55:344,1,53.3333333333333,0|0,3:0|2:0,0:0:0:0:
197,237,253452,21,0,3:0:0:0:
165,200,253612,1,0,3:0:0:0:
149,247,253772,1,0,3:0:0:0:
277,198,253932,5,0,3:0:0:0:
314,156,254092,1,0,3:0:0:0:
333,209,254252,1,0,3:0:0:0:
180,119,254412,101,0,3:0:0:0:
137,69,254572,1,0,3:0:0:0:
115,130,254732,1,0,3:0:0:0:
288,83,254892,5,0,3:0:0:0:
337,25,255052,1,0,3:0:0:0:
362,95,255212,1,0,3:0:0:0:
256,192,255372,86,0,B|198:204|198:204|139:193,1,120.000002929688,2|0,2:0|2:0,0:0:0:0:
256,192,255852,2,0,B|266:238|266:238|258:285,1,96.6666696166993,0|0,3:0|2:0,0:0:0:0:
256,192,256332,2,0,B|290:184|290:184|324:190,1,69.9999978637696,0|0,3:0|2:0,0:0:0:0:
256,192,256812,2,0,B|249:165|249:165|254:139,1,53.3333333333333,0|0,3:0|2:0,0:0:0:0:
396,112,257292,21,0,3:0:0:0:
409,114,257452,1,0,3:0:0:0:
422,117,257612,1,0,3:0:0:0:
248,56,257772,101,0,3:0:0:0:
235,58,257932,1,0,3:0:0:0:
222,61,258092,1,0,3:0:0:0:
282,114,258252,6,0,B|319:94|317:48|317:48|398:92|385:211|272:231,1,329.99999899292,0|0,3:0|2:0,0:0:0:0:
276,230,259212,70,0,B|387:224|435:123|411:29|317:4|259:58|282:113,1,378.749992486954,2|0,3:2|2:0,0:0:0:0:
400,208,259692,86,0,B|440:207|440:207|441:210|441:210|478:209,1,77.4999969253541,8|0,2:0|2:0,0:0:0:0:
496,210,260052,1,0,2:0:0:0:
408,379,260172,1,2,3:2:0:0:
276,230,260292,2,0,P|270:183|310:208,1,114.999996139526,2|2,2:0|2:0,0:0:0:0:
305,303,260652,86,0,B|196:293|196:293|161:312|161:312|35:299,1,252.499994991303,10|0,2:0|2:0,0:0:0:0:
37,297,261012,1,0,2:0:0:0:
183,149,261132,1,2,3:2:0:0:
270,220,261252,85,2,2:0:0:0:
284,230,261312,2,0,L|356:227,1,63.1249987478257,2|2,2:0|2:0,0:0:0:0:
139,42,261612,86,0,B|95:62|104:109|104:109|140:109|147:85,1,126.249997495651,10|0,2:0|2:0,0:0:0:0:
296,31,261852,2,0,B|250:12|223:53|223:53|249:79|271:67,1,126.249997495651,2|0,2:0|2:0,0:0:0:0:
414,134,262092,86,0,B|394:88|346:97|346:97|346:134|370:141,1,126.249997495651,2|0,3:2|2:0,0:0:0:0:
250,187,262452,1,2,2:0:0:0:
395,34,262572,86,0,P|449:65|480:120,1,126.249997495651,10|2,2:0|2:0,0:0:0:0:
179,61,262812,2,0,P|232:29|295:30,1,126.249997495651,2|0,2:0|2:0,0:0:0:0:
319,334,263052,86,0,B|259:369|259:369|249:186,1,252.499994991303,2|2,3:2|2:0,0:0:0:0:
469,24,263532,86,0,P|502:59|454:54,1,126.249997495651,10|0,2:0|2:0,0:0:0:0:
229,157,263772,2,0,P|200:196|248:188,1,126.249997495651,2|0,2:0|2:0,0:0:0:0:
472,220,264012,86,0,P|501:259|453:250,1,126.249997495651,2|0,3:2|2:0,0:0:0:0:
321,164,264372,1,2,2:0:0:0:
276,325,264492,86,0,B|252:384|252:384|209:339,1,126.249997495651,10|0,2:0|2:0,0:0:0:0:
75,198,264732,2,0,B|98:140|98:140|142:185,1,126.249997495651,2|0,2:0|2:0,0:0:0:0:
276,325,264972,86,0,B|333:353|333:353|321:164,1,252.499994991303,2|2,3:2|2:0,0:0:0:0:
111,74,265452,2,0,B|145:63|153:31|153:31|148:64|175:87,1,126.249997495651,10|0,2:0|2:0,0:0:0:0:
19,208,265692,2,0,B|35:176|18:148|18:148|38:174|73:171,1,126.249997495651,2|0,2:0|2:0,0:0:0:0:
48,367,265932,86,0,B|36:333|4:325|4:325|37:329|60:302,1,126.249997495651,2|0,3:2|2:0,0:0:0:0:
204,384,266292,1,10,2:0:0:0:
102,228,266412,86,0,P|75:218|-2:249,1,113.750003818512,10|2,2:0|2:0,0:0:0:0:
209,148,266652,2,0,P|196:121|120:89,1,113.750003818512,2|0,2:0|2:0,0:0:0:0:
322,221,266892,86,0,P|370:232|342:191,1,127.500000778198,0|2,3:2|2:0,0:0:0:0:
132,168,267372,86,0,B|79:144|84:72|84:72|21:127|29:230|109:286,1,341.250011455536,10|0,2:0|2:0,0:0:0:0:
194,102,267852,86,0,P|151:92|190:72,1,113.750003818512,2|0,3:2|2:0,0:0:0:0:
306,15,268092,1,2,2:0:0:0:
419,104,268212,2,0,P|462:86|424:59,1,113.750003818512,2|8,2:0|2:0,0:0:0:0:
298,218,268452,2,0,P|335:239|330:189,1,113.750003818512,2|0,2:0|2:0,0:0:0:0:
302,192,268692,1,2,2:0:0:0:
223,335,268812,86,0,P|170:314|116:325,1,113.750003818512,2|2,3:2|2:0,0:0:0:0:
32,258,269052,2,0,P|51:270|60:291,1,45.0000010986328,2|0,2:0|2:0,0:0:0:0:
308,382,269292,86,0,P|319:327|299:275,1,113.750003818512,10|0,2:0|2:0,0:0:0:0:
360,183,269532,2,0,P|352:204|334:217,1,45.0000010986328,2|0,2:0|2:0,0:0:0:0:
185,260,269772,86,0,P|154:291|197:285,1,113.750003818512,2|0,3:2|0:0,0:0:0:0:
214,134,270012,1,2,2:0:0:0:
335,217,270132,2,0,B|357:240|339:275|339:275|302:267|298:233,1,126.249997495651,2|8,2:0|2:0,0:0:0:0:
179,118,270372,86,0,B|156:141|174:176|174:176|211:168|215:134,1,126.249997495651,2|2,2:0|2:0,0:0:0:0:
112,37,270732,1,2,3:2:0:0:
117,220,270852,85,2,2:0:0:0:
303,138,270972,2,0,L|214:133,1,88.7499955310824,2|0,2:0|2:0,0:0:0:0:
412,32,271212,86,0,B|470:12|470:12|541:73|527:243|411:275,1,378.749992486954,10|0,2:0|2:0,0:0:0:0:
270,80,271692,2,0,B|260:63|234:69|234:69|227:117|275:135,1,126.249997495651,2|0,3:2|2:0,0:0:0:0:
337,225,271932,2,0,B|343:205|320:191|320:191|281:220|303:267,1,126.249997495651,2|0,2:0|2:0,0:0:0:0:
216,302,272172,86,0,B|234:292|228:266|228:266|180:259|162:307,1,126.249997495651,2|0,3:2|2:0,0:0:0:0:
275,384,272532,1,2,2:0:0:0:
210,194,272652,86,0,P|149:211|105:255,1,126.249997495651,2|0,3:2|2:0,0:0:0:0:
0,94,272892,2,0,P|61:111|105:155,1,126.249997495651,2|0,2:0|2:0,0:0:0:0:
191,20,273132,86,0,B|165:-7|165:-7|160:86,1,126.249997495651,10|2,2:0|2:0,0:0:0:0:
159,101,273492,1,0,2:0:0:0:
215,199,273612,86,0,L|331:194,1,113.750003818512,2|0,3:2|2:0,0:0:0:0:
272,105,273852,2,0,L|156:100,1,113.750003818512,2|0,2:0|2:0,0:0:0:0:
233,4,274092,2,0,L|349:-1,1,113.750003818512,10|0,2:0|2:0,0:0:0:0:
375,0,274332,1,2,2:0:0:0:
425,250,274572,86,0,B|456:327|377:376|377:376|298:338|282:200|378:128,1,397.500000606537,2|0,3:2|2:0,0:0:0:0:
406,69,275052,86,0,B|454:71|454:71|449:75|449:75|495:77,1,102.500001564026,8|0,2:0|2:0,0:0:0:0:
512,78,275412,1,0,2:0:0:0:
400,0,275532,1,2,3:2:0:0:
223,86,275652,2,0,P|279:119|263:56,1,164.99999949646,2|2,2:0|2:0,0:0:0:0:
153,94,276012,86,0,L|160:358,1,265.000000404358,10|0,2:0|2:0,0:0:0:0:
161,384,276372,1,0,2:0:0:0:
260,218,276492,1,2,3:2:0:0:
108,283,276612,85,2,2:0:0:0:
100,290,276672,2,0,L|43:285,1,56.875001909256,2|2,2:0|2:0,0:0:0:0:
260,218,276972,86,0,L|403:210,1,113.750003818512,10|0,2:0|2:0,0:0:0:0:
430,139,277212,2,0,L|316:132,1,113.750003818512,2|0,2:0|2:0,0:0:0:0:
212,299,277452,86,0,L|325:292,1,113.750003818512,2|0,3:2|2:0,0:0:0:0:
137,302,277812,1,2,2:0:0:0:
90,181,277932,86,0,B|38:158|38:158|34:213,1,113.750003818512,10|2,2:0|2:0,0:0:0:0:
279,172,278172,2,0,B|331:149|331:149|335:204,1,113.750003818512,2|0,2:0|2:0,0:0:0:0:
137,302,278412,86,0,B|99:254|99:254|279:245,1,227.500007637024,2|2,3:2|2:0,0:0:0:0:
465,288,278892,2,0,P|493:323|449:318,1,113.750003818512,10|0,2:0|2:0,0:0:0:0:
406,166,279132,2,0,P|450:171|415:198,1,113.750003818512,2|0,2:0|2:0,0:0:0:0:
276,120,279372,86,0,P|313:94|307:139,1,113.750003818512,2|0,3:2|2:0,0:0:0:0:
302,244,279732,1,2,2:0:0:0:
392,100,279852,86,0,P|366:50|316:24,1,113.750003818512,10|0,2:0|2:0,0:0:0:0:
502,231,280092,2,0,P|519:177|501:124,1,113.750003818512,2|0,2:0|2:0,0:0:0:0:
301,115,280332,86,0,B|271:143|267:186|286:219|286:219|267:183|227:166|190:174,1,227.500007637024,2|2,3:2|2:0,0:0:0:0:
333,329,280812,2,0,B|313:312|320:281|320:281|361:282|375:314|378:328,1,132.500000202179,10|0,2:0|2:0,0:0:0:0:
395,199,281052,2,0,B|369:201|353:174|353:174|382:146|414:159|428:167,1,132.500000202179,2|0,2:0|2:0,0:0:0:0:
348,62,281292,86,0,B|331:82|300:75|300:75|301:34|333:20|348:17,1,132.500000202179,2|0,3:2|2:0,0:0:0:0:
427,166,281652,1,10,2:0:0:0:
234,235,281772,86,0,P|191:203|243:193,1,132.500000202179,10|2,2:0|2:0,0:0:0:0:
428,304,282012,86,0,P|470:272|418:262,1,132.500000202179,2|0,2:0|2:0,0:0:0:0:
346,326,282252,86,0,B|299:322|299:322|302:326|302:326|251:321,1,102.500001564026,0|2,3:2|2:0,0:0:0:0:
427,166,282732,86,0,B|458:128|446:75|446:75|482:117|525:112|525:112|537:192|480:256|409:257,1,397.500000606537,10|0,2:0|2:0,0:0:0:0:
352,104,283212,86,0,B|313:96|304:62|304:62|309:97|290:124,1,132.500000202179,2|0,3:2|2:0,0:0:0:0:
184,165,283452,1,2,2:0:0:0:
77,124,283572,2,0,B|58:97|63:62|63:62|54:96|16:104,1,132.500000202179,2|8,2:0|2:0,0:0:0:0:
42,247,283812,2,0,B|74:267|107:251|107:251|79:272|74:305,1,132.500000202179,2|0,2:0|2:0,0:0:0:0:
36,289,284052,1,2,2:0:0:0:
213,373,284172,86,0,L|363:364,1,151.2499957304,2|2,3:2|2:0,0:0:0:0:
217,297,284412,2,0,L|212:372,1,75.6249978652001,2|0,2:0|2:0,0:0:0:0:
433,270,284652,86,0,L|282:261,1,151.2499957304,10|0,2:0|2:0,0:0:0:0:
429,194,284892,2,0,L|433:269,1,75.6249978652001,2|0,2:0|2:0,0:0:0:0:
279,146,285132,86,0,P|325:142|295:177,1,120.000002929688,2|0,3:2|0:0,0:0:0:0:
153,201,285372,1,2,2:0:0:0:
46,107,285492,2,0,P|6:94|34:136,1,120.000002929688,2|8,2:0|2:0,0:0:0:0:
44,261,285732,86,0,P|-3:285|2:238,1,120.000002929688,2|2,2:0|2:0,0:0:0:0:
36,230,286092,1,2,3:2:0:0:
66,384,286212,85,2,2:0:0:0:
210,288,286332,2,0,L|324:293,1,113.750003818512,2|0,2:0|2:0,0:0:0:0:
475,98,286572,86,0,B|438:67|451:8|451:8|390:80|431:177|442:141|477:231|436:291,1,397.500000606537,10|0,2:0|2:0,0:0:0:0:
316,239,287052,2,0,P|350:198|361:251,1,132.500000202179,2|0,3:2|2:0,0:0:0:0:
437,290,287292,2,0,P|487:308|468:259,1,132.500000202179,2|0,2:0|2:0,0:0:0:0:
366,335,287532,86,0,P|325:369|377:379,1,132.500000202179,2|0,3:2|2:0,0:0:0:0:
395,349,287892,1,2,2:0:0:0:
251,159,288012,86,0,B|273:97|273:97|320:143,1,132.500000202179,2|0,3:2|2:0,0:0:0:0:
475,98,288252,2,0,B|452:36|452:36|405:82,1,132.500000202179,2|0,2:0|2:0,0:0:0:0:
251,159,288492,86,0,B|297:205|297:205|320:143,1,132.500000202179,10|2,2:0|2:0,0:0:0:0:
282,133,288852,1,0,2:0:0:0:
136,220,288972,86,0,L|146:352,1,132.500000202179,2|0,3:2|2:0,0:0:0:0:
245,384,289212,2,0,L|253:270,1,113.750003818512,2|0,2:0|2:0,0:0:0:0:
357,206,289452,2,0,L|363:294,1,88.7499955310824,10|0,2:0|2:0,0:0:0:0:
367,319,289692,1,2,2:0:0:0:
498,198,289932,70,0,B|465:175|427:179|427:179|400:210|357:206,1,153.750002346039,2|0,2:0|2:0,0:0:0:0:
367,130,290412,2,0,L|204:140,1,153.750002346039,8|0,2:0|2:0,0:0:0:0:
133,145,290892,1,2,2:0:0:0:
136,148,291252,21,2,2:0:0:0:
136,148,291372,2,0,L|85:151,1,51.250000782013,0|2,3:0|2:0,0:0:0:0:
234,112,291612,2,0,L|285:115,1,51.250000782013,0|2,3:0|2:0,0:0:0:0:
230,231,291852,2,0,B|224:201|249:185|249:185|290:191|300:239|265:283,1,153.750002346039,2|0,3:2|2:0,0:0:0:0:
158,251,292332,2,0,P|165:175|216:119,1,153.750002346039,8|0,2:0|2:0,0:0:0:0:
234,112,292812,1,2,3:2:0:0:
234,112,293172,21,2,2:0:0:0:
168,203,293292,1,0,3:0:0:0:
310,196,293412,2,0,L|362:193,1,51.250000782013,2|0,2:0|2:0,0:0:0:0:
465,188,293652,1,2,2:0:0:0:
465,188,293772,2,0,B|492:113|492:113|467:44,1,153.750002346039,0|0,3:0|2:0,0:0:0:0:
401,112,294252,2,0,B|383:161|383:161|248:125,1,153.750002346039,8|0,2:0|2:0,0:0:0:0:
269,130,294732,1,2,3:2:0:0:
269,130,295092,53,2,2:0:0:0:
362,32,295212,2,0,L|464:36,1,102.500001564026,8|0,2:0|2:0,0:0:0:0:
466,132,295572,1,2,2:0:0:0:
466,132,295692,22,0,B|438:175|438:175|467:288,1,153.750002346039,2|0,3:2|2:0,0:0:0:0:
408,355,296172,2,0,B|378:324|336:330|336:330|309:360|268:356,1,153.750002346039,8|0,2:0|2:0,0:0:0:0:
233,271,296652,2,0,P|266:223|275:287,1,153.750002346039,0|0,3:0|2:0,0:0:0:0:
163,269,297132,2,0,L|104:266,1,51.250000782013,8|2,2:0|2:0,0:0:0:0:
209,210,297372,2,0,L|268:207,1,51.250000782013,0|0,3:0|2:0,0:0:0:0:
148,157,297612,22,0,B|154:113|113:94|113:94|79:121|95:162,1,153.750002346039,2|0,3:2|2:0,0:0:0:0:
209,210,298092,2,0,P|237:155|335:121,1,153.750002346039,8|0,2:0|2:0,0:0:0:0:
344,123,298572,1,2,3:2:0:0:
344,123,298932,53,2,2:0:0:0:
318,231,299052,1,8,2:0:0:0:
261,103,299172,2,0,L|265:41,1,51.250000782013,2|0,2:0|2:0,0:0:0:0:
184,159,299412,1,2,2:0:0:0:
184,159,299532,2,0,B|154:194|154:194|177:299,1,153.750002346039,2|0,3:2|2:0,0:0:0:0:
192,370,300012,2,0,B|227:353|276:367|257:379|304:393|340:375,1,153.750002346039,8|0,2:0|2:0,0:0:0:0:
359,359,300492,1,2,3:2:0:0:
359,359,300852,21,2,2:0:0:0:
475,293,300972,1,8,2:0:0:0:
309,287,301092,2,0,L|248:285,1,51.250000782013,2|0,2:0|2:0,0:0:0:0:
136,282,301332,1,2,2:0:0:0:
136,282,301452,2,0,B|167:233|167:233|143:109,1,153.750002346039,0|0,3:0|2:0,0:0:0:0:
45,76,301932,2,0,B|118:69|118:69|116:73|116:73|194:67,1,153.750002346039,8|0,2:0|2:0,0:0:0:0:
210,66,302412,1,2,3:2:0:0:
210,66,302772,21,2,2:0:0:0:
292,158,302892,2,0,L|285:306,1,102.500001564026,8|0,2:0|2:0,0:0:0:0:
247,356,303252,1,2,2:0:0:0:
247,356,303372,54,0,B|279:334|321:340|321:340|348:370|398:370,1,153.750002346039,2|0,3:2|2:0,0:0:0:0:
384,286,303852,2,0,P|367:206|376:119,1,153.750002346039,8|0,2:0|2:0,0:0:0:0:
411,51,304332,2,0,B|375:37|342:48|342:48|329:43|329:43|297:58|260:44,1,153.750002346039,0|0,3:0|2:0,0:0:0:0:
372,134,304812,1,8,2:0:0:0:
372,134,304932,2,0,L|368:199,1,51.250000782013,2|0,2:0|2:0,0:0:0:0:
360,339,305292,54,0,B|326:367|326:367|216:343,1,153.750002346039,2|0,3:0|2:0,0:0:0:0:
147,321,305772,1,0,3:0:0:0:
242,109,306252,54,0,L|236:211,1,102.500001564026,2|0,3:0|2:0,0:0:0:0:
232,282,306612,2,0,L|283:284,1,51.250000782013,2|0,2:0|3:0,0:0:0:0:
341,351,306852,2,0,L|392:348,1,51.250000782013,2|0,2:0|2:0,0:0:0:0:
467,343,307092,1,2,2:0:0:0:
381,254,307212,54,0,B|350:219|350:219|365:113,1,153.750002346039,2|0,3:0|2:0,0:0:0:0:
377,29,307692,1,0,3:0:0:0:
151,122,308172,54,0,B|253:117,1,102.500001564026,2|0,3:0|2:0,0:0:0:0:
326,112,308532,2,0,B|328:163,1,51.250000782013,2|0,2:0|3:0,0:0:0:0:
268,217,308772,2,0,B|265:268,1,51.250000782013,2|0,2:0|2:0,0:0:0:0:
111,276,309012,1,2,2:0:0:0:
111,276,309132,54,0,L|268:268,1,153.750002346039,0|0,3:0|2:0,0:0:0:0:
340,264,309612,1,0,3:0:0:0:
244,90,310092,54,0,L|255:200,1,102.500001564026,2|0,3:0|2:0,0:0:0:0:
264,268,310452,2,0,L|272:356,1,51.250000782013,2|0,2:0|3:0,0:0:0:0:
356,205,310932,1,2,2:0:0:0:
409,263,311052,54,0,B|372:286|372:286|263:267,1,153.750002346039,2|0,3:0|2:0,0:0:0:0:
275,188,311532,2,0,B|238:165|238:165|129:184,1,153.750002346039,0|0,3:0|2:0,0:0:0:0:
44,317,312012,2,0,L|49:164,1,153.750002346039,0|0,3:0|2:0,0:0:0:0:
173,288,312492,1,0,3:0:0:0:
173,287,312612,2,0,L|172:339,1,51.250000782013,2|0,2:0|2:0,0:0:0:0:
250,247,312972,54,0,L|247:363,1,116.249995388031,2|0,3:0|2:0,0:0:0:0:
246,384,313452,1,0,3:0:0:0:
171,225,313932,102,0,L|82:222,1,77.4999969253541,2|0,3:0|2:0,0:0:0:0:
0,162,314292,2,0,L|38:160,1,38.7499984626771,2|0,2:0|3:0,0:0:0:0:
110,156,314532,2,0,L|148:154,1,38.7499984626771,2|0,2:0|2:0,0:0:0:0:
222,154,314772,1,2,2:0:0:0:
222,154,314892,2,0,P|252:199|256:283,1,116.249995388031,2|0,3:0|2:0,0:0:0:0:
256,283,315372,1,0,3:0:0:0:
256,283,315852,6,0,L|342:278,1,77.4999969253541,2|0,3:0|2:0,0:0:0:0:
407,215,316212,2,0,L|364:212,1,38.7499984626771,2|0,2:0|3:0,0:0:0:0:
295,209,316452,2,0,L|252:206,1,38.7499984626771,2|0,2:0|2:0,0:0:0:0:
183,203,316692,1,2,2:0:0:0:
183,203,316812,2,0,B|162:171|162:171|178:85,1,116.249995388031,0|0,3:0|2:0,0:0:0:0:
179,79,317292,1,0,3:0:0:0:
179,79,317772,102,0,L|98:73,1,77.4999969253541,2|0,3:0|2:0,0:0:0:0:
20,145,318132,2,0,L|90:139,1,38.7499984626771,2|0,2:0|3:0,0:0:0:0:
263,126,318612,5,2,2:0:0:0:
263,126,318732,2,0,P|283:76|281:10,1,116.249995388031,2|0,3:0|2:0,0:0:0:0:
326,5,319212,2,0,L|457:-1,1,116.249995388031,0|0,3:0|2:0,0:0:0:0:
472,28,319692,2,0,B|470:67|470:67|488:92|488:92|492:151,1,116.249995388031,0|0,3:0|2:0,0:0:0:0:
497,213,320172,1,0,3:0:0:0:
497,213,320292,2,0,L|451:210,1,38.7499984626771,2|0,2:0|2:0,0:0:0:0:
309,170,320652,102,0,B|279:162|279:162|250:188|245:237|283:271,1,154.999993850708,2|0,0:2|0:2,0:0:0:0:
283,271,321612,2,0,L|360:264,1,77.4999969253541,2|0,0:0|0:0,0:0:0:0:
371,291,321972,2,0,L|364:368,2,77.4999969253541,2|2|2,0:0|0:0|0:0,0:0:0:0:
316,207,322572,6,0,B|281:190|243:208|243:208|203:226|165:211,1,154.999993850708,2|0,0:0|0:0,0:0:0:0:
87,334,323532,2,0,P|98:297|92:260,1,77.4999969253541,2|0,0:0|0:0,0:0:0:0:
85,243,323892,2,0,P|78:205|89:168,1,77.4999969253541,2|2,0:0|0:0,0:0:0:0:
141,32,324372,102,0,B|177:69|177:69|166:210,1,193.749992313385,2|0,0:0|0:0,0:0:0:0:
165,210,325452,2,0,B|186:228|186:228|235:219,1,77.4999969253541,2|0,0:0|0:0,0:0:0:0:
253,196,325812,2,0,B|274:178|274:178|323:186,1,77.4999969253541,2|0,0:0|0:0,0:0:0:0:
294,276,326292,1,2,0:0:0:0:
294,276,326412,6,0,L|288:356,1,77.4999969253541,2|0,0:0|0:0,0:0:0:0:
256,192,326772,12,0,329772,0:0:0:0:
