osu file format v14

[General]
AudioFilename: audio.mp3
AudioLeadIn: 0
PreviewTime: 134982
Countdown: 0
SampleSet: Drum
StackLeniency: 0.7
Mode: 0
LetterboxInBreaks: 0
WidescreenStoryboard: 1

[Editor]
Bookmarks: 29982,35982,41982,47982,53982,59982,65982,71982,98982,122982,128982,134982,140982,146982,158982,164982,170982,176982,182982,188982,194982
DistanceSpacing: 0.4
BeatDivisor: 4
GridSize: 32
TimelineZoom: 2

[Metadata]
Title:Gwyn
TitleUnicode:Gwyn
Artist:Dayum
ArtistUnicode:Dayum
Creator:Shidoni
Version:Extreme
Source:
Tags:Instrumental Black Metal Dark Souls Gwyn theme
BeatmapID:2063785
BeatmapSetID:985884

[Difficulty]
HPDrainRate:5.5
CircleSize:3.8
OverallDifficulty:8.7
ApproachRate:9.5
SliderMultiplier:1.7
SliderTickRate:1

[Events]
//Background and Video events
0,0,"gwyn new.jpg",0,0
//Break Periods
2,72119,73457
2,135182,137982
//Storyboard Layer 0 (Background)
//Storyboard Layer 1 (Fail)
//Storyboard Layer 2 (Pass)
//Storyboard Layer 3 (Foreground)
//Storyboard Layer 4 (Overlay)
//Storyboard Sound Samples

[TimingPoints]
29982,250,4,3,1,25,1,0
29982,-200,4,3,1,10,0,0
30982,-166.666666666667,4,3,1,20,0,0
31982,-153.846153846154,4,3,1,30,0,0
32982,-142.857142857143,4,3,1,40,0,0
33982,-125,4,3,1,50,0,0
34482,-66.6666666666667,4,3,1,70,0,0
34982,-100,4,3,1,80,0,0
35982,250,4,3,1,90,1,0
35982,-90.9090909090909,4,3,1,90,0,0
38982,-95.2380952380952,4,3,1,90,0,0
41982,-90.9090909090909,4,3,1,90,0,0
44982,-86.9565217391304,4,3,1,90,0,0
46482,-83.3333333333333,4,3,1,90,0,0
47982,-90.9090909090909,4,3,1,90,0,0
50982,-95.2380952380952,4,3,1,90,0,0
53982,-90.9090909090909,4,3,1,90,0,0
56982,-86.9565217391304,4,3,1,90,0,0
58482,-83.3333333333333,4,3,1,90,0,0
59982,-90.9090909090909,4,3,1,90,0,0
62982,-95.2380952380952,4,3,1,90,0,0
65982,-83.3333333333333,4,3,1,90,0,0
68982,-90.9090909090909,4,3,1,90,0,0
71982,-166.666666666667,4,3,1,25,0,0
75357,-250.000000000001,4,3,1,25,0,0
78919,-250.000000000001,4,3,1,5,0,0
78982,-250.000000000001,4,3,1,25,0,0
86169,-250.000000000001,4,3,1,5,0,0
86232,-142.857142857143,4,3,1,25,0,0
86482,-166.666666666667,4,3,1,25,0,0
86732,-200.000000000001,4,3,1,25,0,0
86982,-250.000000000001,4,3,1,25,0,0
97419,-250.000000000001,4,3,1,5,0,0
97482,-250.000000000001,4,3,1,25,0,0
98982,-125,4,3,1,60,0,0
101732,-166.666666666667,4,3,1,60,0,0
101919,-166.666666666667,4,3,1,5,0,0
101982,-125,4,3,1,60,0,0
104982,-111.111111111111,4,3,1,60,0,0
110982,-125,4,3,1,60,0,0
113732,-166.666666666667,4,3,1,60,0,0
113919,-166.666666666667,4,3,1,5,0,0
113982,-125,4,3,1,60,0,0
116982,-111.111111111111,4,3,1,60,0,0
122232,-142.857142857143,4,3,1,60,0,0
122482,-111.111111111111,4,3,1,60,0,0
122982,-100,4,3,1,90,0,1
128982,-71.4285714285714,4,3,1,90,0,1
129232,-100,4,3,1,90,0,1
134982,-166.666666666667,4,3,1,30,0,0
139482,-166.666666666667,4,3,1,80,0,0
140732,-333.333333333334,4,3,1,80,0,0
140982,-100,4,3,1,90,0,1
146982,-111.111111111111,4,3,1,80,0,0
148982,-111.111111111111,4,3,1,80,0,1
149982,-62.5,4,3,1,80,0,1
150169,-62.5,4,3,1,5,0,1
150232,-62.5,4,3,1,80,0,1
150669,-62.5,4,3,1,5,0,1
150732,-62.5,4,3,1,80,0,1
150919,-62.5,4,3,1,5,0,1
150982,-125,4,3,1,70,0,1
151982,-50,4,3,1,70,0,1
152482,-62.5,4,3,1,70,0,1
152919,-62.5,4,3,1,5,0,1
152982,-66.6666666666666,4,3,1,90,0,1
153482,-58.8235294117647,4,3,1,90,0,1
153982,-100,4,3,1,80,0,1
154982,-83.3333333333333,4,3,1,80,0,1
156982,-100,4,3,1,80,0,0
157482,-125,4,3,1,80,0,0
158982,-90.9090909090909,4,3,1,90,0,0
161982,-95.2380952380952,4,3,1,90,0,0
164982,-90.9090909090909,4,3,1,90,0,0
167982,-86.9565217391304,4,3,1,90,0,0
169482,-83.3333333333333,4,3,1,90,0,0
170982,-200,4,3,1,45,0,0
171232,-200,4,3,1,20,0,0
171482,-200,4,3,1,45,0,0
171919,-200,4,3,1,5,0,0
171982,-333.333333333333,4,3,1,45,0,0
172419,-200,4,3,1,5,0,0
172482,-90.9090909090909,4,3,1,90,0,0
173982,-95.2380952380952,4,3,1,90,0,0
176982,-90.9090909090909,4,3,1,90,0,0
179982,-86.9565217391304,4,3,1,90,0,0
181482,-83.3333333333333,4,3,1,90,0,0
182982,-86.9565217391304,4,3,1,90,0,0
185982,-83.3333333333333,4,3,1,90,0,0
188982,-80,4,3,1,90,0,0
191982,-86.9565217391304,4,3,1,90,0,0
194982,-200,4,3,1,10,0,0

[Colours]
Combo1 : 86,73,101
Combo2 : 82,82,82
Combo3 : 166,106,106
Combo4 : 99,97,133

[HitObjects]
94,311,34482,6,0,B|115:318|133:343|133:343|170:328|185:304|185:304|203:321|219:354|219:354|254:269|357:263|401:325,1,382.500014591218,12|0,0:0|0:0,0:0:0:0:
474,380,34982,5,10,0:0:0:0:
475,371,35044,1,8,0:0:0:0:
476,362,35107,1,8,0:0:0:0:
477,353,35169,1,8,0:0:0:0:
478,344,35232,2,0,L|484:287,3,42.5,0|0|0|0,0:0|0:0|0:0|0:0,0:0:0:0:
387,309,35482,6,0,L|326:320,3,42.5,10|8|8|8,0:0|0:0|0:0|0:0,0:0:0:0:
466,214,35732,2,0,L|527:225,3,42.5,10|8|8|8,0:0|0:0|0:0|0:0,0:0:0:0:
368,128,35982,5,14,0:0:0:0:
354,127,36044,1,0,0:0:0:0:
340,127,36107,1,0,0:0:0:0:
326,130,36169,1,0,0:0:0:0:
312,132,36232,1,0,0:0:0:0:
299,137,36294,1,0,0:0:0:0:
286,143,36357,1,0,0:0:0:0:
274,149,36419,1,0,0:0:0:0:
262,182,36482,5,2,0:1:0:0:
248,185,36544,1,0,0:0:0:0:
234,186,36607,1,0,0:0:0:0:
220,185,36669,1,0,0:0:0:0:
206,183,36732,1,0,0:0:0:0:
193,177,36794,1,0,0:0:0:0:
181,170,36857,1,0,0:0:0:0:
170,161,36919,1,0,0:0:0:0:
163,130,36982,6,0,P|173:99|196:84,3,46.7500014266968,2|0|0|0,0:1|0:0|0:0|0:0,0:0:0:0:
38,193,37232,2,0,P|28:224|5:239,3,46.7500014266968,0|0|0|0,0:0|0:0|0:0|0:0,0:0:0:0:
157,266,37482,5,14,0:1:0:0:
163,283,37544,1,0,0:0:0:0:
166,301,37607,1,0,0:0:0:0:
165,320,37669,1,0,0:0:0:0:
159,338,37732,1,0,0:0:0:0:
150,354,37794,1,0,0:0:0:0:
137,367,37857,1,0,0:0:0:0:
121,378,37919,1,0,0:0:0:0:
88,364,37982,6,0,L|22:373,3,46.7500014266968,10|0|0|0,0:0|0:0|0:0|0:0,0:0:0:0:
157,266,38232,2,0,L|223:275,3,46.7500014266968,0|0|0|0,0:0|0:0|0:0|0:0,0:0:0:0:
84,186,38482,2,0,L|18:195,3,46.7500014266968,10|0|0|0,0:0|0:0|0:0|0:0,0:0:0:0:
153,88,38732,2,0,L|219:97,3,46.7500014266968,0|0|0|0,0:0|0:0|0:0|0:0,0:0:0:0:
40,22,38982,5,14,0:0:0:0:
51,28,39044,1,0,0:0:0:0:
63,34,39107,1,0,0:0:0:0:
76,38,39169,1,0,0:0:0:0:
89,42,39232,1,0,0:0:0:0:
102,45,39294,1,0,0:0:0:0:
115,48,39357,1,0,0:0:0:0:
128,49,39419,1,0,0:0:0:0:
164,30,39482,5,2,0:1:0:0:
175,24,39544,1,0,0:0:0:0:
187,18,39607,1,0,0:0:0:0:
200,14,39669,1,0,0:0:0:0:
213,10,39732,1,0,0:0:0:0:
226,7,39794,1,0,0:0:0:0:
239,4,39857,1,0,0:0:0:0:
252,3,39919,1,0,0:0:0:0:
286,28,39982,6,0,P|300:39|315:68,3,44.6249986381531,2|0|0|0,0:1|0:0|0:0|0:0,0:0:0:0:
155,82,40232,2,0,P|141:71|126:42,3,44.6249986381531,0|0|0|0,0:0|0:0|0:0|0:0,0:0:0:0:
270,140,40482,5,14,0:1:0:0:
268,157,40544,1,0,0:0:0:0:
266,175,40607,1,0,0:0:0:0:
265,193,40669,1,0,0:0:0:0:
263,211,40732,1,0,0:0:0:0:
261,228,40794,1,0,0:0:0:0:
260,246,40857,1,0,0:0:0:0:
258,264,40919,1,0,0:0:0:0:
278,294,40982,6,0,B|287:312|287:312|306:334,3,44.6249986381531,10|0|0|0,0:0|0:0|0:0|0:0,0:0:0:0:
356,183,41232,2,0,B|365:165|365:165|384:143,3,44.6249986381531,0|0|0|0,0:0|0:0|0:0|0:0,0:0:0:0:
455,239,41482,6,0,L|510:246,1,44.6249986381531,10|0,0:1|0:0,0:0:0:0:
449,251,41607,2,0,L|504:258,1,44.6249986381531,8|0,0:1|0:0,0:0:0:0:
341,312,41732,2,0,L|286:319,1,44.6249986381531,8|0,0:1|0:0,0:0:0:0:
347,324,41857,2,0,L|292:331,1,44.6249986381531,8|0,0:1|0:0,0:0:0:0:
477,353,41982,5,14,0:0:0:0:
482,340,42044,1,0,0:0:0:0:
487,326,42107,1,0,0:0:0:0:
491,313,42169,1,0,0:0:0:0:
494,299,42232,1,0,0:0:0:0:
496,285,42294,1,0,0:0:0:0:
498,272,42357,1,0,0:0:0:0:
499,258,42419,1,0,0:0:0:0:
479,226,42482,5,2,0:0:0:0:
464,226,42544,1,0,0:0:0:0:
450,227,42607,1,0,0:0:0:0:
436,227,42669,1,0,0:0:0:0:
422,228,42732,1,0,0:0:0:0:
408,229,42794,1,0,0:0:0:0:
394,229,42857,1,0,0:0:0:0:
380,230,42919,1,0,0:0:0:0:
346,254,42982,6,0,L|262:262,3,46.7500014266968,2|0|0|0,0:0|0:0|0:0|0:0,0:0:0:0:
227,123,43232,2,0,L|311:131,3,46.7500014266968,0|0|0|0,0:0|0:0|0:0|0:0,0:0:0:0:
170,228,43482,5,12,0:0:0:0:
153,219,43544,1,0,0:0:0:0:
138,208,43607,1,0,0:0:0:0:
125,195,43669,1,0,0:0:0:0:
114,180,43732,1,0,0:0:0:0:
106,163,43794,1,0,0:0:0:0:
101,145,43857,1,0,0:0:0:0:
99,126,43919,1,0,0:0:0:0:
112,90,43982,6,0,B|128:94|128:94|165:85,3,46.7500014266968,10|0|0|0,0:0|0:0|0:0|0:0,0:0:0:0:
283,11,44232,2,0,B|267:7|267:7|230:16,3,46.7500014266968,0|0|0|0,0:0|0:0|0:0|0:0,0:0:0:0:
273,127,44482,2,0,B|289:131|289:131|326:122,3,46.7500014266968,10|0|0|0,0:0|0:0|0:0|0:0,0:0:0:0:
444,48,44732,2,0,B|428:44|428:44|391:53,3,46.7500014266968,0|0|0|0,0:0|0:0|0:0|0:0,0:0:0:0:
473,170,44982,5,14,0:0:0:0:
482,181,45044,1,0,0:0:0:0:
488,194,45107,1,0,0:0:0:0:
493,208,45169,1,0,0:0:0:0:
495,222,45232,1,0,0:0:0:0:
494,237,45294,1,0,0:0:0:0:
490,251,45357,1,0,0:0:0:0:
484,265,45419,1,0,0:0:0:0:
449,273,45482,5,2,0:0:0:0:
436,265,45544,1,0,0:0:0:0:
423,259,45607,1,0,0:0:0:0:
409,255,45669,1,0,0:0:0:0:
394,252,45732,1,0,0:0:0:0:
379,252,45794,1,0,0:0:0:0:
365,253,45857,1,0,0:0:0:0:
351,257,45919,1,0,0:0:0:0:
326,288,45982,6,0,L|330:342,3,48.8750009322167,2|0|0|0,0:0|0:0|0:0|0:0,0:0:0:0:
481,313,46232,2,0,L|485:259,3,48.8750009322167,0|0|0|0,0:0|0:0|0:0|0:0,0:0:0:0:
399,177,46482,5,14,0:0:0:0:
383,164,46544,1,0,0:0:0:0:
370,148,46607,1,0,0:0:0:0:
361,130,46669,1,0,0:0:0:0:
355,110,46732,1,2,0:0:0:0:
354,90,46794,1,0,0:0:0:0:
358,70,46857,1,0,0:0:0:0:
365,51,46919,1,0,0:0:0:0:
401,32,46982,6,0,P|413:57|408:91,3,50.9999984436036,14|0|0|0,0:0|0:0|0:0|0:0,0:0:0:0:
271,148,47232,2,0,P|283:123|278:89,3,50.9999984436036,2|0|0|0,0:0|0:0|0:0|0:0,0:0:0:0:
178,14,47482,6,0,B|163:21|154:32|154:32|165:59,1,50.9999984436036,8|0,0:0|0:0,0:0:0:0:
183,30,47607,2,0,B|168:37|159:48|159:48|170:75,1,50.9999984436036,8|0,0:0|0:0,0:0:0:0:
88,170,47732,2,0,B|73:163|64:152|64:152|75:125,1,50.9999984436036,8|0,0:0|0:0,0:0:0:0:
96,183,47857,2,0,B|81:176|72:165|72:165|83:138,1,50.9999984436036,8|0,0:0|0:0,0:0:0:0:
225,228,47982,5,14,0:0:0:0:
230,241,48044,1,0,0:0:0:0:
233,254,48107,1,0,0:0:0:0:
234,268,48169,1,0,0:0:0:0:
232,282,48232,1,0,0:0:0:0:
229,296,48294,1,0,0:0:0:0:
223,308,48357,1,0,0:0:0:0:
215,320,48419,1,0,0:0:0:0:
178,331,48482,5,2,0:1:0:0:
186,319,48544,1,0,0:0:0:0:
195,309,48607,1,0,0:0:0:0:
206,300,48669,1,0,0:0:0:0:
218,293,48732,1,0,0:0:0:0:
231,287,48794,1,0,0:0:0:0:
244,283,48857,1,0,0:0:0:0:
258,281,48919,1,0,0:0:0:0:
289,315,48982,6,0,P|308:318|351:306,3,46.7500014266968,2|0|0|0,0:1|0:0|0:0|0:0,0:0:0:0:
420,201,49232,2,0,P|401:198|358:210,3,46.7500014266968,0|0|0|0,0:0|0:0|0:0|0:0,0:0:0:0:
429,332,49482,5,14,0:1:0:0:
427,313,49544,1,0,0:0:0:0:
426,294,49607,1,0,0:0:0:0:
425,276,49669,1,0,0:0:0:0:
423,257,49732,1,0,0:0:0:0:
422,238,49794,1,0,0:0:0:0:
421,220,49857,1,0,0:0:0:0:
420,201,49919,1,0,0:0:0:0:
436,169,49982,6,0,B|440:155|455:146|455:146|488:141,3,46.7500014266968,10|0|0|0,0:0|0:0|0:0|0:0,0:0:0:0:
289,223,50232,2,0,B|293:237|308:246|308:246|341:251,3,46.7500014266968,0|0|0|0,0:0|0:0|0:0|0:0,0:0:0:0:
316,114,50482,2,0,B|320:100|335:91|335:91|368:86,3,46.7500014266968,10|0|0|0,0:0|0:0|0:0|0:0,0:0:0:0:
169,168,50732,2,0,B|173:182|188:191|188:191|221:196,3,46.7500014266968,0|0|0|0,0:0|0:0|0:0|0:0,0:0:0:0:
198,65,50982,5,14,0:0:0:0:
192,52,51044,1,0,0:0:0:0:
185,41,51107,1,0,0:0:0:0:
176,31,51169,1,0,0:0:0:0:
166,22,51232,1,0,0:0:0:0:
154,16,51294,1,0,0:0:0:0:
142,10,51357,1,0,0:0:0:0:
129,7,51419,1,0,0:0:0:0:
91,26,51482,5,2,0:1:0:0:
90,39,51544,1,0,0:0:0:0:
89,52,51607,1,0,0:0:0:0:
88,66,51669,1,0,0:0:0:0:
87,79,51732,1,0,0:0:0:0:
86,92,51794,1,0,0:0:0:0:
85,106,51857,1,0,0:0:0:0:
84,119,51919,1,0,0:0:0:0:
108,158,51982,6,0,L|109:215,3,44.6249986381531,2|0|0|0,0:1|0:0|0:0|0:0,0:0:0:0:
17,306,52232,2,0,L|16:249,3,44.6249986381531,0|0|0|0,0:0|0:0|0:0|0:0,0:0:0:0:
174,266,52482,5,14,0:1:0:0:
188,276,52544,1,0,0:0:0:0:
199,290,52607,1,0,0:0:0:0:
206,306,52669,1,0,0:0:0:0:
208,324,52732,1,0,0:0:0:0:
206,341,52794,1,0,0:0:0:0:
198,357,52857,1,0,0:0:0:0:
187,371,52919,1,0,0:0:0:0:
146,377,52982,6,0,P|170:361|211:361,3,44.6249986381531,10|0|0|0,0:0|0:0|0:0|0:0,0:0:0:0:
56,286,53232,2,0,P|32:302|-9:302,3,44.6249986381531,0|0|0|0,0:0|0:0|0:0|0:0,0:0:0:0:
173,207,53482,6,0,L|162:264,1,44.6249986381531,8|0,0:0|0:0,0:0:0:0:
182,222,53607,2,0,L|171:279,1,44.6249986381531,8|0,0:0|0:0,0:0:0:0:
71,133,53732,2,0,L|82:190,1,44.6249986381531,8|0,0:0|0:0,0:0:0:0:
62,148,53857,2,0,L|73:205,1,44.6249986381531,8|0,0:0|0:0,0:0:0:0:
191,97,53982,5,14,0:1:0:0:
205,96,54044,1,0,0:0:0:0:
219,95,54107,1,0,0:0:0:0:
233,94,54169,1,0,0:0:0:0:
247,94,54232,1,0,0:0:0:0:
261,93,54294,1,0,0:0:0:0:
275,92,54357,1,0,0:0:0:0:
289,92,54419,1,0,0:0:0:0:
313,134,54482,5,2,0:0:0:0:
327,135,54544,1,0,0:0:0:0:
341,136,54607,1,0,0:0:0:0:
355,137,54669,1,0,0:0:0:0:
369,137,54732,1,0,0:0:0:0:
383,138,54794,1,0,0:0:0:0:
397,139,54857,1,0,0:0:0:0:
411,139,54919,1,0,0:0:0:0:
443,169,54982,6,0,P|458:172|490:197,3,46.7500014266968,2|0|0|0,0:0|0:0|0:0|0:0,0:0:0:0:
342,279,55232,2,0,P|327:276|295:251,3,46.7500014266968,0|0|0|0,0:0|0:0|0:0|0:0,0:0:0:0:
472,375,55482,5,12,0:0:0:0:
474,357,55544,1,0,0:0:0:0:
475,338,55607,1,0,0:0:0:0:
476,319,55669,1,0,0:0:0:0:
477,301,55732,1,0,0:0:0:0:
478,282,55794,1,0,0:0:0:0:
479,263,55857,1,0,0:0:0:0:
480,245,55919,1,0,0:0:0:0:
459,212,55982,6,0,L|463:149,3,46.7500014266968,10|0|0|0,0:0|0:0|0:0|0:0,0:0:0:0:
373,97,56232,2,0,L|369:34,3,46.7500014266968,0|0|0|0,0:0|0:0|0:0|0:0,0:0:0:0:
342,279,56482,2,0,L|346:216,3,46.7500014266968,10|0|0|0,0:0|0:0|0:0|0:0,0:0:0:0:
254,152,56732,2,0,L|250:89,3,46.7500014266968,0|0|0|0,0:0|0:0|0:0|0:0,0:0:0:0:
204,278,56982,5,14,0:0:0:0:
195,289,57044,1,0,0:0:0:0:
185,300,57107,1,0,0:0:0:0:
173,308,57169,1,0,0:0:0:0:
159,314,57232,1,0,0:0:0:0:
145,318,57294,1,0,0:0:0:0:
131,319,57357,1,0,0:0:0:0:
116,318,57419,1,0,0:0:0:0:
86,293,57482,5,2,0:0:0:0:
95,282,57544,1,0,0:0:0:0:
103,269,57607,1,0,0:0:0:0:
109,256,57669,1,0,0:0:0:0:
113,242,57732,1,0,0:0:0:0:
114,227,57794,1,0,0:0:0:0:
113,213,57857,1,0,0:0:0:0:
110,198,57919,1,0,0:0:0:0:
72,181,57982,6,0,P|57:193|39:224,3,48.8750009322167,2|0|0|0,0:0|0:0|0:0|0:0,0:0:0:0:
220,142,58232,2,0,P|235:130|253:99,3,48.8750009322167,0|0|0|0,0:0|0:0|0:0|0:0,0:0:0:0:
69,49,58482,5,14,0:0:0:0:
89,47,58544,1,0,0:0:0:0:
109,46,58607,1,0,0:0:0:0:
130,45,58669,1,0,0:0:0:0:
150,43,58732,1,2,0:0:0:0:
170,42,58794,1,0,0:0:0:0:
191,41,58857,1,0,0:0:0:0:
211,40,58919,1,0,0:0:0:0:
253,54,58982,6,0,L|250:110,3,50.9999984436036,14|0|0|0,0:0|0:0|0:0|0:0,0:0:0:0:
379,117,59232,2,0,L|382:173,3,50.9999984436036,2|0|0|0,0:0|0:0|0:0|0:0,0:0:0:0:
188,205,59482,6,0,B|165:192|165:192|151:165,1,50.9999984436036,8|0,0:0|0:0,0:0:0:0:
194,219,59607,2,0,B|171:206|171:206|157:179,1,50.9999984436036,8|0,0:0|0:0,0:0:0:0:
305,249,59732,2,0,B|328:236|328:236|342:209,1,50.9999984436036,8|0,0:0|0:0,0:0:0:0:
299,263,59857,2,0,B|322:250|322:250|336:223,1,50.9999984436036,8|0,0:0|0:0,0:0:0:0:
173,341,59982,5,14,0:1:0:0:
184,332,60044,1,0,0:0:0:0:
196,325,60107,1,0,0:0:0:0:
209,319,60169,1,0,0:0:0:0:
222,314,60232,1,0,0:0:0:0:
235,310,60294,1,0,0:0:0:0:
249,307,60357,1,0,0:0:0:0:
263,305,60419,1,0,0:0:0:0:
297,339,60482,5,2,0:0:0:0:
308,347,60544,1,0,0:0:0:0:
320,354,60607,1,0,0:0:0:0:
333,360,60669,1,0,0:0:0:0:
346,365,60732,1,0,0:0:0:0:
359,369,60794,1,0,0:0:0:0:
373,372,60857,1,0,0:0:0:0:
387,374,60919,1,0,0:0:0:0:
424,351,60982,6,0,L|482:343,3,46.7500014266968,2|0|0|0,0:0|0:0|0:0|0:0,0:0:0:0:
379,234,61232,2,0,L|321:226,3,46.7500014266968,0|0|0|0,0:0|0:0|0:0|0:0,0:0:0:0:
501,174,61482,5,14,0:1:0:0:
499,160,61544,1,0,0:0:0:0:
497,146,61607,1,0,0:0:0:0:
496,132,61669,1,0,0:0:0:0:
481,106,61732,2,0,L|477:165,3,46.7500014266968,0|0|0|0,0:0|0:0|0:0|0:0,0:0:0:0:
389,27,61982,5,14,0:1:0:0:
387,41,62044,1,0,0:0:0:0:
385,55,62107,1,0,0:0:0:0:
384,69,62169,1,0,0:0:0:0:
369,95,62232,2,0,L|365:36,3,46.7500014266968,0|0|0|0,0:0|0:0|0:0|0:0,0:0:0:0:
280,176,62482,5,14,0:1:0:0:
278,162,62544,1,0,0:0:0:0:
276,148,62607,1,0,0:0:0:0:
275,134,62669,1,0,0:0:0:0:
260,108,62732,2,0,L|256:167,3,46.7500014266968,0|0|0|0,0:0|0:0|0:0|0:0,0:0:0:0:
179,40,62982,5,14,0:1:0:0:
165,28,63044,1,0,0:0:0:0:
149,20,63107,1,0,0:0:0:0:
132,14,63169,1,0,0:0:0:0:
114,12,63232,1,0,0:0:0:0:
97,12,63294,1,0,0:0:0:0:
79,16,63357,1,0,0:0:0:0:
63,23,63419,1,0,0:0:0:0:
35,53,63482,5,2,0:0:0:0:
33,70,63544,1,0,0:0:0:0:
32,88,63607,1,0,0:0:0:0:
30,106,63669,1,0,0:0:0:0:
29,124,63732,1,0,0:0:0:0:
28,141,63794,1,0,0:0:0:0:
26,159,63857,1,0,0:0:0:0:
25,177,63919,1,0,0:0:0:0:
0,212,63982,6,0,L|67:200,3,44.6249986381531,2|0|0|0,0:0|0:0|0:0|0:0,0:0:0:0:
156,125,64232,2,0,L|89:113,3,44.6249986381531,0|0|0|0,0:0|0:0|0:0|0:0,0:0:0:0:
194,226,64482,5,12,0:0:0:0:
210,219,64544,1,0,0:0:0:0:
225,209,64607,1,0,0:0:0:0:
238,197,64669,1,0,0:0:0:0:
249,183,64732,1,0,0:0:0:0:
258,168,64794,1,0,0:0:0:0:
263,151,64857,1,0,0:0:0:0:
266,133,64919,1,0,0:0:0:0:
243,100,64982,6,0,L|233:42,3,44.6249986381531,10|0|0|0,0:1|0:0|0:0|0:0,0:0:0:0:
354,166,65232,2,0,L|344:224,3,44.6249986381531,0|0|0|0,0:0|0:0|0:0|0:0,0:0:0:0:
388,52,65482,6,0,L|378:-6,1,44.6249986381531,10|0,0:1|0:0,0:0:0:0:
396,66,65607,2,0,L|386:8,1,44.6249986381531,8|0,0:1|0:0,0:0:0:0:
495,119,65732,2,0,L|485:177,1,44.6249986381531,8|0,0:1|0:0,0:0:0:0:
485,130,65857,2,0,L|475:188,1,44.6249986381531,8|0,0:1|0:0,0:0:0:0:
364,225,65982,5,14,0:0:0:0:
355,237,66044,1,0,0:0:0:0:
349,251,66107,1,0,0:0:0:0:
345,266,66169,1,0,0:0:0:0:
344,281,66232,1,0,0:0:0:0:
346,296,66294,1,0,0:0:0:0:
351,311,66357,1,0,0:0:0:0:
358,324,66419,1,0,0:0:0:0:
390,341,66482,5,2,0:0:0:0:
378,330,66544,1,0,0:0:0:0:
365,322,66607,1,0,0:0:0:0:
352,314,66669,1,0,0:0:0:0:
338,308,66732,1,0,0:0:0:0:
324,303,66794,1,0,0:0:0:0:
309,300,66857,1,0,0:0:0:0:
293,299,66919,1,0,0:0:0:0:
261,321,66982,6,0,P|235:326|211:345,3,50.9999984436036,2|0|0|0,0:0|0:0|0:0|0:0,0:0:0:0:
318,205,67232,2,0,P|344:210|368:229,3,50.9999984436036,0|0|0|0,0:0|0:0|0:0|0:0,0:0:0:0:
236,121,67482,5,14,0:0:0:0:
216,113,67544,1,0,0:0:0:0:
196,110,67607,1,0,0:0:0:0:
176,110,67669,1,0,0:0:0:0:
160,120,67732,2,0,L|166:181,3,50.9999984436036,0|0|0|0,0:0|0:0|0:0|0:0,0:0:0:0:
119,269,67982,5,10,0:0:0:0:
99,277,68044,1,0,0:0:0:0:
79,280,68107,1,0,0:0:0:0:
59,280,68169,1,0,0:0:0:0:
43,270,68232,2,0,L|49:209,3,50.9999984436036,0|0|0|0,0:0|0:0|0:0|0:0,0:0:0:0:
148,115,68482,5,10,0:1:0:0:
146,94,68544,1,0,0:0:0:0:
139,75,68607,1,0,0:0:0:0:
126,59,68669,1,0,0:0:0:0:
110,48,68732,1,0,0:0:0:0:
90,42,68794,1,0,0:0:0:0:
70,42,68857,1,0,0:0:0:0:
51,48,68919,1,0,0:0:0:0:
24,81,68982,6,0,L|88:75,3,46.7500014266968,2|0|0|0,0:1|0:0|0:0|0:0,0:0:0:0:
164,170,69232,2,0,L|100:164,3,46.7500014266968,0|0|0|0,0:0|0:0|0:0|0:0,0:0:0:0:
179,55,69482,2,0,L|243:49,3,46.7500014266968,2|0|0|0,0:1|0:0|0:0|0:0,0:0:0:0:
319,144,69732,2,0,L|255:138,3,46.7500014266968,0|0|0|0,0:0|0:0|0:0|0:0,0:0:0:0:
392,71,69982,5,2,0:1:0:0:
406,83,70044,1,0,0:0:0:0:
417,98,70107,1,0,0:0:0:0:
425,115,70169,1,0,0:0:0:0:
429,133,70232,1,0,0:0:0:0:
429,151,70294,1,0,0:0:0:0:
425,170,70357,1,0,0:0:0:0:
417,187,70419,1,0,0:0:0:0:
384,209,70482,6,0,P|380:240|388:275,3,46.7500014266968,10|0|0|0,0:0|0:0|0:0|0:0,0:0:0:0:
270,185,70732,2,0,P|274:154|266:119,3,46.7500014266968,2|0|0|0,0:0|0:0|0:0|0:0,0:0:0:0:
291,287,70982,2,0,P|287:318|295:353,3,46.7500014266968,2|0|0|0,0:0|0:0|0:0|0:0,0:0:0:0:
177,263,71232,2,0,P|181:232|173:197,3,46.7500014266968,2|0|0|0,0:0|0:0|0:0|0:0,0:0:0:0:
98,360,71482,6,0,L|87:292,1,46.7500014266968,8|0,0:0|0:0,0:0:0:0:
109,372,71607,2,0,L|98:304,1,46.7500014266968,8|0,0:0|0:0,0:0:0:0:
189,205,71732,2,0,L|200:137,1,46.7500014266968,8|0,0:0|0:0,0:0:0:0:
179,216,71857,2,0,L|190:148,1,46.7500014266968,8|0,0:0|0:0,0:0:0:0:
158,172,73982,5,0,0:0:0:0:
157,177,74044,1,0,0:0:0:0:
156,182,74107,1,0,0:0:0:0:
155,187,74169,1,0,0:0:0:0:
153,192,74232,2,0,L|194:192,3,25.4999992218018,0|0|0|0,0:0|0:0|0:0|0:0,0:0:0:0:
73,190,74482,5,8,0:0:0:0:
266,134,74607,1,10,0:0:0:0:
270,145,74857,1,0,0:0:0:0:
77,201,74982,5,12,0:0:0:0:
215,278,75357,2,0,B|255:300|296:285|296:285|272:328|272:328|315:312|360:343|360:343|402:368|446:340,1,306,8|8,0:0|0:0,0:0:0:0:
435,346,77232,1,0,0:0:0:0:
215,278,77607,2,0,P|185:240|182:209,1,68,0|0,0:0|0:0,0:0:0:0:
274,132,77982,6,0,B|262:109|235:98|235:98|268:98|293:78|293:78|333:115|333:115|354:105|362:89|362:89|383:80|414:99,1,255,8|0,0:0|0:0,0:0:0:0:
406,95,79482,1,8,0:0:0:0:
237,20,80357,1,0,0:0:0:0:
173,137,80607,2,0,P|158:108|158:63,1,68,0|0,0:0|0:0,0:0:0:0:
251,186,80982,5,8,0:0:0:0:
251,186,81357,2,0,B|215:141|172:137|172:137|174:201|174:201|157:224|157:224|163:284|163:284|152:250|117:239,1,306,8|8,0:0|0:0,0:0:0:0:
91,123,83607,1,0,0:0:0:0:
164,284,83857,1,0,0:0:0:0:
164,284,83982,5,8,0:0:0:0:
221,119,84232,2,0,B|249:106|281:108|281:108|306:125|306:125|346:84|361:91|389:103|422:77|422:77|452:80|471:102|471:102|435:103|407:128,1,340,8|8,0:0|0:0,0:0:0:0:
441,279,85982,2,0,P|431:304|413:325,1,51,8|0,0:0|0:0,0:0:0:0:
295,245,86232,6,0,L|296:277,1,29.7499990921021,0|0,0:0|0:0,0:0:0:0:
237,362,86357,2,0,L|236:330,1,29.7499990921021,0|0,0:0|0:0,0:0:0:0:
201,250,86482,2,0,L|202:282,1,25.4999992218018,8|0,0:0|0:0,0:0:0:0:
149,343,86607,2,0,L|148:311,1,25.4999992218018,8|0,0:0|0:0,0:0:0:0:
105,259,86732,2,0,L|106:291,1,21.25,8|0,0:0|0:0,0:0:0:0:
72,313,86857,2,0,L|71:281,1,21.25,8|0,0:0|0:0,0:0:0:0:
15,203,86982,5,4,0:0:0:0:
131,20,87357,2,0,B|84:32|80:92|80:92|121:71|162:81|162:81|177:108|177:108|224:124|269:93,1,306,8|8,0:0|0:0,0:0:0:0:
267,93,89232,1,0,0:0:0:0:
80,92,89607,1,0,0:0:0:0:
250,197,89857,1,0,0:0:0:0:
250,197,89982,5,8,0:0:0:0:
381,27,90232,2,0,B|421:-4|469:19|469:19|465:40|465:40|447:71|447:71|444:117|495:151|495:151|502:197|470:242,1,340,8|8,0:0|0:0,0:0:0:0:
372,183,92357,1,0,0:0:0:0:
475,237,92482,1,0,0:0:0:0:
367,196,92607,1,0,0:0:0:0:
468,342,92857,1,0,0:0:0:0:
468,342,92982,5,8,0:0:0:0:
416,117,93357,2,0,B|380:92|343:100|343:100|324:124|298:125|298:125|232:77|274:11|274:11|306:27|301:57,1,306,8|8,0:0|0:0,0:0:0:0:
301,45,95607,1,0,0:0:0:0:
151,141,95857,1,0,0:0:0:0:
151,141,95982,5,8,0:0:0:0:
314,249,96232,2,0,B|298:232|267:237|267:237|249:273|233:289|233:289|200:275|170:283|170:283|146:315|107:314|107:314|134:354|168:329,1,323,8|0,0:0|0:0,0:0:0:0:
198,199,97482,6,0,L|194:170,2,22.6666666666667,0|0|0,0:0|0:0|0:0,0:0:0:0:
104,154,97732,2,0,L|108:125,2,22.6666666666667,8|8|8,0:2|0:2|0:2,0:0:0:0:
192,77,97982,5,8,0:0:0:0:
216,64,98065,1,8,0:0:0:0:
242,59,98148,1,8,0:0:0:0:
276,103,98232,1,8,0:0:0:0:
301,112,98315,1,8,0:0:0:0:
327,109,98398,1,8,0:0:0:0:
360,67,98482,6,0,P|381:61|399:61,2,22.6666666666667,0|0|0,0:0|0:0|0:0,0:0:0:0:
475,126,98732,2,0,P|454:120|436:120,2,22.6666666666667,0|0|0,0:0|0:0|0:0,0:0:0:0:
369,204,98982,5,2,0:0:0:0:
364,226,99065,1,0,0:0:0:0:
362,248,99148,1,0,0:0:0:0:
366,270,99232,1,2,0:0:0:0:
373,291,99315,1,0,0:0:0:0:
386,309,99398,1,0,0:0:0:0:
370,292,99482,5,2,0:0:0:0:
348,285,99565,1,0,0:0:0:0:
325,283,99648,1,0,0:0:0:0:
302,288,99732,1,2,0:0:0:0:
283,300,99815,1,0,0:0:0:0:
268,316,99898,1,0,0:0:0:0:
258,336,99982,5,2,0:0:0:0:
238,325,100065,1,0,0:0:0:0:
216,319,100148,1,0,0:0:0:0:
193,319,100232,1,2,0:0:0:0:
171,325,100315,1,0,0:0:0:0:
150,335,100398,1,0,0:0:0:0:
133,350,100482,5,14,0:0:0:0:
131,353,100982,6,0,L|137:293,1,34,0|0,0:0|0:0,0:0:0:0:
52,271,101107,2,0,L|58:331,1,34,0|0,0:0|0:0,0:0:0:0:
164,252,101232,2,0,L|170:192,1,34,0|0,0:0|0:0,0:0:0:0:
85,170,101357,2,0,L|91:230,1,34,0|0,0:0|0:0,0:0:0:0:
149,111,101482,6,0,P|116:87|110:85,3,34,0|0|0|0,0:0|0:0|0:0|0:0,0:0:0:0:
184,206,101732,2,0,P|217:216|272:195,1,76.4999976654053,0|0,0:0|0:0,0:0:0:0:
320,133,101982,5,2,0:0:0:0:
340,123,102065,1,0,0:0:0:0:
362,119,102148,1,0,0:0:0:0:
384,120,102232,1,2,0:0:0:0:
406,124,102315,1,0,0:0:0:0:
425,135,102398,1,0,0:0:0:0:
440,152,102482,5,2,0:0:0:0:
427,133,102565,1,0,0:0:0:0:
420,111,102648,1,0,0:0:0:0:
418,88,102732,1,2,0:0:0:0:
421,65,102815,1,0,0:0:0:0:
429,43,102898,1,0,0:0:0:0:
445,27,102982,5,2,0:0:0:0:
423,32,103065,1,0,0:0:0:0:
401,37,103148,1,0,0:0:0:0:
378,42,103232,1,2,0:0:0:0:
356,47,103315,1,0,0:0:0:0:
334,52,103398,1,0,0:0:0:0:
312,60,103482,5,14,0:0:0:0:
312,60,103732,1,0,0:0:0:0:
440,152,103982,1,0,0:0:0:0:
440,152,104232,1,0,0:0:0:0:
282,191,104482,1,0,0:0:0:0:
282,191,104732,1,0,0:0:0:0:
410,283,104982,6,0,P|375:309|324:313,1,76.4999976654053,8|0,0:0|0:0,0:0:0:0:
285,368,105232,2,0,P|242:358|207:321,1,76.4999976654053,8|0,0:0|0:0,0:0:0:0:
139,327,105482,2,0,P|120:288|125:237,1,76.4999976654053,8|0,0:0|0:0,0:0:0:0:
77,190,105732,2,0,P|94:150|136:121,1,76.4999976654053,8|0,0:0|0:0,0:0:0:0:
142,53,105982,2,0,P|184:41|233:55,1,76.4999976654053,8|0,0:0|0:0,0:0:0:0:
288,16,106232,2,0,P|325:40|346:86,1,76.4999976654053,8|0,0:0|0:0,0:0:0:0:
353,150,106482,6,0,B|328:149|328:149|291:142|291:142|308:156,1,76.4999976654053,12|0,0:0|0:0,0:0:0:0:
438,214,106732,2,0,B|463:213|463:213|500:206|500:206|483:220,1,76.4999976654053,8|0,0:0|0:0,0:0:0:0:
317,260,106982,2,0,B|292:259|292:259|255:252|255:252|272:266,1,76.4999976654053,8|0,0:0|0:0,0:0:0:0:
402,324,107232,2,0,B|427:323|427:323|464:316|464:316|447:330,1,76.4999976654053,8|0,0:0|0:0,0:0:0:0:
292,215,107482,2,0,B|305:236|305:236|329:264|329:264|309:256,1,76.4999976654053,8|0,0:0|0:0,0:0:0:0:
336,65,107732,2,0,B|323:86|323:86|309:121|309:121|307:99,1,76.4999976654053,8|0,0:0|0:0,0:0:0:0:
174,100,107982,6,0,B|174:111|174:111|185:124|185:124|189:98|189:98|176:64,1,76.4999976654053,8|0,0:0|0:0,0:0:0:0:
61,35,108232,2,0,B|61:24|61:24|50:11|50:11|46:37|46:37|59:71,1,76.4999976654053,8|0,0:0|0:0,0:0:0:0:
176,228,108482,2,0,B|176:239|176:239|187:252|187:252|191:226|191:226|178:192,1,76.4999976654053,8|0,0:0|0:0,0:0:0:0:
63,163,108732,2,0,B|63:152|63:152|52:139|52:139|48:165|48:165|61:199,1,76.4999976654053,8|0,0:0|0:0,0:0:0:0:
184,357,108982,2,0,B|184:368|184:368|195:381|195:381|199:355|199:355|186:321,1,76.4999976654053,8|0,0:0|0:0,0:0:0:0:
71,292,109232,2,0,B|71:281|71:281|60:268|60:268|56:294|56:294|69:328,1,76.4999976654053,8|0,0:0|0:0,0:0:0:0:
176,228,109482,5,12,0:0:0:0:
176,228,109607,1,0,0:0:0:0:
279,296,109732,1,8,0:0:0:0:
279,296,109857,1,0,0:0:0:0:
352,206,109982,1,8,0:0:0:0:
352,206,110107,1,0,0:0:0:0:
455,274,110232,1,8,0:0:0:0:
455,274,110357,1,0,0:0:0:0:
512,126,110482,5,0,0:0:0:0:
512,103,110565,1,0,0:0:0:0:
507,82,110648,1,0,0:0:0:0:
496,62,110732,1,0,0:0:0:0:
480,47,110815,1,0,0:0:0:0:
460,37,110898,1,0,0:0:0:0:
433,63,110982,5,2,0:0:0:0:
416,77,111065,1,0,0:0:0:0:
394,84,111148,1,0,0:0:0:0:
371,86,111232,1,2,0:0:0:0:
349,79,111315,1,0,0:0:0:0:
330,66,111398,1,0,0:0:0:0:
316,47,111482,5,2,0:0:0:0:
312,69,111565,1,0,0:0:0:0:
309,91,111648,1,0,0:0:0:0:
306,113,111732,1,2,0:0:0:0:
303,135,111815,1,0,0:0:0:0:
300,157,111898,1,0,0:0:0:0:
297,179,111982,5,2,0:0:0:0:
279,165,112065,1,0,0:0:0:0:
257,157,112148,1,0,0:0:0:0:
234,153,112232,1,2,0:0:0:0:
211,154,112315,1,0,0:0:0:0:
189,161,112398,1,0,0:0:0:0:
171,175,112482,5,14,0:0:0:0:
170,176,112982,6,0,L|115:181,1,34,0|0,0:0|0:0,0:0:0:0:
230,233,113107,2,0,L|285:238,1,34,0|0,0:0|0:0,0:0:0:0:
136,257,113232,2,0,L|81:262,1,34,0|0,0:0|0:0,0:0:0:0:
196,314,113357,2,0,L|251:319,1,34,0|0,0:0|0:0,0:0:0:0:
121,367,113482,6,0,P|114:337|115:323,3,34,0|0|0|0,0:0|0:0|0:0|0:0,0:0:0:0:
245,336,113732,2,0,B|271:333|271:333|293:336|293:336|338:329,1,76.4999976654053,0|0,0:0|0:0,0:0:0:0:
392,282,113982,5,2,0:0:0:0:
406,264,114065,1,0,0:0:0:0:
414,243,114148,1,0,0:0:0:0:
416,220,114232,1,2,0:0:0:0:
411,197,114315,1,0,0:0:0:0:
404,175,114398,1,0,0:0:0:0:
389,157,114482,5,2,0:0:0:0:
409,166,114565,1,0,0:0:0:0:
431,169,114648,1,0,0:0:0:0:
453,165,114732,1,2,0:0:0:0:
471,152,114815,1,0,0:0:0:0:
483,133,114898,1,0,0:0:0:0:
485,110,114982,5,2,0:0:0:0:
462,106,115065,1,0,0:0:0:0:
439,102,115148,1,0,0:0:0:0:
416,98,115232,1,2,0:0:0:0:
393,94,115315,1,0,0:0:0:0:
370,90,115398,1,0,0:0:0:0:
345,88,115482,5,14,0:0:0:0:
345,88,115732,1,0,0:0:0:0:
250,26,115982,1,0,0:0:0:0:
250,26,116232,1,0,0:0:0:0:
168,109,116482,1,0,0:0:0:0:
168,109,116732,1,0,0:0:0:0:
70,47,116982,6,0,B|55:73|55:73|53:94|53:94|70:75,1,76.4999976654053,8|0,0:0|0:0,0:0:0:0:
15,156,117232,2,0,B|25:184|25:184|40:199|40:199|36:174,1,76.4999976654053,8|0,0:0|0:0,0:0:0:0:
58,273,117482,2,0,B|86:283|86:283|107:281|107:281|85:267,1,76.4999976654053,8|0,0:0|0:0,0:0:0:0:
167,325,117732,2,0,B|192:309|192:309|205:292|205:292|181:300,1,76.4999976654053,8|0,0:0|0:0,0:0:0:0:
275,270,117982,2,0,B|280:240|280:240|274:220|274:220|265:243,1,76.4999976654053,8|0,0:0|0:0,0:0:0:0:
302,151,118232,2,0,B|282:128|282:128|263:118|263:118|275:141,1,76.4999976654053,8|0,0:0|0:0,0:0:0:0:
380,249,118482,6,0,L|480:257,1,76.4999976654053,12|0,0:0|0:0,0:0:0:0:
385,167,118732,2,0,L|285:175,1,76.4999976654053,8|0,0:0|0:0,0:0:0:0:
403,88,118982,2,0,L|503:96,1,76.4999976654053,8|0,0:0|0:0,0:0:0:0:
408,6,119232,2,0,L|308:14,1,76.4999976654053,8|0,0:0|0:0,0:0:0:0:
242,3,119482,2,0,L|183:84,1,76.4999976654053,8|0,0:0|0:0,0:0:0:0:
126,106,119732,2,0,L|151:203,1,76.4999976654053,8|0,0:0|0:0,0:0:0:0:
239,259,119982,6,0,B|220:262|220:262|193:252|193:252|239:243,1,76.4999976654053,8|0,0:0|0:0,0:0:0:0:
331,182,120232,2,0,B|350:185|350:185|377:175|377:175|331:166,1,76.4999976654053,8|0,0:0|0:0,0:0:0:0:
145,180,120482,2,0,B|126:183|126:183|99:173|99:173|145:164,1,76.4999976654053,8|0,0:0|0:0,0:0:0:0:
237,103,120732,2,0,B|256:106|256:106|283:96|283:96|237:87,1,76.4999976654053,8|0,0:0|0:0,0:0:0:0:
51,101,120982,2,0,B|32:104|32:104|5:94|5:94|51:85,1,76.4999976654053,8|0,0:0|0:0,0:0:0:0:
143,24,121232,2,0,B|162:27|162:27|189:17|189:17|143:8,1,76.4999976654053,8|0,0:0|0:0,0:0:0:0:
126,167,121482,5,12,0:0:0:0:
126,167,121607,1,0,0:0:0:0:
97,304,121732,1,8,0:0:0:0:
97,304,121857,1,0,0:0:0:0:
225,231,121982,5,10,0:0:0:0:
242,224,122044,1,8,0:0:0:0:
261,222,122107,1,8,0:0:0:0:
279,224,122169,1,8,0:0:0:0:
309,247,122232,2,0,L|305:293,3,29.7499990921021,0|0|0|0,0:0|0:0|0:0|0:0,0:0:0:0:
421,174,122482,6,0,L|369:182,3,38.2499988327027,10|8|8|8,0:0|0:0|0:0|0:0,0:0:0:0:
438,288,122732,2,0,L|490:296,3,38.2499988327027,10|8|8|8,0:0|0:0|0:0|0:0,0:0:0:0:
506,180,122982,5,14,0:0:0:0:
502,150,123044,1,0,0:0:0:0:
487,123,123107,1,0,0:0:0:0:
464,103,123169,1,0,0:0:0:0:
435,94,123232,1,0,0:0:0:0:
405,96,123294,1,0,0:0:0:0:
377,107,123357,1,0,0:0:0:0:
357,129,123419,1,0,0:0:0:0:
351,162,123482,5,8,0:0:0:0:
354,149,123544,1,8,0:0:0:0:
361,138,123607,1,8,0:0:0:0:
371,130,123669,1,8,0:0:0:0:
382,125,123732,5,2,0:1:0:0:
397,154,123794,1,0,0:0:0:0:
405,187,123857,1,0,0:0:0:0:
397,219,123919,1,0,0:0:0:0:
376,246,123982,2,0,P|355:261|326:265,3,42.5,2|0|0|0,0:0|0:0|0:0|0:0,0:0:0:0:
238,161,124232,2,0,P|259:146|288:142,3,42.5,2|0|0|0,0:0|0:0|0:0|0:0,0:0:0:0:
273,300,124482,5,14,0:0:0:0:
243,295,124544,1,0,0:0:0:0:
213,289,124607,1,0,0:0:0:0:
183,284,124669,1,0,0:0:0:0:
153,279,124732,1,0,0:0:0:0:
123,274,124794,1,0,0:0:0:0:
93,269,124857,1,0,0:0:0:0:
63,264,124919,1,0,0:0:0:0:
33,259,124982,5,8,0:0:0:0:
38,270,125044,1,8,0:0:0:0:
45,280,125107,1,8,0:0:0:0:
54,288,125169,1,8,0:0:0:0:
64,294,125232,5,2,0:1:0:0:
45,271,125294,1,0,0:0:0:0:
33,244,125357,1,0,0:0:0:0:
28,214,125419,1,0,0:0:0:0:
34,185,125482,2,0,P|47:157|76:137,3,42.5,2|0|0|0,0:0|0:0|0:0|0:0,0:0:0:0:
173,242,125732,2,0,P|160:270|131:290,3,42.5,2|0|0|0,0:0|0:0|0:0|0:0,0:0:0:0:
160,117,125982,5,14,0:0:0:0:
179,100,126044,1,0,0:0:0:0:
203,92,126107,1,0,0:0:0:0:
228,93,126169,1,0,0:0:0:0:
250,105,126232,1,0,0:0:0:0:
273,115,126294,1,0,0:0:0:0:
298,113,126357,1,0,0:0:0:0:
321,103,126419,1,0,0:0:0:0:
339,84,126482,5,8,0:0:0:0:
331,94,126544,1,8,0:0:0:0:
325,105,126607,1,8,0:0:0:0:
323,117,126669,1,8,0:0:0:0:
328,128,126732,5,2,0:1:0:0:
342,102,126794,1,0,0:0:0:0:
366,85,126857,1,0,0:0:0:0:
395,80,126919,1,0,0:0:0:0:
422,94,126982,2,0,L|430:153,3,42.5,2|0|0|0,0:0|0:0|0:0|0:0,0:0:0:0:
345,245,127232,2,0,L|353:186,3,42.5,2|0|0|0,0:0|0:0|0:0|0:0,0:0:0:0:
368,341,127482,5,14,0:0:0:0:
331,334,127565,1,0,0:0:0:0:
295,329,127648,1,0,0:0:0:0:
251,349,127732,1,2,0:1:0:0:
215,355,127815,1,0,0:0:0:0:
179,360,127898,1,0,0:0:0:0:
139,308,127982,6,0,B|144:283|158:274|158:274|172:293,2,56.6666666666667,14|0|0,0:0|0:0|0:0,0:0:0:0:
50,322,128232,2,0,B|45:347|31:356|31:356|17:337,2,56.6666666666667,2|0|0,0:1|0:0|0:0,0:0:0:0:
116,211,128482,2,0,B|107:186|114:172|114:172|136:181,2,56.6666666666667,14|0|0,0:0|0:0|0:0,0:0:0:0:
48,281,128732,2,0,B|56:305|49:319|49:319|27:310,2,56.6666666666667,14|0|0,0:0|0:0|0:0,0:0:0:0:
167,287,128982,6,0,B|176:298|196:297|196:297|226:271|250:290|278:277|278:277|249:290|244:311,1,158.666661824544,14|0,0:0|0:0,0:0:0:0:
321,352,129232,1,0,0:0:0:0:
348,331,129294,1,0,0:0:0:0:
359,308,129357,1,0,0:0:0:0:
364,283,129419,1,0,0:0:0:0:
360,257,129482,5,8,0:0:0:0:
352,266,129544,1,8,0:0:0:0:
352,278,129607,1,8,0:0:0:0:
354,290,129669,1,8,0:0:0:0:
361,300,129732,5,2,0:1:0:0:
341,278,129794,1,0,0:0:0:0:
314,264,129857,1,0,0:0:0:0:
284,268,129919,1,0,0:0:0:0:
258,288,129982,2,0,P|242:300|200:311,3,42.5,2|0|0|0,0:0|0:0|0:0|0:0,0:0:0:0:
110,249,130232,2,0,P|126:237|168:226,3,42.5,2|0|0|0,0:0|0:0|0:0|0:0,0:0:0:0:
47,354,130482,5,14,0:0:0:0:
33,332,130544,1,0,0:0:0:0:
23,308,130607,1,0,0:0:0:0:
17,284,130669,1,0,0:0:0:0:
13,258,130732,1,0,0:0:0:0:
14,233,130794,1,0,0:0:0:0:
17,208,130857,1,0,0:0:0:0:
24,183,130919,1,0,0:0:0:0:
35,160,130982,5,8,0:0:0:0:
42,170,131044,1,8,0:0:0:0:
46,181,131107,1,8,0:0:0:0:
48,193,131169,1,8,0:0:0:0:
44,205,131232,5,2,0:1:0:0:
70,192,131294,1,0,0:0:0:0:
99,188,131357,1,0,0:0:0:0:
127,195,131419,1,0,0:0:0:0:
147,217,131482,2,0,L|153:281,3,42.5,2|0|0|0,0:0|0:0|0:0|0:0,0:0:0:0:
206,107,131732,2,0,L|212:43,3,42.5,2|0|0|0,0:0|0:0|0:0|0:0,0:0:0:0:
306,221,131982,1,14,0:0:0:0:
316,197,132044,1,0,0:0:0:0:
318,172,132107,1,0,0:0:0:0:
313,147,132169,1,0,0:0:0:0:
299,125,132232,1,0,0:0:0:0:
279,110,132294,1,0,0:0:0:0:
256,100,132357,1,0,0:0:0:0:
231,99,132419,1,0,0:0:0:0:
206,107,132482,5,8,0:0:0:0:
216,114,132544,1,8,0:0:0:0:
227,118,132607,1,8,0:0:0:0:
239,120,132669,1,8,0:0:0:0:
251,117,132732,5,2,0:1:0:0:
244,88,132794,1,0,0:0:0:0:
226,64,132857,1,0,0:0:0:0:
201,49,132919,1,0,0:0:0:0:
171,46,132982,2,0,L|124:53,3,42.5,2|0|0|0,0:0|0:0|0:0|0:0,0:0:0:0:
32,123,133232,2,0,L|79:129,3,42.5,2|0|0|0,0:0|0:0|0:0|0:0,0:0:0:0:
138,237,133482,5,14,0:0:0:0:
167,234,133544,1,0,0:0:0:0:
196,231,133607,1,0,0:0:0:0:
225,228,133669,1,0,0:0:0:0:
260,246,133732,1,0,0:0:0:0:
289,247,133794,1,0,0:0:0:0:
318,248,133857,1,0,0:0:0:0:
347,249,133919,1,0,0:0:0:0:
376,263,133982,6,0,P|364:287|376:320,2,56.6666666666667,14|0|0,0:0|0:0|0:0,0:0:0:0:
498,203,134232,2,0,P|510:179|498:146,2,56.6666666666667,8|0|0,0:0|0:0|0:0,0:0:0:0:
368,161,134482,5,10,0:0:0:0:
368,161,134607,1,8,0:0:0:0:
464,350,134732,1,10,0:0:0:0:
464,350,134857,1,8,0:0:0:0:
488,207,134982,5,4,0:0:0:0:
390,122,139482,5,8,0:0:0:0:
390,132,139544,1,8,0:0:0:0:
391,142,139607,1,8,0:0:0:0:
391,152,139669,1,8,0:0:0:0:
400,175,139732,2,0,L|442:164,3,25.4999992218018,0|0|0|0,0:0|0:0|0:0|0:0,0:0:0:0:
329,231,139982,5,0,0:0:0:0:
314,236,140044,1,0,0:0:0:0:
298,239,140107,1,0,0:0:0:0:
282,238,140169,1,0,0:0:0:0:
261,200,140232,1,0,0:0:0:0:
246,195,140294,1,0,0:0:0:0:
230,192,140357,1,0,0:0:0:0:
214,193,140419,1,0,0:0:0:0:
187,222,140482,6,0,L|196:269,3,25.4999992218018,8|8|8|8,0:0|0:0|0:0|0:0,0:0:0:0:
111,179,140732,2,0,L|114:160,3,12.7499996109009,0|0|0|0,0:0|0:0|0:0|0:0,0:0:0:0:
114,307,140982,5,14,0:0:0:0:
132,324,141044,1,0,0:0:0:0:
155,333,141107,1,0,0:0:0:0:
180,335,141169,1,0,0:0:0:0:
204,326,141232,1,0,0:0:0:0:
225,313,141294,1,0,0:0:0:0:
249,305,141357,1,0,0:0:0:0:
274,303,141419,1,0,0:0:0:0:
298,310,141482,5,8,0:0:0:0:
286,304,141544,1,8,0:0:0:0:
277,294,141607,1,8,0:0:0:0:
271,282,141669,1,8,0:0:0:0:
273,269,141732,5,2,0:1:0:0:
267,298,141794,1,0,0:0:0:0:
276,326,141857,1,0,0:0:0:0:
297,346,141919,1,0,0:0:0:0:
325,355,141982,2,0,P|351:355|376:337,3,42.5,2|0|0|0,0:0|0:0|0:0|0:0,0:0:0:0:
403,226,142232,2,0,P|377:226|352:244,3,42.5,2|0|0|0,0:0|0:0|0:0|0:0,0:0:0:0:
486,313,142482,5,14,0:0:0:0:
491,288,142544,1,0,0:0:0:0:
493,262,142607,1,0,0:0:0:0:
489,236,142669,1,0,0:0:0:0:
481,211,142732,1,0,0:0:0:0:
476,186,142794,1,0,0:0:0:0:
474,160,142857,1,0,0:0:0:0:
474,134,142919,1,0,0:0:0:0:
479,108,142982,5,8,0:0:0:0:
468,115,143044,1,8,0:0:0:0:
459,124,143107,1,8,0:0:0:0:
453,135,143169,1,8,0:0:0:0:
449,147,143232,5,2,0:1:0:0:
425,128,143294,1,0,0:0:0:0:
396,119,143357,1,0,0:0:0:0:
366,124,143419,1,0,0:0:0:0:
340,139,143482,2,0,L|349:195,3,42.5,2|0|0|0,0:0|0:0|0:0|0:0,0:0:0:0:
259,69,143732,2,0,L|268:13,3,42.5,2|0|0|0,0:0|0:0|0:0|0:0,0:0:0:0:
161,157,143982,5,14,0:0:0:0:
135,160,144044,1,0,0:0:0:0:
111,155,144107,1,0,0:0:0:0:
89,141,144169,1,0,0:0:0:0:
74,121,144232,1,0,0:0:0:0:
66,97,144294,1,0,0:0:0:0:
68,72,144357,1,0,0:0:0:0:
78,49,144419,1,0,0:0:0:0:
95,30,144482,5,8,0:0:0:0:
95,42,144544,1,8,0:0:0:0:
92,54,144607,1,8,0:0:0:0:
86,65,144669,1,8,0:0:0:0:
75,71,144732,5,2,0:1:0:0:
104,69,144794,1,0,0:0:0:0:
134,67,144857,1,0,0:0:0:0:
164,65,144919,1,0,0:0:0:0:
193,63,144982,2,0,L|261:56,3,42.5,2|0|0|0,0:0|0:0|0:0|0:0,0:0:0:0:
141,175,145232,2,0,L|73:167,3,42.5,2|0|0|0,0:0|0:0|0:0|0:0,0:0:0:0:
279,238,145482,5,14,0:0:0:0:
285,266,145544,1,0,0:0:0:0:
282,296,145607,1,0,0:0:0:0:
271,323,145669,1,0,0:0:0:0:
251,346,145732,1,0,0:0:0:0:
226,361,145794,1,0,0:0:0:0:
197,368,145857,1,0,0:0:0:0:
167,365,145919,1,0,0:0:0:0:
135,338,145982,6,0,B|130:320|134:311|134:311|151:310|172:299,2,56.6666666666667,14|0|0,0:0|0:0|0:0,0:0:0:0:
98,170,146232,2,0,B|103:188|99:197|99:197|82:198|61:209,2,56.6666666666667,8|0|0,0:0|0:0|0:0,0:0:0:0:
193,63,146482,5,10,0:0:0:0:
193,63,146607,1,8,0:0:0:0:
279,238,146732,1,10,0:0:0:0:
279,238,146857,1,8,0:0:0:0:
391,37,146982,5,14,0:0:0:0:
395,42,147044,1,0,0:0:0:0:
400,49,147107,1,0,0:0:0:0:
403,55,147169,1,0,0:0:0:0:
407,62,147232,1,0,0:0:0:0:
409,70,147294,1,0,0:0:0:0:
411,77,147357,1,0,0:0:0:0:
413,84,147419,1,0,0:0:0:0:
411,100,147482,6,0,P|411:118|402:140,7,38.2499988327027,2|0|0|0|0|0|0|0,0:0|0:0|0:0|0:0|0:0|0:0|0:0|0:0,0:0:0:0:
425,257,147982,5,2,0:1:0:0:
417,254,148044,1,0,0:0:0:0:
410,251,148107,1,0,0:0:0:0:
403,249,148169,1,0,0:0:0:0:
395,248,148232,1,0,0:0:0:0:
388,248,148294,1,0,0:0:0:0:
380,248,148357,1,0,0:0:0:0:
374,248,148419,1,0,0:0:0:0:
360,257,148482,6,0,P|332:271|324:280,7,38.2499988327027,2|0|0|0|0|0|0|0,0:0|0:0|0:0|0:0|0:0|0:0|0:0|0:0,0:0:0:0:
483,277,148982,6,0,L|473:190,1,50.9999984436036,8|0,0:0|0:0,0:0:0:0:
445,38,149148,2,0,L|435:125,1,50.9999984436036,8|0,0:0|0:0,0:0:0:0:
475,298,149315,2,0,L|434:220,1,50.9999984436036,8|0,0:0|0:0,0:0:0:0:
353,88,149481,2,0,L|374:172,1,50.9999984436036,8|0,0:0|0:0,0:0:0:0:
467,321,149648,2,0,L|399:265,1,50.9999984436036,8|0,0:0|0:0,0:0:0:0:
276,170,149814,2,0,L|329:239,1,50.9999984436036,8|0,0:0|0:0,0:0:0:0:
336,330,149982,6,0,B|325:356|283:363|283:363|270:341|249:327|249:327|222:371|174:365,1,204,12|0,0:0|0:0,0:0:0:0:
123,250,150232,2,0,P|154:253|179:284,3,68,8|8|8|8,0:0|0:0|0:0|0:0,0:0:0:0:
45,288,150482,2,0,B|18:246|44:205|44:205|25:188|14:165|14:165|34:127|12:84,1,204,10|0,0:0|0:0,0:0:0:0:
31,93,150732,2,0,B|58:135|32:176|32:176|51:193|62:216|62:216|42:254|64:297,1,204,2|0,0:0|0:0,0:0:0:0:
177,279,150982,5,10,0:2:0:0:
210,255,151065,1,8,0:2:0:0:
250,252,151148,1,8,0:2:0:0:
285,273,151232,2,0,B|296:284|296:284|284:310|273:325,2,45.3333333333333,8|8|8,0:0|0:0|0:0,0:0:0:0:
355,212,151482,5,8,0:0:0:0:
392,228,151565,1,0,0:0:0:0:
414,262,151648,1,8,0:0:0:0:
414,302,151732,2,0,B|409:317|409:317|381:319|362:317,2,45.3333333333333,0|8|0,0:0|0:0|0:0,0:0:0:0:
481,196,151982,6,0,B|472:167|472:167|492:130|480:71|480:71|478:95|461:114,1,170,10|0,0:1|0:0,0:0:0:0:
355,212,152232,2,0,B|364:241|364:241|344:278|356:337|356:337|358:313|375:294,1,170,10|0,0:1|0:0,0:0:0:0:
309,113,152482,2,0,B|274:93|237:99|237:99|209:134|209:134|178:156|130:151|130:151|100:130|91:103|91:103|41:83|41:83|56:41|136:5|161:77,1,476,10|0,0:0|0:0,0:0:0:0:
162,224,152982,6,0,B|164:255|142:280|142:280|138:257|143:247,1,85.0000032424928,8|0,0:0|0:0,0:0:0:0:
76,166,153148,2,0,B|73:134|95:109|95:109|99:132|94:142,1,85.0000032424928,8|0,0:0|0:0,0:0:0:0:
179,248,153315,2,0,B|158:271|124:274|124:274|138:255|149:251,1,85.0000032424928,8|0,0:0|0:0,0:0:0:0:
245,164,153482,2,0,B|269:151|269:151|320:158|304:171|305:171|347:164,1,96.3333351707459,8|0,0:0|0:0,0:0:0:0:
436,278,153648,2,0,B|412:265|412:265|361:272|377:285|376:285|334:278,1,96.3333351707459,8|0,0:0|0:0,0:0:0:0:
493,104,153815,2,0,P|500:143|441:180,1,96.3333351707459,8|0,0:0|0:0,0:0:0:0:
362,92,153982,6,0,P|340:84|305:95,3,42.5,2|0|0|0,0:1|0:0|0:0|0:0,0:0:0:0:
204,175,154232,2,0,P|226:161|258:167,3,42.5,2|0|0|0,0:1|0:0|0:0|0:0,0:0:0:0:
347,280,154482,2,0,L|339:229,3,42.5,10|8|8|8,0:1|0:0|0:0|0:0,0:0:0:0:
208,317,154732,2,0,L|200:368,3,42.5,10|8|8|8,0:1|0:2|0:2|0:2,0:0:0:0:
109,210,154982,6,0,B|98:228|81:239|81:239|95:255|95:255|107:246,2,67.9999979248048,0|0|0,0:0|0:0|0:0,0:0:0:0:
204,175,155232,2,0,B|225:175|243:184|243:184|249:164|249:164|236:158,2,67.9999979248048,0|0|0,0:0|0:0|0:0,0:0:0:0:
114,110,155482,2,0,B|103:91|102:71|102:71|82:75|82:75|83:90,2,67.9999979248048,0|0|0,0:0|0:0|0:0,0:0:0:0:
113,224,155732,2,0,B|102:242|85:253|85:253|99:269|99:269|111:260,2,67.9999979248048,0|0|0,0:0|0:0|0:0,0:0:0:0:
199,305,155982,6,0,B|240:300|240:300|225:294,1,50.9999984436036,8|0,0:0|0:0,0:0:0:0:
204,315,156107,2,0,B|245:310|245:310|230:304,1,50.9999984436036,8|0,0:0|0:0,0:0:0:0:
287,159,156232,2,0,B|246:154|246:154|261:148,1,50.9999984436036,8|0,0:0|0:0,0:0:0:0:
282,169,156357,2,0,B|241:164|241:164|256:158,1,50.9999984436036,8|0,0:0|0:0,0:0:0:0:
405,41,156482,6,0,B|410:69|410:69|404:94|404:94|392:87,2,67.9999979248048,0|0|0,0:0|0:0|0:0,0:0:0:0:
475,194,156732,2,0,B|470:165|470:165|476:140|476:140|488:147,2,67.9999979248048,0|0|0,0:0|0:0|0:0,0:0:0:0:
383,268,156982,5,0,0:0:0:0:
383,280,157044,1,0,0:0:0:0:
387,291,157107,1,0,0:0:0:0:
395,300,157169,1,0,0:0:0:0:
425,326,157232,1,8,0:2:0:0:
431,333,157294,1,8,0:2:0:0:
439,338,157357,1,8,0:2:0:0:
449,339,157419,1,8,0:2:0:0:
486,322,157482,6,0,L|482:284,3,34,8|8|8|8,0:0|0:0|0:0|0:0,0:0:0:0:
386,234,157732,2,0,L|382:272,3,34,0|0|0|0,0:0|0:0|0:0|0:0,0:0:0:0:
311,349,157982,5,10,0:0:0:0:
297,349,158044,1,8,0:0:0:0:
283,350,158107,1,8,0:0:0:0:
269,351,158169,1,8,0:0:0:0:
238,344,158232,2,0,L|286:336,3,34,0|0|0|0,0:0|0:0|0:0|0:0,0:0:0:0:
74,317,158482,6,0,L|81:363,3,34,10|8|8|8,0:0|0:0|0:0|0:0,0:0:0:0:
203,205,158732,2,0,L|196:251,3,34,10|8|8|8,0:0|0:0|0:0|0:0,0:0:0:0:
56,144,158982,5,14,0:0:0:0:
55,130,159044,1,0,0:0:0:0:
55,116,159107,1,0,0:0:0:0:
58,102,159169,1,0,0:0:0:0:
62,88,159232,1,0,0:0:0:0:
67,75,159294,1,0,0:0:0:0:
74,63,159357,1,0,0:0:0:0:
82,52,159419,1,0,0:0:0:0:
125,57,159482,5,2,0:1:0:0:
136,65,159544,1,0,0:0:0:0:
148,72,159607,1,0,0:0:0:0:
161,77,159669,1,0,0:0:0:0:
174,81,159732,1,0,0:0:0:0:
188,83,159794,1,0,0:0:0:0:
202,84,159857,1,0,0:0:0:0:
216,82,159919,1,0,0:0:0:0:
252,55,159982,6,0,P|270:39|275:3,3,46.7500014266968,2|0|0|0,0:1|0:0|0:0|0:0,0:0:0:0:
325,141,160232,2,0,P|307:157|302:193,3,46.7500014266968,0|0|0|0,0:0|0:0|0:0|0:0,0:0:0:0:
408,42,160482,5,14,0:1:0:0:
426,38,160544,1,0,0:0:0:0:
444,40,160607,1,0,0:0:0:0:
462,47,160669,1,0,0:0:0:0:
477,58,160732,1,0,0:0:0:0:
489,72,160794,1,0,0:0:0:0:
496,89,160857,1,0,0:0:0:0:
499,108,160919,1,0,0:0:0:0:
476,142,160982,6,0,L|479:201,3,46.7500014266968,10|0|0|0,0:0|0:0|0:0|0:0,0:0:0:0:
396,249,161232,2,0,L|393:190,3,46.7500014266968
318,96,161482,2,0,L|321:155,3,46.7500014266968,10|0|0|0,0:0|0:0|0:0|0:0,0:0:0:0:
235,215,161732,2,0,L|232:156,3,46.7500014266968,0|0|0|0,0:0|0:0|0:0|0:0,0:0:0:0:
154,109,161982,5,14,0:0:0:0:
140,106,162044,1,0,0:0:0:0:
127,106,162107,1,0,0:0:0:0:
114,107,162169,1,0,0:0:0:0:
101,110,162232,1,0,0:0:0:0:
88,115,162294,1,0,0:0:0:0:
76,122,162357,1,0,0:0:0:0:
66,129,162419,1,0,0:0:0:0:
57,174,162482,5,2,0:1:0:0:
70,175,162544,1,0,0:0:0:0:
83,176,162607,1,0,0:0:0:0:
96,177,162669,1,0,0:0:0:0:
110,179,162732,1,0,0:0:0:0:
123,180,162794,1,0,0:0:0:0:
136,181,162857,1,0,0:0:0:0:
150,182,162919,1,0,0:0:0:0:
188,163,162982,6,0,L|241:169,3,44.6249986381531,2|0|0|0,0:1|0:0|0:0|0:0,0:0:0:0:
136,263,163232,2,0,L|83:269,3,44.6249986381531,0|0|0|0,0:0|0:0|0:0|0:0,0:0:0:0:
258,282,163482,5,14,0:1:0:0:
275,284,163544,1,0,0:0:0:0:
292,289,163607,1,0,0:0:0:0:
308,297,163669,1,0,0:0:0:0:
322,308,163732,1,0,0:0:0:0:
335,321,163794,1,0,0:0:0:0:
345,336,163857,1,0,0:0:0:0:
352,352,163919,1,0,0:0:0:0:
348,382,163982,6,0,L|340:326,3,44.6249986381531,10|0|0|0,0:0|0:0|0:0|0:0,0:0:0:0:
449,261,164232,2,0,L|441:317,3,44.6249986381531,0|0|0|0,0:0|0:0|0:0|0:0,0:0:0:0:
346,187,164482,6,0,P|369:178|396:183,1,44.6249986381531,10|0,0:1|0:0,0:0:0:0:
338,196,164607,2,0,P|361:187|388:192,1,44.6249986381531,8|0,0:1|0:0,0:0:0:0:
502,102,164732,2,0,P|479:111|452:106,1,44.6249986381531,8|0,0:1|0:0,0:0:0:0:
510,93,164857,2,0,P|487:102|460:97,1,44.6249986381531,8|0,0:1|0:0,0:0:0:0:
343,33,164982,5,14,0:0:0:0:
330,24,165044,1,0,0:0:0:0:
319,18,165107,1,0,0:0:0:0:
305,12,165169,1,0,0:0:0:0:
291,9,165232,1,0,0:0:0:0:
277,9,165294,1,0,0:0:0:0:
263,10,165357,1,0,0:0:0:0:
250,14,165419,1,0,0:0:0:0:
230,48,165482,5,2,0:0:0:0:
233,63,165544,1,0,0:0:0:0:
234,75,165607,1,0,0:0:0:0:
234,91,165669,1,0,0:0:0:0:
231,105,165732,1,0,0:0:0:0:
226,118,165794,1,0,0:0:0:0:
219,130,165857,1,0,0:0:0:0:
211,141,165919,1,0,0:0:0:0:
172,162,165982,6,0,P|159:142|157:110,3,46.7500014266968,2|0|0|0,0:0|0:0|0:0|0:0,0:0:0:0:
250,251,166232,2,0,P|263:231|265:199,3,46.7500014266968,0|0|0|0,0:0|0:0|0:0|0:0,0:0:0:0:
138,246,166482,5,12,0:0:0:0:
120,254,166544,1,0,0:0:0:0:
106,265,166607,1,0,0:0:0:0:
95,281,166669,1,0,0:0:0:0:
90,298,166732,1,0,0:0:0:0:
89,317,166794,1,0,0:0:0:0:
95,335,166857,1,0,0:0:0:0:
104,352,166919,1,0,0:0:0:0:
147,358,166982,6,0,L|206:352,3,46.7500014266968,10|0|0|0,0:0|0:0|0:0|0:0,0:0:0:0:
296,255,167232,2,0,L|237:249,3,46.7500014266968,0|0|0|0,0:0|0:0|0:0|0:0,0:0:0:0:
310,373,167482,2,0,L|369:367,3,46.7500014266968,10|0|0|0,0:0|0:0|0:0|0:0,0:0:0:0:
459,270,167732,2,0,L|400:264,3,46.7500014266968,0|0|0|0,0:0|0:0|0:0|0:0,0:0:0:0:
475,374,167982,5,14,0:0:0:0:
484,357,168044,1,0,0:0:0:0:
492,339,168107,1,0,0:0:0:0:
498,320,168169,1,0,0:0:0:0:
502,301,168232,1,0,0:0:0:0:
505,282,168294,1,0,0:0:0:0:
505,262,168357,1,0,0:0:0:0:
503,243,168419,1,0,0:0:0:0:
470,216,168482,5,2,0:0:0:0:
461,199,168544,1,0,0:0:0:0:
453,181,168607,1,0,0:0:0:0:
447,162,168669,1,0,0:0:0:0:
443,143,168732,1,0,0:0:0:0:
440,124,168794,1,0,0:0:0:0:
440,104,168857,1,0,0:0:0:0:
442,85,168919,1,0,0:0:0:0:
477,54,168982,6,0,B|491:67|491:67|499:101,3,48.8750009322167,2|0|0|0,0:0|0:0|0:0|0:0,0:0:0:0:
356,41,169232,2,0,B|342:28|342:28|334:-6,3,48.8750009322167,0|0|0|0,0:0|0:0|0:0|0:0,0:0:0:0:
301,143,169482,5,14,0:0:0:0:
285,155,169544,1,0,0:0:0:0:
266,164,169607,1,0,0:0:0:0:
246,168,169669,1,0,0:0:0:0:
226,168,169732,1,0,0:0:0:0:
206,162,169794,1,0,0:0:0:0:
189,152,169857,1,0,0:0:0:0:
174,139,169919,1,0,0:0:0:0:
181,103,169982,6,0,L|234:98,3,50.9999984436036,10|0|0|0,0:0|0:0|0:0|0:0,0:0:0:0:
88,34,170232,2,0,L|35:29,3,50.9999984436036,0|0|0|0,0:0|0:0|0:0|0:0,0:0:0:0:
61,127,170482,6,0,L|71:184,1,50.9999984436036,8|0,0:0|0:0,0:0:0:0:
56,144,170607,2,0,L|66:201,1,50.9999984436036,8|0,0:0|0:0,0:0:0:0:
184,35,170732,2,0,L|174:92,1,50.9999984436036,8|0,0:0|0:0,0:0:0:0:
189,52,170857,2,0,L|179:109,1,50.9999984436036,8|0,0:0|0:0,0:0:0:0:
430,256,171482,6,0,P|438:227|347:190,1,148.75,2|0,0:1|0:0,0:0:0:0:
363,201,171982,2,0,P|405:193|422:234,1,89.2499972763062,2|0,0:1|0:0,0:0:0:0:
370,323,172482,5,14,0:0:0:0:
360,333,172544,1,0,0:0:0:0:
349,342,172607,1,0,0:0:0:0:
337,349,172669,1,0,0:0:0:0:
324,354,172732,1,0,0:0:0:0:
310,356,172794,1,0,0:0:0:0:
296,357,172857,1,0,0:0:0:0:
282,356,172919,1,0,0:0:0:0:
260,320,172982,5,12,0:0:0:0:
250,309,173044,1,0,0:0:0:0:
239,300,173107,1,0,0:0:0:0:
227,293,173169,1,0,0:0:0:0:
214,288,173232,1,0,0:0:0:0:
200,286,173294,1,0,0:0:0:0:
186,285,173357,1,0,0:0:0:0:
172,286,173419,1,0,0:0:0:0:
138,313,173482,6,0,L|142:368,3,46.7500014266968,10|0|0|0,0:0|0:0|0:0|0:0,0:0:0:0:
33,265,173732,2,0,L|37:210,3,46.7500014266968,0|0|0|0,0:0|0:0|0:0|0:0,0:0:0:0:
184,172,173982,5,14,0:0:0:0:
188,154,174044,1,0,0:0:0:0:
188,136,174107,1,0,0:0:0:0:
185,119,174169,1,0,0:0:0:0:
179,102,174232,1,0,0:0:0:0:
169,87,174294,1,0,0:0:0:0:
157,75,174357,1,0,0:0:0:0:
142,65,174419,1,0,0:0:0:0:
116,93,174482,5,2,0:1:0:0:
131,101,174544,1,0,0:0:0:0:
148,108,174607,1,0,0:0:0:0:
165,111,174669,1,0,0:0:0:0:
183,112,174732,1,0,0:0:0:0:
201,111,174794,1,0,0:0:0:0:
218,106,174857,1,0,0:0:0:0:
234,99,174919,1,0,0:0:0:0:
252,65,174982,6,0,P|277:53|315:54,3,44.6249986381531,2|0|0|0,0:1|0:0|0:0|0:0,0:0:0:0:
418,97,175232,2,0,P|393:109|355:108,3,44.6249986381531,0|0|0|0,0:0|0:0|0:0|0:0,0:0:0:0:
297,170,175482,5,14,0:1:0:0:
298,187,175544,1,0,0:0:0:0:
299,205,175607,1,0,0:0:0:0:
301,223,175669,1,0,0:0:0:0:
302,241,175732,1,0,0:0:0:0:
303,258,175794,1,0,0:0:0:0:
305,276,175857,1,0,0:0:0:0:
306,294,175919,1,0,0:0:0:0:
324,314,175982,6,0,L|327:363,3,44.6249986381531,10|0|0|0,0:0|0:0|0:0|0:0,0:0:0:0:
422,216,176232,2,0,L|425:167,3,44.6249986381531,0|0|0|0,0:0|0:0|0:0|0:0,0:0:0:0:
436,338,176482,6,0,P|455:332|480:303,1,44.6249986381531,10|0,0:1|0:0,0:0:0:0:
423,352,176607,2,0,P|442:346|467:317,1,44.6249986381531,8|0,0:0|0:0,0:0:0:0:
311,300,176732,2,0,P|292:294|267:265,1,44.6249986381531,8|0,0:0|0:0,0:0:0:0:
324,314,176857,2,0,P|305:308|280:279,1,44.6249986381531,8|0,0:0|0:0,0:0:0:0:
442,221,176982,5,14,0:1:0:0:
454,214,177044,1,0,0:0:0:0:
466,206,177107,1,0,0:0:0:0:
476,197,177169,1,0,0:0:0:0:
484,185,177232,1,0,0:0:0:0:
490,173,177294,1,0,0:0:0:0:
494,159,177357,1,0,0:0:0:0:
496,145,177419,1,0,0:0:0:0:
466,131,177482,5,2,0:0:0:0:
453,138,177544,1,0,0:0:0:0:
440,143,177607,1,0,0:0:0:0:
427,146,177669,1,0,0:0:0:0:
413,146,177732,1,0,0:0:0:0:
399,145,177794,1,0,0:0:0:0:
385,141,177857,1,0,0:0:0:0:
373,134,177919,1,0,0:0:0:0:
368,94,177982,6,0,P|366:79|381:47,3,46.7500014266968,2|0|0|0,0:0|0:0|0:0|0:0,0:0:0:0:
506,102,178232,2,0,P|508:117|493:149,3,46.7500014266968,0|0|0|0,0:0|0:0|0:0|0:0,0:0:0:0:
362,164,178482,5,12,0:0:0:0:
342,165,178544,1,0,0:0:0:0:
324,171,178607,1,0,0:0:0:0:
309,182,178669,1,0,0:0:0:0:
297,196,178732,1,0,0:0:0:0:
290,213,178794,1,0,0:0:0:0:
287,232,178857,1,0,0:0:0:0:
289,250,178919,1,0,0:0:0:0:
315,280,178982,6,0,L|365:274,3,46.7500014266968,10|0|0|0,0:0|0:0|0:0|0:0,0:0:0:0:
250,356,179232,2,0,L|200:350,3,46.7500014266968,0|0|0|0,0:0|0:0|0:0|0:0,0:0:0:0:
263,187,179482,2,0,L|313:181,3,46.7500014266968,10|0|0|0,0:0|0:0|0:0|0:0,0:0:0:0:
198,263,179732,2,0,L|148:257,3,46.7500014266968,0|0|0|0,0:0|0:0|0:0|0:0,0:0:0:0:
143,153,179982,5,14,0:1:0:0:
128,155,180044,1,0,0:0:0:0:
114,159,180107,1,0,0:0:0:0:
101,165,180169,1,0,0:0:0:0:
88,172,180232,1,0,0:0:0:0:
77,182,180294,1,0,0:0:0:0:
67,193,180357,1,0,0:0:0:0:
59,205,180419,1,0,0:0:0:0:
76,245,180482,5,2,0:0:0:0:
74,230,180544,1,0,0:0:0:0:
73,215,180607,1,0,0:0:0:0:
72,201,180669,1,0,0:0:0:0:
71,186,180732,1,0,0:0:0:0:
70,171,180794,1,0,0:0:0:0:
69,157,180857,1,0,0:0:0:0:
68,142,180919,1,0,0:0:0:0:
37,112,180982,6,0,L|31:59,3,48.8750009322167,2|0|0|0,0:0|0:0|0:0|0:0,0:0:0:0:
148,104,181232,2,0,L|142:157,3,48.8750009322167,0|0|0|0,0:0|0:0|0:0|0:0,0:0:0:0:
233,25,181482,5,14,0:0:0:0:
250,14,181544,1,0,0:0:0:0:
269,6,181607,1,0,0:0:0:0:
289,3,181669,1,0,0:0:0:0:
309,3,181732,1,2,0:0:0:0:
329,7,181794,1,0,0:0:0:0:
348,15,181857,1,0,0:0:0:0:
365,26,181919,1,0,0:0:0:0:
372,66,181982,6,0,P|381:83|382:116,3,50.9999984436036,14|0|0|0,0:0|0:0|0:0|0:0,0:0:0:0:
503,175,182232,2,0,P|494:158|493:125,3,50.9999984436036,2|0|0|0,0:0|0:0|0:0|0:0,0:0:0:0:
347,214,182482,6,0,L|406:205,1,50.9999984436036,10|0,0:1|0:0,0:0:0:0:
354,224,182607,2,0,L|413:215,1,50.9999984436036,8|0,0:1|0:0,0:0:0:0:
509,291,182732,2,0,L|450:282,1,50.9999984436036,8|0,0:1|0:0,0:0:0:0:
502,301,182857,2,0,L|443:292,1,50.9999984436036,8|0,0:1|0:0,0:0:0:0:
366,356,182982,5,14,0:1:0:0:
354,365,183044,1,0,0:0:0:0:
341,372,183107,1,0,0:0:0:0:
328,377,183169,1,0,0:0:0:0:
314,381,183232,1,0,0:0:0:0:
299,382,183294,1,0,0:0:0:0:
284,381,183357,1,0,0:0:0:0:
270,378,183419,1,0,0:0:0:0:
248,339,183482,5,2,0:0:0:0:
236,330,183544,1,0,0:0:0:0:
223,323,183607,1,0,0:0:0:0:
210,318,183669,1,0,0:0:0:0:
196,314,183732,1,0,0:0:0:0:
181,313,183794,1,0,0:0:0:0:
166,314,183857,1,0,0:0:0:0:
152,317,183919,1,0,0:0:0:0:
126,358,183982,6,0,P|105:371|66:372,3,48.8750009322167,2|0|0|0,0:0|0:0|0:0|0:0,0:0:0:0:
0,254,184232,2,0,P|21:241|60:240,3,48.8750009322167,0|0|0|0,0:0|0:0|0:0|0:0,0:0:0:0:
170,217,184482,5,14,0:1:0:0:
181,201,184544,1,0,0:0:0:0:
188,183,184607,1,0,0:0:0:0:
189,163,184669,1,0,0:0:0:0:
170,136,184732,2,0,L|173:187,3,48.8750009322167,0|0|0|0,0:0|0:0|0:0|0:0,0:0:0:0:
261,28,184982,5,14,0:1:0:0:
249,43,185044,1,0,0:0:0:0:
242,61,185107,1,0,0:0:0:0:
241,81,185169,1,0,0:0:0:0:
261,109,185232,2,0,L|258:58,3,48.8750009322167,0|0|0|0,0:0|0:0|0:0|0:0,0:0:0:0:
338,220,185482,5,14,0:1:0:0:
349,204,185544,1,0,0:0:0:0:
356,186,185607,1,0,0:0:0:0:
357,166,185669,1,0,0:0:0:0:
338,139,185732,2,0,L|341:190,3,48.8750009322167,0|0|0|0,0:0|0:0|0:0|0:0,0:0:0:0:
444,154,185982,5,14,0:1:0:0:
458,150,186044,1,0,0:0:0:0:
472,144,186107,1,0,0:0:0:0:
485,135,186169,1,0,0:0:0:0:
495,124,186232,1,0,0:0:0:0:
503,111,186294,1,0,0:0:0:0:
509,96,186357,1,0,0:0:0:0:
511,81,186419,1,0,0:0:0:0:
481,56,186482,5,2,0:0:0:0:
468,64,186544,1,0,0:0:0:0:
454,71,186607,1,0,0:0:0:0:
440,76,186669,1,0,0:0:0:0:
425,78,186732,1,0,0:0:0:0:
409,79,186794,1,0,0:0:0:0:
394,78,186857,1,0,0:0:0:0:
379,75,186919,1,0,0:0:0:0:
353,43,186982,6,0,P|338:32|320:2,3,50.9999984436036,2|0|0|0,0:0|0:0|0:0|0:0,0:0:0:0:
308,149,187232,2,0,P|323:160|341:190,3,50.9999984436036,0|0|0|0,0:0|0:0|0:0|0:0,0:0:0:0:
214,77,187482,5,12,0:0:0:0:
195,84,187544,1,0,0:0:0:0:
178,95,187607,1,0,0:0:0:0:
163,110,187669,1,0,0:0:0:0:
152,127,187732,1,0,0:0:0:0:
145,146,187794,1,0,0:0:0:0:
141,166,187857,1,0,0:0:0:0:
142,186,187919,1,0,0:0:0:0:
171,217,187982,6,0,P|183:239|207:255,3,50.9999984436036,10|0|0|0,0:1|0:0|0:0|0:0,0:0:0:0:
339,187,188232,2,0,P|327:165|303:149,3,50.9999984436036,0|0|0|0,0:0|0:0|0:0|0:0,0:0:0:0:
302,320,188482,6,0,L|288:251,1,50.9999984436036,10|0,0:1|0:0,0:0:0:0:
296,336,188607,2,0,L|282:267,1,50.9999984436036,8|0,0:0|0:0,0:0:0:0:
160,266,188732,2,0,L|174:197,1,50.9999984436036,8|0,0:0|0:0,0:0:0:0:
166,282,188857,2,0,L|180:213,1,50.9999984436036,8|0,0:0|0:0,0:0:0:0:
52,370,188982,5,14,0:0:0:0:
49,354,189044,1,0,0:0:0:0:
47,338,189107,1,0,0:0:0:0:
45,322,189169,1,0,0:0:0:0:
42,306,189232,1,0,0:0:0:0:
40,291,189294,1,0,0:0:0:0:
38,275,189357,1,0,0:0:0:0:
35,259,189419,1,0,0:0:0:0:
62,229,189482,5,2,0:0:0:0:
65,213,189544,1,0,0:0:0:0:
67,197,189607,1,0,0:0:0:0:
69,181,189669,1,0,0:0:0:0:
72,165,189732,1,0,0:0:0:0:
74,150,189794,1,0,0:0:0:0:
76,134,189857,1,0,0:0:0:0:
79,118,189919,1,0,0:0:0:0:
50,86,189982,6,0,L|42:27,3,53.125,2|0|0|0,0:0|0:0|0:0|0:0,0:0:0:0:
166,112,190232,2,0,L|174:171,3,53.125,0|0|0|0,0:0|0:0|0:0|0:0,0:0:0:0:
243,22,190482,5,12,0:0:0:0:
261,12,190544,1,0,0:0:0:0:
282,7,190607,1,0,0:0:0:0:
303,7,190669,1,0,0:0:0:0:
327,20,190732,2,0,P|339:31|354:64,3,53.125,0|0|0|0,0:0|0:0|0:0|0:0,0:0:0:0:
385,147,190982,5,10,0:0:0:0:
367,157,191044,1,0,0:0:0:0:
346,162,191107,1,0,0:0:0:0:
325,162,191169,1,0,0:0:0:0:
301,149,191232,2,0,P|289:138|274:105,3,53.125,0|0|0|0,0:0|0:0|0:0|0:0,0:0:0:0:
173,164,191482,5,10,0:1:0:0:
176,184,191544,1,0,0:0:0:0:
180,205,191607,1,0,0:0:0:0:
183,226,191669,1,0,0:0:0:0:
187,247,191732,1,0,0:0:0:0:
191,268,191794,1,0,0:0:0:0:
194,288,191856,1,0,0:0:0:0:
198,309,191919,1,0,0:0:0:0:
219,339,191982,6,0,L|286:331,3,48.8750009322167,2|0|0|0,0:1|0:0|0:0|0:0,0:0:0:0:
109,265,192232,2,0,L|42:257,3,48.8750009322167,0|0|0|0,0:0|0:0|0:0|0:0,0:0:0:0:
173,164,192482,2,0,L|240:156,3,48.8750009322167,2|0|0|0,0:1|0:0|0:0|0:0,0:0:0:0:
63,90,192732,2,0,L|-4:82,3,48.8750009322167,0|0|0|0,0:0|0:0|0:0|0:0,0:0:0:0:
242,62,192982,5,2,0:1:0:0:
260,67,193044,1,0,0:0:0:0:
277,76,193107,1,0,0:0:0:0:
292,89,193169,1,0,0:0:0:0:
304,104,193232,1,0,0:0:0:0:
313,122,193294,1,0,0:0:0:0:
318,141,193357,1,0,0:0:0:0:
319,160,193419,1,0,0:0:0:0:
305,190,193482,6,0,P|289:176|278:143,3,48.8750009322167,10|0|0|0,0:0|0:0|0:0|0:0,0:0:0:0:
368,54,193732,2,0,P|384:68|395:101,3,48.8750009322167,2|0|0|0,0:0|0:0|0:0|0:0,0:0:0:0:
385,301,193982,2,0,P|369:287|358:254,3,48.8750009322167,2|0|0|0,0:0|0:0|0:0|0:0,0:0:0:0:
448,165,194232,2,0,P|464:179|475:212,3,48.8750009322167,2|0|0|0,0:0|0:0|0:0|0:0,0:0:0:0:
383,327,194482,6,0,L|316:322,1,48.8750009322167,8|0,0:0|0:0,0:0:0:0:
374,338,194607,2,0,L|307:333,1,48.8750009322167,8|0,0:0|0:0,0:0:0:0:
305,190,194732,2,0,L|238:195,1,48.8750009322167,8|0,0:0|0:0,0:0:0:0:
296,179,194857,2,0,L|229:184,1,48.8750009322167,8|0,0:0|0:0,0:0:0:0:
