osu file format v14

[General]
AudioFilename: audio.mp3
AudioLeadIn: 0
PreviewTime: 176420
Countdown: 0
SampleSet: Soft
StackLeniency: 0.7
Mode: 0
LetterboxInBreaks: 0
WidescreenStoryboard: 1

[Editor]
DistanceSpacing: 0.7
BeatDivisor: 4
GridSize: 32
TimelineZoom: 1.9

[Metadata]
Title:Krepost'
TitleUnicode:Крепость
Artist:Dayte tank (!)
ArtistUnicode:Дайте танк (!)
Creator:Hachiko
Version:tokiko's Advanced
Source:
Tags:alternative rock russian Florescence Gordon123 Parad0xa tokiko русский Человеко-часы 2020 Дмитрий Мозжухин indie tank! tank(!) hacpaho fortress
BeatmapID:3823619
BeatmapSetID:1827765

[Difficulty]
HPDrainRate:4
CircleSize:4
OverallDifficulty:4
ApproachRate:5
SliderMultiplier:1.6
SliderTickRate:1

[Events]
//Background and Video events
0,0,"kr.jpg",0,0
//Break Periods
2,55928,58100
2,85466,87639
2,122389,124562
2,151928,154100
//Storyboard Layer 0 (Background)
//Storyboard Layer 1 (Fail)
//Storyboard Layer 2 (Pass)
//Storyboard Layer 3 (Foreground)
//Storyboard Layer 4 (Overlay)
//Storyboard Sound Samples

[TimingPoints]
343,461.538461538461,4,2,1,43,1,0
14190,-100,4,2,1,43,0,0
14825,-100,4,2,1,35,0,0
14940,-100,4,2,1,26,0,0
15055,-100,4,2,1,20,0,0
15113,-100,4,2,1,55,0,0
59420,-100,4,2,1,65,0,0
81574,-100,4,2,1,60,0,0
81632,-100,4,2,1,45,0,0
85959,-100,4,2,1,42,0,0
92651,-100,4,2,1,50,0,0
94497,-100,4,2,1,55,0,0
125881,-100,4,2,1,65,0,0
148035,-100,4,2,1,60,0,0
148093,-100,4,2,1,45,0,0
152420,-100,4,2,1,42,0,0
159112,-100,4,2,1,50,0,0
160958,-100,4,2,1,55,0,0
162804,-100,4,2,1,70,0,0
175728,-100,4,2,1,55,0,0
176651,-100,4,2,1,70,0,0
192805,-100,4,2,1,50,0,0
194189,-100,4,2,1,30,0,0
195574,-100,4,2,1,10,0,0

[Colours]
Combo1 : 37,185,239
Combo2 : 191,199,139

[HitObjects]
32,48,14651,5,10,0:0:0:0:
85,198,15112,2,0,P|57:272|37:350,2,160,6|8|2,1:0|0:0|1:0,0:0:0:0:
161,176,16266,2,0,P|200:182|239:192,1,80,10|2,0:0|0:0,0:0:0:0:
271,266,16728,1,6,1:0:0:0:
507,233,17420,6,0,P|429:219|350:203,1,160,10|2,0:0|1:0,0:0:0:0:
303,139,18112,1,10,0:0:0:0:
368,92,18343,2,0,P|381:54|388:15,1,80,10|0,0:0|1:0,0:0:0:0:
309,27,18805,6,0,P|230:10|151:0,2,160,2|10|2,1:0|0:0|1:0,0:0:0:0:
327,105,19959,2,0,P|313:142|304:181,1,80,10|2,0:0|0:0,0:0:0:0:
368,230,20420,1,6,1:0:0:0:
264,352,20882,6,0,P|277:314|286:275,1,80,2|10,0:0|0:0,0:0:0:0:
237,212,21343,1,2,0:0:0:0:
157,215,21574,2,0,P|132:291|112:368,1,160,2|10,1:0|0:0,0:0:0:0:
49,221,22497,6,0,P|73:144|93:67,2,160,2|10|2,1:0|0:0|1:0,0:0:0:0:
106,276,23651,2,0,P|95:314|87:353,1,80,10|2,0:0|0:0,0:0:0:0:
163,377,24112,1,6,1:0:0:0:
397,325,24805,6,0,P|415:247|428:168,1,160,10|2,0:0|1:0,0:0:0:0:
382,103,25497,1,10,0:0:0:0:
303,113,25728,2,0,P|294:152|288:191,1,80,10|0,0:0|1:0,0:0:0:0:
237,253,26189,5,2,1:0:0:0:
78,276,26651,1,10,0:0:0:0:
55,117,27112,1,2,1:0:0:0:
214,94,27574,1,10,0:0:0:0:
255,25,27805,6,0,P|334:32|413:43,1,160,2|2,1:0|0:0,0:0:0:0:
491,24,28497,2,0,P|500:62|506:102,1,80,10|10,0:0|0:0,0:0:0:0:
477,177,28959,1,10,0:0:0:0:
399,197,29189,2,0,P|389:158|383:118,2,80,2|10|2,3:0|0:0|3:0,0:0:0:0:
356,265,29882,6,0,P|277:258|198:247,1,160,14|10,1:0|0:0,0:0:0:0:
38,270,30805,1,2,1:0:0:0:
10,194,31036,2,0,P|20:155|35:118,1,80,10|2,0:0|0:0,0:0:0:0:
110,92,31497,2,0,P|216:115|244:10,1,240,6|10,1:0|0:0,0:0:0:0:
295,162,32651,1,2,1:0:0:0:
236,216,32882,2,0,P|225:254|210:291,1,80,10|10,0:0|0:0,0:0:0:0:
345,378,33574,6,0,P|369:301|399:227,1,160,2|10,1:0|0:0,0:0:0:0:
509,110,34497,1,2,1:0:0:0:
486,33,34728,2,0,P|446:22|405:13,1,80,10|2,0:0|0:0,0:0:0:0:
330,32,35189,2,0,P|314:140|205:137,1,240,6|10,1:0|0:0,0:0:0:0:
47,166,36343,2,0,P|86:172|125:180,1,80,2|10,1:0|0:0,0:0:0:0:
131,260,36805,2,0,P|91:253|52:245,1,80,10|2,0:0|1:0,0:0:0:0:
22,320,37266,6,0,P|100:334|178:351,1,160,2|10,1:0|0:0,0:0:0:0:
337,327,38189,1,2,1:0:0:0:
382,261,38420,2,0,P|371:222|358:184,1,80,10|2,0:0|0:0,0:0:0:0:
383,108,38882,2,0,P|319:16|212:51,1,240,2|10,1:0|0:0,0:0:0:0:
140,194,40036,1,2,1:0:0:0:
63,217,40266,2,0,P|24:212|-14:203,1,80,10|10,0:0|0:0,0:0:0:0:
66,65,40959,6,0,P|143:77|222:93,1,160,2|10,1:0|0:0,0:0:0:0:
375,45,41882,1,2,1:0:0:0:
452,63,42112,2,0,P|465:100|475:139,1,80,8|0,0:0|0:0,0:0:0:0:
475,299,42805,5,10,0:0:0:0:
319,263,43266,1,10,0:0:0:0:
163,227,43728,1,8,0:0:0:0:
87,252,43959,2,0,P|72:288|61:327,1,80,10|2,0:0|3:0,0:0:0:0:
222,307,44651,6,0,P|246:230|264:152,1,160,6|10,1:0|0:0,0:0:0:0:
230,80,45343,1,0,0:0:0:0:
272,12,45574,2,0,P|348:8|389:73,1,160,2|10,1:0|0:0,0:0:0:0:
453,119,46266,2,0,P|443:157|437:197,1,80,2|2,1:0|1:0,0:0:0:0:
493,347,46959,1,10,0:0:0:0:
416,369,47189,2,0,P|342:369|320:298,1,160,0|8,0:0|0:0,0:0:0:0:
299,220,47882,2,0,P|309:182|315:142,1,80,10|2,0:0|1:0,0:0:0:0:
264,79,48343,5,2,1:0:0:0:
105,53,48804,2,0,P|66:62|28:75,1,80,10|2,0:0|0:0,0:0:0:0:
16,154,49266,2,0,P|74:139|130:119,2,120,2|0|2,1:0|0:0|1:0,0:0:0:0:
3,233,50189,6,0,P|21:305|95:307,1,160,2|10,1:0|0:0,0:0:0:0:
154,253,50882,1,0,0:0:0:0:
230,273,51112,2,0,P|304:267|332:337,1,160,2|10,1:0|0:0,0:0:0:0:
475,265,52036,6,0,L|450:106,1,160,6|10,1:0|0:0,0:0:0:0:
294,71,52959,2,0,L|318:229,1,160,2|10,1:0|0:0,0:0:0:0:
382,276,53651,1,2,1:0:0:0:
342,345,53882,6,0,L|185:310,1,160,2|10,1:0|0:0,0:0:0:0:
116,350,54574,2,0,P|43:338|32:264,1,160,2|10,0:0|0:0,0:0:0:0:
102,225,55266,2,0,L|122:148,1,80,8|2,0:0|1:0,0:0:0:0:
84,77,55728,5,2,1:0:0:0:
512,160,59420,5,6,1:0:0:0:
512,160,59882,2,0,L|355:126,1,160,10|2,0:0|1:0,0:0:0:0:
281,155,60574,1,2,1:0:0:0:
304,231,60804,2,0,L|460:264,2,160,10|2|10,0:0|1:0|0:0,0:0:0:0:
249,288,61959,1,2,0:0:0:0:
173,269,62189,2,0,L|196:192,1,80,2|10,1:0|0:0,0:0:0:0:
175,115,62651,1,10,0:0:0:0:
22,162,63112,5,2,1:0:0:0:
22,162,63574,2,0,P|-15:97|36:44,1,160,10|2,0:0|1:0,0:0:0:0:
107,12,64266,1,0,1:0:0:0:
184,26,64497,2,0,L|165:105,1,80,10|0,0:0|1:0,0:0:0:0:
147,182,64959,5,2,1:0:0:0:
303,152,65420,2,0,L|460:122,1,160,10|2,0:0|1:0,0:0:0:0:
500,191,66112,1,8,0:0:0:0:
431,233,66343,2,0,L|452:310,1,80,10|0,0:0|1:0,0:0:0:0:
421,384,66804,5,6,1:0:0:0:
421,384,67266,2,0,L|251:344,1,160,10|2,0:0|1:0,0:0:0:0:
189,374,67959,1,2,1:0:0:0:
165,297,68189,2,0,P|102:254|117:179,1,160,10|2,0:0|1:0,0:0:0:0:
273,140,69112,2,0,L|355:159,1,80,10|2,0:0|0:0,0:0:0:0:
411,105,69574,1,2,1:0:0:0:
392,27,69805,2,0,L|314:8,1,80,10|10,0:0|0:0,0:0:0:0:
157,44,70497,5,2,1:0:0:0:
157,44,70959,2,0,P|171:122|192:199,1,160,10|2,0:0|1:0,0:0:0:0:
270,216,71651,1,2,1:0:0:0:
343,182,71882,2,0,P|336:143|324:105,1,80,10|0,0:0|0:0,0:0:0:0:
354,30,72343,6,0,P|428:18|467:83,1,160,2|10,1:0|0:0,0:0:0:0:
490,241,73266,2,0,P|415:253|376:188,1,160,2|2,1:0|3:0,0:0:0:0:
303,156,73959,1,0,3:0:0:0:
231,190,74189,5,6,1:0:0:0:
231,190,74651,2,0,L|200:352,1,160,10|2,0:0|1:0,0:0:0:0:
125,373,75343,1,2,1:0:0:0:
60,325,75574,2,0,L|78:247,1,80,10|2,0:0|1:0,0:0:0:0:
45,173,76036,5,2,1:0:0:0:
45,173,76497,2,0,P|84:108|160:130,1,160,10|2,0:0|1:0,0:0:0:0:
232,145,77189,1,10,0:0:0:0:
304,110,77420,2,0,L|382:125,1,80,10|2,0:0|1:0,0:0:0:0:
464,148,77882,5,2,1:0:0:0:
464,148,78343,2,0,P|474:221|404:246,1,160,10|2,0:0|1:0,0:0:0:0:
330,277,79036,1,2,1:0:0:0:
362,351,79266,2,0,L|444:368,1,80,10|0,0:0|1:0,0:0:0:0:
502,317,79728,5,2,1:0:0:0:
452,167,80189,1,10,0:0:0:0:
296,205,80651,1,2,1:0:0:0:
219,183,80882,1,8,0:0:0:0:
241,105,81112,2,0,P|235:66|225:27,1,80,10|0,0:0|1:0,0:0:0:0:
148,5,81574,5,4,1:0:0:0:
37,121,82036,1,2,0:0:0:0:
94,176,82266,2,0,P|103:255|117:334,2,160,0|2|2,0:0|1:0|1:0,0:0:0:0:
149,119,83420,6,0,P|227:104|306:94,1,160,2|2,1:0|0:0,0:0:0:0:
383,118,84112,1,2,0:0:0:0:
443,266,84574,1,0,1:0:0:0:
411,340,84805,2,0,P|373:350|334:358,1,80,2|2,0:0|1:0,0:0:0:0:
256,341,85266,5,2,1:0:0:0:
128,368,88959,5,6,1:0:0:0:
192,224,89420,1,2,0:0:0:0:
267,243,89651,2,0,P|345:227|424:217,2,160,2|2|2,0:0|1:0|1:0,0:0:0:0:
275,163,90805,6,0,P|259:84|238:7,1,160,2|2,1:0|0:0,0:0:0:0:
158,0,91496,1,2,0:0:0:0:
19,79,91958,1,2,1:0:0:0:
64,143,92189,2,0,P|57:182|45:220,1,80,2|2,0:0|1:0,0:0:0:0:
0,286,92651,5,2,1:0:0:0:
256,192,92882,12,10,95420,0:0:0:0:
480,240,96343,6,0,P|494:161|512:83,1,160,6|10,1:0|0:0,0:0:0:0:
376,0,97266,1,2,1:0:0:0:
299,23,97497,2,0,P|290:64|279:103,1,80,10|2,0:0|0:0,0:0:0:0:
225,159,97959,1,6,1:0:0:0:
304,383,98651,6,0,P|312:344|323:306,1,80,10|0,0:0|0:0,0:0:0:0:
400,287,99112,1,2,1:0:0:0:
379,210,99343,2,0,P|341:199|302:191,1,80,10|10,0:0|0:0,0:0:0:0:
149,241,100036,6,0,P|69:228|-8:213,1,160,2|10,1:0|0:0,0:0:0:0:
109,104,100959,1,2,1:0:0:0:
188,95,101189,2,0,P|200:57|209:18,1,80,10|2,0:0|0:0,0:0:0:0:
288,5,101651,2,0,P|327:105|429:67,1,240,6|10,1:0|0:0,0:0:0:0:
448,227,102805,2,0,P|435:264|426:303,1,80,2|10,1:0|0:0,0:0:0:0:
347,307,103266,2,0,P|359:269|368:230,1,80,10|2,0:0|1:0,0:0:0:0:
300,197,103728,5,2,1:0:0:0:
300,197,104189,2,0,P|220:205|141:217,1,160,10|2,0:0|1:0,0:0:0:0:
96,283,104882,2,0,P|102:325|106:367,1,80,10|2,0:0|0:0,0:0:0:0:
28,344,105343,2,0,P|12:225|3:105,1,240,2|10,1:0|0:0,0:0:0:0:
145,31,106497,1,2,1:0:0:0:
222,51,106728,2,0,P|261:44|301:42,1,80,10|10,0:0|0:0,0:0:0:0:
458,11,107420,6,0,P|433:87|413:164,1,160,2|10,1:0|0:0,0:0:0:0:
451,320,108343,1,2,1:0:0:0:
385,366,108574,2,0,P|346:354|307:344,1,80,8|2,0:0|0:0,0:0:0:0:
149,367,109266,5,10,0:0:0:0:
126,209,109728,1,10,0:0:0:0:
284,186,110189,1,8,0:0:0:0:
325,117,110420,2,0,P|363:126|402:138,1,80,10|2,0:0|3:0,0:0:0:0:
280,33,111112,6,0,P|201:15|122:4,1,160,6|10,1:0|0:0,0:0:0:0:
8,116,112036,1,2,1:0:0:0:
24,193,112266,2,0,P|63:198|102:207,1,80,0|10,1:0|0:0,0:0:0:0:
179,184,112728,2,0,P|197:261|219:338,1,160,2|0,1:0|0:0,0:0:0:0:
292,371,113420,1,10,0:0:0:0:
366,341,113651,2,0,P|347:263|325:186,1,160,0|8,0:0|0:0,0:0:0:0:
257,143,114343,1,10,0:0:0:0:
352,14,114805,6,0,P|431:24|509:42,1,160,2|10,1:0|0:0,0:0:0:0:
448,190,115728,2,0,P|368:179|290:161,1,160,2|10,1:0|0:0,0:0:0:0:
223,204,116420,2,0,P|113:195|79:301,1,240,2|10,1:0|0:0,0:0:0:0:
140,353,117343,1,0,0:0:0:0:
218,366,117574,2,0,P|255:352|294:343,1,80,2|8,1:0|0:0,0:0:0:0:
370,369,118036,2,0,P|409:360|446:346,1,80,10|0,0:0|1:0,0:0:0:0:
466,269,118497,5,6,1:0:0:0:
413,117,118959,2,0,L|436:40,1,80,10|0,0:0|0:0,0:0:0:0:
357,46,119420,2,0,L|199:17,1,160,2|10,1:0|0:0,0:0:0:0:
122,37,120112,1,2,1:0:0:0:
142,115,120343,6,0,L|93:283,1,160,2|10,1:0|0:0,0:0:0:0:
110,347,121036,1,0,0:0:0:0:
267,375,121497,1,10,0:0:0:0:
323,318,121728,2,0,L|303:233,1,80,8|2,0:0|1:0,0:0:0:0:
285,162,122189,5,2,1:0:0:0:
416,32,125882,5,6,1:0:0:0:
416,32,126343,2,0,L|454:199,1,160,10|2,0:0|1:0,0:0:0:0:
426,264,127036,1,2,1:0:0:0:
350,239,127266,2,0,L|183:277,2,160,10|6|10,0:0|1:0|0:0,0:0:0:0:
375,163,128420,1,2,0:0:0:0:
309,117,128651,2,0,P|305:78|297:39,1,80,2|10,1:0|0:0,0:0:0:0:
222,12,129112,1,10,0:0:0:0:
65,48,129574,5,2,1:0:0:0:
65,48,130036,2,0,P|76:128|90:206,1,160,10|2,0:0|1:0,0:0:0:0:
168,226,130728,1,0,1:0:0:0:
214,291,130959,2,0,P|252:279|291:270,1,80,10|0,0:0|1:0,0:0:0:0:
366,297,131420,5,2,1:0:0:0:
227,376,131882,2,0,P|148:360|69:348,1,160,10|2,0:0|1:0,0:0:0:0:
9,295,132574,1,8,0:0:0:0:
61,234,132805,2,0,P|57:195|50:156,1,80,10|0,0:0|1:0,0:0:0:0:
14,84,133266,5,6,1:0:0:0:
14,84,133728,2,0,P|92:67|171:55,1,160,10|2,0:0|1:0,0:0:0:0:
244,89,134420,1,2,1:0:0:0:
278,17,134651,2,0,P|352:25|364:98,1,160,10|2,0:0|1:0,0:0:0:0:
418,247,135574,2,0,L|396:339,1,80,10|2,0:0|0:0,0:0:0:0:
330,366,136036,1,2,1:0:0:0:
253,343,136266,2,0,L|271:265,1,80,10|10,0:0|0:0,0:0:0:0:
192,131,136959,5,2,1:0:0:0:
192,131,137420,2,0,P|178:209|159:287,1,160,10|2,0:0|1:0,0:0:0:0:
92,331,138112,1,2,1:0:0:0:
17,302,138343,2,0,P|23:262|35:224,1,80,10|0,0:0|1:0,0:0:0:0:
15,147,138805,6,0,P|49:80|121:98,1,160,2|10,1:0|0:0,0:0:0:0:
256,184,139728,2,0,P|328:201|362:135,1,160,2|2,1:0|3:0,0:0:0:0:
380,57,140420,1,0,3:0:0:0:
456,33,140651,5,6,1:0:0:0:
456,33,141112,2,0,P|473:111|486:190,1,160,10|2,0:0|1:0,0:0:0:0:
458,265,141805,1,2,1:0:0:0:
383,238,142035,2,0,P|343:245|304:255,1,80,10|2,0:0|1:0,0:0:0:0:
227,237,142497,5,2,1:0:0:0:
227,237,142959,2,0,P|153:234|132:305,1,160,10|2,0:0|1:0,0:0:0:0:
114,382,143651,1,10,0:0:0:0:
36,365,143882,2,0,L|24:285,1,80,10|2,0:0|1:0,0:0:0:0:
12,205,144343,5,2,1:0:0:0:
12,205,144805,2,0,P|80:172|74:97,1,160,10|2,0:0|1:0,0:0:0:0:
0,76,145497,1,2,1:0:0:0:
21,2,145728,2,0,L|100:-6,1,80,10|0,0:0|1:0,0:0:0:0:
176,18,146189,5,2,1:0:0:0:
211,174,146651,1,10,0:0:0:0:
367,139,147112,1,2,1:0:0:0:
442,165,147343,1,8,0:0:0:0:
415,240,147574,2,0,P|420:279|429:318,1,80,10|0,0:0|1:0,0:0:0:0:
479,381,148036,5,4,1:0:0:0:
323,344,148497,1,2,0:0:0:0:
253,304,148728,2,0,P|241:224|223:146,2,160,0|2|2,0:0|1:0|1:0,0:0:0:0:
213,374,149882,6,0,P|134:356|56:342,1,160,2|2,1:0|0:0,0:0:0:0:
36,265,150574,1,2,0:0:0:0:
76,109,151036,1,0,0:0:0:0:
57,31,151266,2,0,P|96:23|134:12,1,80,2|2,0:0|1:0,0:0:0:0:
212,31,151728,5,2,1:0:0:0:
496,128,155420,5,6,1:0:0:0:
341,87,155882,1,2,0:0:0:0:
269,122,156112,2,0,P|192:105|111:92,2,160,2|2|2,0:0|1:0|1:0,0:0:0:0:
303,194,157266,6,0,P|282:270|267:349,1,160,2|2,1:0|0:0,0:0:0:0:
343,375,157959,1,2,0:0:0:0:
500,345,158420,1,2,1:0:0:0:
477,268,158651,2,0,P|487:229|493:189,1,80,2|2,0:0|1:0,0:0:0:0:
458,118,159112,5,2,1:0:0:0:
256,192,159343,12,6,160959,1:0:0:0:
186,0,162805,6,0,P|213:337|512:179,1,800,6|10,1:0|0:0,0:0:0:0:
470,111,165343,1,2,0:0:0:0:
402,153,165574,2,0,P|390:192|383:231,1,80,2|10,1:0|0:0,0:0:0:0:
304,246,166036,2,0,P|296:285|285:323,1,80,10|2,0:0|1:0,0:0:0:0:
208,346,166497,6,0,P|129:329|52:309,1,160,2|10,1:0|0:0,0:0:0:0:
28,233,167189,1,2,0:0:0:0:
79,171,167420,2,0,P|157:187|234:207,1,160,2|2,1:0|0:0,0:0:0:0:
303,165,168112,6,0,P|405:125|382:18,1,240,2|10,1:0|0:0,0:0:0:0:
227,0,169266,2,0,P|187:5|149:17,1,80,2|10,1:0|0:0,0:0:0:0:
175,93,169728,2,0,P|214:87|252:75,1,80,10|2,0:0|1:0,0:0:0:0:
331,87,170189,6,0,P|348:165|360:244,1,160,2|10,1:0|0:0,0:0:0:0:
346,322,170882,1,2,0:0:0:0:
266,322,171112,2,0,P|248:243|236:164,1,160,2|2,1:0|0:0,0:0:0:0:
166,125,171805,5,2,1:0:0:0:
166,125,172266,2,0,P|157:164|144:201,1,80,2|10,0:0|0:0,0:0:0:0:
160,280,172728,2,0,P|120:271|83:258,1,80,2|2,0:0|1:0,0:0:0:0:
5,274,173189,2,0,P|13:234|26:197,1,80,10|10,0:0|0:0,0:0:0:0:
11,119,173651,2,0,P|50:127|87:140,1,80,2|2,1:0|1:0,0:0:0:0:
235,79,174343,6,0,P|347:108|468:133,2,240,10|10|10,0:0|0:0|0:0,0:0:0:0:
256,240,176189,1,10,0:0:0:0:
417,219,176651,1,10,0:0:0:0:
493,241,176882,1,10,0:0:0:0:
470,317,177112,2,0,P|431:321|392:329,1,80,2|0,3:0|3:0,0:0:0:0:
336,384,177574,6,0,P|139:111|470:50,1,800,6|8,1:0|0:0,0:0:0:0:
487,127,180112,1,2,0:0:0:0:
408,142,180343,2,0,P|370:131|331:124,1,80,2|10,1:0|0:0,0:0:0:0:
307,201,180805,2,0,P|345:212|384:219,1,80,10|2,0:0|1:0,0:0:0:0:
448,267,181266,6,0,P|457:341|388:371,1,160,2|10,1:0|0:0,0:0:0:0:
309,383,181959,1,2,0:0:0:0:
245,336,182189,2,0,P|235:261|304:231,1,160,2|10,1:0|0:0,0:0:0:0:
373,190,182882,6,0,P|361:111|346:33,1,160,2|2,1:0|0:0,0:0:0:0:
269,13,183574,1,10,0:0:0:0:
205,61,183805,2,0,P|216:140|231:218,1,160,2|8,0:0|0:0,0:0:0:0:
206,295,184497,1,10,0:0:0:0:
61,363,184958,6,0,P|41:204|14:46,2,320,6|2|2,1:0|1:0|1:0,0:0:0:0:
291,296,187497,2,0,P|369:309|447:328,1,160,2|10,0:0|0:0,0:0:0:0:
512,281,188189,2,0,P|503:241|496:202,1,80,10|0,0:0|1:0,0:0:0:0:
511,124,188651,6,0,P|208:90|35:341,2,640,6|2|6,1:0|1:0|1:0,0:0:0:0:
256,192,192574,12,0,196036,0:0:0:0:
