osu file format v14

[General]
AudioFilename: audio.mp3
AudioLeadIn: 0
PreviewTime: 176420
Countdown: 0
SampleSet: Soft
StackLeniency: 0.7
Mode: 0
LetterboxInBreaks: 0
WidescreenStoryboard: 1

[Editor]
Bookmarks: 60805,61266,68189,68651,75574,76036,127266,127728,134651,135112,142036,142497,192343,196036
DistanceSpacing: 0.7
BeatDivisor: 4
GridSize: 32
TimelineZoom: 1.9

[Metadata]
Title:Krepost'
TitleUnicode:Крепость
Artist:Dayte tank (!)
ArtistUnicode:Дайте танк (!)
Creator:Hachiko
Version:Growing up
Source:
Tags:alternative rock russian Florescence Gordon123 Parad0xa tokiko русский Человеко-часы 2020 Дмитрий Мозжухин indie tank! tank(!) hacpaho fortress
BeatmapID:3751184
BeatmapSetID:1827765

[Difficulty]
HPDrainRate:5.1
CircleSize:4.1
OverallDifficulty:8.1
ApproachRate:9.1
SliderMultiplier:2.2
SliderTickRate:0.5

[Events]
//Background and Video events
0,0,"kr.jpg",0,0
//Break Periods
//Storyboard Layer 0 (Background)
//Storyboard Layer 1 (Fail)
//Storyboard Layer 2 (Pass)
//Storyboard Layer 3 (Foreground)
//Storyboard Layer 4 (Overlay)
//Storyboard Sound Samples

[TimingPoints]
343,461.538461538461,4,2,1,43,1,0
14190,-100,4,2,1,43,0,0
14651,-79.9999999999999,4,2,1,43,0,0
14825,-79.9999999999999,4,2,1,35,0,0
14940,-79.9999999999999,4,2,1,26,0,0
15055,-79.9999999999999,4,2,1,20,0,0
15112,-100,4,2,1,55,0,0
29881,-90.9090909090909,4,2,1,55,0,0
37036,-153.846153846153,4,2,1,55,0,0
37266,-90.9090909090909,4,2,1,55,0,0
40670,-153.846153846153,4,2,1,55,0,0
40959,-90.9090909090909,4,2,1,55,0,0
59419,-76.9230769230769,4,2,1,65,0,0
81574,-142.857142857143,4,2,1,60,0,0
81632,-142.857142857143,4,2,1,45,0,0
85959,-142.857142857143,4,2,1,42,0,0
92651,-142.857142857143,4,2,1,50,0,0
94497,-142.857142857143,4,2,1,55,0,0
96343,-90.9090909090909,4,2,1,55,0,0
103497,-153.846153846153,4,2,1,55,0,0
103727,-90.9090909090909,4,2,1,55,0,0
105112,-153.846153846153,4,2,1,55,0,0
105343,-90.9090909090909,4,2,1,55,0,0
107131,-153.846153846153,4,2,1,55,0,0
107420,-90.9090909090909,4,2,1,55,0,0
114574,-153.846153846153,4,2,1,55,0,0
114805,-90.9090909090909,4,2,1,55,0,0
125881,-76.9230769230769,4,2,1,65,0,0
148035,-142.857142857143,4,2,1,60,0,0
148093,-142.857142857143,4,2,1,45,0,0
152420,-142.857142857143,4,2,1,42,0,0
159112,-142.857142857143,4,2,1,50,0,0
160958,-142.857142857143,4,2,1,55,0,0
160959,-399.999999999997,4,2,1,55,0,0
161882,-76.9230769230769,4,2,1,55,0,0
162804,-62.5,4,2,1,70,0,1
163728,-133.333333333333,4,2,1,70,0,1
164420,-50,4,2,1,70,0,1
165112,-90.9090909090909,4,2,1,70,0,0
165342,-90.9090909090909,4,2,1,70,0,1
165574,-62.5,4,2,1,70,0,1
166497,-55.5555555555556,4,2,1,70,0,1
168112,-222.222222222221,4,2,1,70,0,1
168805,-100,4,2,1,70,0,1
169266,-83.3333333333333,4,2,1,70,0,1
170189,-62.5,4,2,1,70,0,1
171574,-222.222222222221,4,2,1,70,0,1
171805,-50,4,2,1,70,0,1
172266,-55.5555555555556,4,2,1,70,0,1
172728,-62.5,4,2,1,70,0,1
173189,-71.4285714285714,4,2,1,70,0,1
173651,-222.222222222221,4,2,1,70,0,1
173882,-83.3333333333333,4,2,1,70,0,1
175497,-222.222222222221,4,2,1,70,0,1
175727,-90.9090909090909,4,2,1,55,0,0
176651,-71.4285714285714,4,2,1,70,0,0
177112,-90.9090909090909,4,2,1,70,0,0
177573,-55.5555555555556,4,2,1,70,0,1
184497,-133.333333333333,4,2,1,70,0,1
184959,-55.5555555555556,4,2,1,70,0,1
188189,-133.333333333333,4,2,1,70,0,1
188651,-55.5555555555556,4,2,1,70,0,1
192342,-222.222222222221,4,2,1,70,0,0
192805,-222.222222222221,4,2,1,50,0,0
194189,-222.222222222221,4,2,1,30,0,0
195574,-222.222222222221,4,2,1,10,0,0

[Colours]
Combo1 : 37,185,239
Combo2 : 191,199,139

[HitObjects]
47,306,14190,5,2,0:0:0:0:
56,301,14420,5,2,0:0:0:0:
47,306,14651,6,0,P|35:307|23:288,7,34.375,10|0|0|0|0|0|0|0,0:0|0:0|0:0|0:0|0:0|0:0|0:0|0:0,0:0:0:0:
55,289,15112,6,0,B|103:312|76:344|137:384,1,110,6|0,1:0|0:0,0:0:0:0:
260,215,15459,1,0,0:0:0:0:
244,217,15574,2,0,B|196:240|223:272|162:312,1,110,8|0,0:0|0:0,0:0:0:0:
82,179,15920,1,8,0:0:0:0:
97,184,16036,2,0,P|117:208|127:249,1,55,2|0,1:0|0:0,0:0:0:0:
33,113,16266,2,0,P|13:137|3:178,1,55,10|0,0:0|0:0,0:0:0:0:
149,3,16497,2,0,B|173:20|186:49|186:49|162:26,1,82.5,2|0,0:0|0:0,0:0:0:0:
125,94,16728,2,0,B|214:86|189:33|276:29,1,165,6|0,1:0|0:0,0:0:0:0:
380,178,17190,1,0,0:0:0:0:
361,174,17304,1,0,0:0:0:0:
309,114,17420,6,0,B|339:96|365:59|365:59|361:76|368:91,1,110,10|0,0:0|0:0,0:0:0:0:
370,34,17766,1,8,0:0:0:0:
442,64,17882,2,0,P|468:50|471:15,1,55,2|0,1:0|0:0,0:0:0:0:
487,179,18112,2,0,P|461:165|458:130,1,55,10|0,0:0|0:0,0:0:0:0:
407,352,18343,2,0,P|448:321|452:246,1,110,10|0,0:0|1:0,0:0:0:0:
22,277,18805,6,0,B|53:343|121:367|121:367|98:337|103:310,1,192.5,2|0,1:0|0:0,0:0:0:0:
178,317,19266,2,0,P|200:262|154:229,1,110,10|0,0:0|0:0,0:0:0:0:
42,175,19612,1,8,0:0:0:0:
58,178,19728,2,0,P|87:167|98:126,1,55,2|0,1:0|0:0,0:0:0:0:
44,79,19959,2,0,P|18:87|3:109,1,55,10|0,0:0|0:0,0:0:0:0:
221,320,20189,2,0,B|198:320|177:317|177:317|196:328|210:340,1,82.5,2|0,0:0|0:0,0:0:0:0:
249,337,20419,2,0,B|285:298|345:280|345:280|365:307|396:316,1,165,6|0,1:0|0:0,0:0:0:0:
500,373,20882,6,0,P|494:328|469:296,1,82.5,2|0,0:0|0:0,0:0:0:0:
417,239,21112,6,0,B|411:240|437:203|437:203|433:220|440:235,1,55,10|0,0:0|0:0,0:0:0:0:
512,113,21343,2,0,B|518:114|492:77|492:77|496:94|489:109,1,55,2|8,0:0|0:0,0:0:0:0:
339,63,21574,2,0,P|363:118|421:100,1,110,2|8,1:0|0:0,0:0:0:0:
113,72,22036,2,0,P|89:17|31:35,1,110,10|0,0:0|1:0,0:0:0:0:
500,373,22497,6,0,P|494:313|442:306,1,110,2|0,1:0|0:0,0:0:0:0:
284,333,22843,1,0,0:0:0:0:
297,342,22958,2,0,P|354:313|324:269,1,110,10|0,0:0|0:0,0:0:0:0:
160,278,23304,1,8,0:0:0:0:
175,272,23420,2,0,P|199:276|207:307,1,55,2|0,1:0|0:0,0:0:0:0:
4,380,23651,1,10,0:0:0:0:
35,350,23766,1,0,0:0:0:0:
48,307,23881,2,0,P|73:276|75:216,1,82.5,2|0,0:0|0:0,0:0:0:0:
0,242,24112,2,0,B|98:225|39:160|132:144,1,165,6|0,1:0|0:0,0:0:0:0:
119,7,24574,1,0,0:0:0:0:
100,0,24690,1,0,0:0:0:0:
12,41,24804,6,0,P|35:94|71:64,1,110,10|0,0:0|0:0,0:0:0:0:
213,22,25150,1,8,0:0:0:0:
289,6,25266,2,0,P|316:11|341:28,1,55,2|0,1:0|0:0,0:0:0:0:
381,115,25497,2,0,P|408:110|433:93,1,55,10|0,0:0|0:0,0:0:0:0:
507,5,25728,2,0,P|481:45|474:115,1,110,10|0,0:0|1:0,0:0:0:0:
345,375,26189,6,0,B|322:399|310:354|353:337,1,55,2|0,1:0|0:0,0:0:0:0:
489,254,26420,2,0,B|507:233|519:278|495:283,1,55,2|0,1:0|0:0,0:0:0:0:
457,364,26650,2,0,B|409:341|436:309|375:269,1,110,10|0,0:0|0:0,0:0:0:0:
196,367,26996,1,8,0:0:0:0:
211,362,27112,2,0,P|231:338|241:297,1,55,2|0,1:0|0:0,0:0:0:0:
96,241,27343,2,0,P|106:266|124:287,1,55,2|0,1:0|0:0,0:0:0:0:
304,128,27573,2,0,P|268:139|268:199,1,82.5,10|0,0:0|0:0,0:0:0:0:
201,227,27804,2,0,B|290:219|265:166|352:162,1,165,2|0,1:0|0:0,0:0:0:0:
512,24,28266,6,0,B|479:32|479:32|462:28|462:28|411:43,1,82.5,2|0,0:0|0:0,0:0:0:0:
411,57,28497,5,10,0:0:0:0:
417,72,28612,1,0,0:0:0:0:
433,73,28728,1,10,0:0:0:0:
506,36,28843,5,8,0:0:0:0:
509,82,28959,1,10,0:0:0:0:
485,135,29074,1,8,0:0:0:0:
423,197,29189,5,2,3:0:0:0:
415,205,29305,1,0,3:0:0:0:
461,266,29420,5,10,0:0:0:0:
461,277,29536,1,8,0:0:0:0:
404,347,29651,5,2,3:0:0:0:
328,345,29766,1,0,3:0:0:0:
276,258,29881,2,0,B|235:229|235:229|140:250,1,121.000003692627,14|0,1:0|0:0,0:0:0:0:
66,358,30228,1,0,0:0:0:0:
83,358,30343,2,0,P|107:346|107:307,1,60.5000018463135,10|0,0:0|0:0,0:0:0:0:
53,188,30574,1,0,0:0:0:0:
33,202,30689,1,8,0:0:0:0:
29,225,30805,2,0,P|51:243|79:235,1,60.5000018463135,2|0,1:0|0:0,0:0:0:0:
25,25,31036,2,0,B|45:36|45:36|59:77,1,60.5000018463135,10|0,0:0|0:0,0:0:0:0:
55,83,31209,5,0,0:0:0:0:
50,93,31266,2,0,P|72:74|100:82,1,60.5000018463135,2|0,0:0|0:0,0:0:0:0:
266,95,31497,2,0,B|254:135|254:135|155:170,2,121.000003692627,6|0|0,1:0|0:0|0:0,0:0:0:0:
237,1,32074,1,0,0:0:0:0:
213,7,32189,2,0,B|193:18|193:18|179:59,1,60.5000018463135,10|0,0:0|0:0,0:0:0:0:
486,37,32420,1,0,0:0:0:0:
462,31,32536,1,8,0:0:0:0:
417,42,32650,2,0,P|389:58|364:87,1,60.5000018463135,2|0,1:0|0:0,0:0:0:0:
409,202,32882,2,0,P|436:218|461:247,1,60.5000018463135,10|0,0:0|0:0,0:0:0:0:
268,377,33112,2,0,P|307:355|343:313,1,90.7500027694703,10|0,0:0|0:0,0:0:0:0:
343,309,33343,1,2,1:0:0:0:
268,377,33574,6,0,B|204:355|223:336|154:306,1,121.000003692627,2|0,1:0|0:0,0:0:0:0:
0,298,33920,1,0,0:0:0:0:
23,309,34036,2,0,P|43:331|56:358,1,60.5000018463135,10|0,0:0|0:0,0:0:0:0:
168,188,34266,1,0,0:0:0:0:
143,189,34382,1,8,0:0:0:0:
121,200,34497,2,0,P|100:222|87:249,1,60.5000018463135,2|0,1:0|0:0,0:0:0:0:
265,268,34728,2,0,P|285:245|298:218,1,60.5000018463135,10|0,0:0|0:0,0:0:0:0:
156,41,34959,1,2,0:0:0:0:
109,23,35074,1,0,0:0:0:0:
35,37,35189,2,0,B|82:75|102:46|145:89,2,121.000003692627,6|0|0,1:0|0:0|0:0,0:0:0:0:
34,155,35766,5,0,0:0:0:0:
53,141,35882,2,0,P|90:148|87:187,1,60.5000018463135,10|0,0:0|0:0,0:0:0:0:
124,314,36112,1,0,0:0:0:0:
139,333,36228,1,8,0:0:0:0:
161,342,36343,2,0,B|212:342|200:315|263:315,1,90.7500027694703,2|0,1:0|0:0,0:0:0:0:
261,325,36574,2,0,P|280:320|294:296,1,30.2500009231568,10|0,0:0|0:0,0:0:0:0:
512,212,36805,2,0,P|493:207|479:183,1,30.2500009231568,10|0,0:0|0:0,0:0:0:0:
311,39,37036,6,0,P|332:40|322:33,1,53.6249975452424,2|0,1:0|0:0,0:0:0:0:
401,10,37266,6,0,B|352:30|370:64|302:112,1,121.000003692627,2|0,1:0|0:0,0:0:0:0:
214,41,37612,1,0,0:0:0:0:
191,32,37728,2,0,P|157:40|134:60,1,60.5000018463135,10|0,0:0|0:0,0:0:0:0:
136,68,37901,5,0,0:0:0:0:
131,79,37959,2,0,B|124:97|106:100|106:100|98:86|103:67,1,60.5000018463135,0|8,0:0|0:0,0:0:0:0:
0,189,38189,2,0,B|7:207|24:210|24:210|33:196|27:177,1,60.5000018463135,2|0,1:0|0:0,0:0:0:0:
124,314,38420,2,0,B|117:332|99:335|99:335|91:321|96:302,1,60.5000018463135,10|0,0:0|0:0,0:0:0:0:
150,207,38651,1,2,0:0:0:0:
0,345,38824,5,0,0:0:0:0:
11,348,38882,6,0,B|66:330|66:330|97:272|160:246,1,181.500005538941,2|0,1:0|0:0,0:0:0:0:
295,335,39343,1,2,0:0:0:0:
271,340,39459,1,0,0:0:0:0:
255,358,39574,2,0,B|228:332|189:326|189:326|167:337|152:355,1,121.000003692627,10|0,0:0|0:0,0:0:0:0:
379,376,39920,1,8,0:0:0:0:
403,372,40036,2,0,P|423:352|439:313,1,60.5000018463135,2|0,1:0|0:0,0:0:0:0:
451,189,40266,1,10,0:0:0:0:
512,227,40382,2,0,P|494:178|498:102,1,121.000003692627
484,18,40728,6,0,P|461:26|472:31,1,53.6249975452424,2|0,1:0|0:0,0:0:0:0:
439,47,40959,6,0,B|393:35|393:35|386:22|386:22|317:1,1,121.000003692627,2|0,1:0|0:0,0:0:0:0:
197,42,41305,1,2,0:0:0:0:
220,38,41420,2,0,B|234:35|247:43|247:43|254:61|274:77,1,60.5000018463135,10|0,0:0|0:0,0:0:0:0:
291,61,41593,5,0,0:0:0:0:
300,53,41651,2,0,P|326:50|322:77,1,60.5000018463135,0|8,0:0|0:0,0:0:0:0:
484,18,41882,2,0,P|458:15|462:42,1,60.5000018463135,2|0,1:0|0:0,0:0:0:0:
388,208,42112,1,8,0:0:0:0:
415,136,42228,2,0,P|423:204|472:280,1,151.250004615784,2|0,0:0|0:0,0:0:0:0:
476,279,42574,1,2,1:0:0:0:
502,370,42805,6,0,P|491:357|473:356,1,30.2500009231568,10|0,0:0|0:0,0:0:0:0:
225,229,43151,5,0,0:0:0:0:
249,227,43266,2,0,P|263:230|272:242,1,30.2500009231568,10|0,0:0|0:0,0:0:0:0:
495,109,43612,5,0,0:0:0:0:
471,107,43727,2,0,P|456:110|447:122,1,30.2500009231568,8|0,0:0|0:0,0:0:0:0:
318,363,43959,2,0,P|332:359|341:347,1,30.2500009231568,10|0,0:0|0:0,0:0:0:0:
145,104,44189,5,2,3:0:0:0:
131,116,44305,1,0,3:0:0:0:
143,129,44420,1,0,3:0:0:0:
157,117,44536,1,0,3:0:0:0:
44,132,44650,6,0,B|124:138|140:46|242:47,1,211.750006462097,6|0,1:0|0:0,0:0:0:0:
258,43,45112,2,0,P|223:47|206:73,1,60.5000018463135,10|0,0:0|0:0,0:0:0:0:
24,130,45343,2,0,P|58:134|75:160,1,60.5000018463135,0|8,0:0|0:0,0:0:0:0:
415,277,45574,2,0,B|334:283|318:191|216:192,1,211.750006462097,2|0,1:0|0:0,0:0:0:0:
205,198,46036,2,0,P|233:201|222:183,1,60.5000018463135,10|0,0:0|0:0,0:0:0:0:
431,272,46266,2,0,P|402:275|413:257,1,60.5000018463135,2|0,1:0|0:0,0:0:0:0:
251,290,46497,6,0,B|193:310|226:338|160:369,1,121.000003692627,2|0,1:0|0:0,0:0:0:0:
98,272,46843,1,0,0:0:0:0:
102,260,46959,2,0,P|129:252|119:280,1,60.5000018463135,10|0,0:0|0:0,0:0:0:0:
282,369,47189,1,0,0:0:0:0:
302,382,47305,1,8,0:0:0:0:
326,382,47420,2,0,B|384:362|351:334|417:303,1,121.000003692627,2|8,1:0|0:0,0:0:0:0:
512,50,47882,2,0,P|486:50|454:27,1,60.5000018463135,10|0,0:0|0:0,0:0:0:0:
118,92,48112,1,2,1:0:0:0:
125,68,48228,1,0,0:0:0:0:
145,54,48343,6,0,B|170:35|200:42|200:42|223:73|271:78,1,121.000003692627,2|0,1:0|0:0,0:0:0:0:
383,70,48689,1,0,0:0:0:0:
361,82,48805,2,0,B|350:79|339:63|339:63|343:82|334:100,1,60.5000018463135,10|0,0:0|0:0,0:0:0:0:
462,168,49035,2,0,B|473:165|484:149|484:149|480:168|489:186,1,60.5000018463135,2|8,0:0|0:0,0:0:0:0:
475,380,49266,2,0,B|446:378|428:357|428:357|431:348|431:348|410:323|371:317,1,121.000003692627,2|0,1:0|1:0,0:0:0:0:
248,384,49612,2,0,P|277:379|310:347,1,60.5000018463135,0|10,0:0|0:0,0:0:0:0:
384,162,49843,1,0,0:0:0:0:
379,185,49959,2,0,B|354:247|309:222|289:295,2,121.000003692627,2|2|0,1:0|1:0|0:0,0:0:0:0:
273,0,50536,5,0,0:0:0:0:
249,3,50651,2,0,B|217:27|188:33|188:33|210:36|228:48,1,90.7500027694703,10|0,0:0|0:0,0:0:0:0:
235,76,50882,5,0,0:0:0:0:
215,61,50997,1,8,0:0:0:0:
191,53,51112,2,0,B|150:46|109:27|109:27|127:43|130:62,1,121.000003692627,2|8,1:0|0:0,0:0:0:0:
32,102,51459,5,0,0:0:0:0:
40,93,51516,5,0,0:0:0:0:
51,88,51574,5,10,0:0:0:0:
339,64,51805,1,0,1:0:0:0:
512,23,51978,5,0,0:0:0:0:
500,18,52035,6,0,B|472:11|449:23|449:23|479:44|496:102,1,121.000003692627,6|0,1:0|0:0,0:0:0:0:
326,176,52382,1,0,0:0:0:0:
316,153,52497,2,0,P|337:103|402:95,1,121.000003692627,10|0,0:0|0:0,0:0:0:0:
512,374,52843,6,0,P|494:379|504:365,1,30.2500009231568,8|0,0:0|0:0,0:0:0:0:
490,350,52959,2,0,B|406:283|484:257|385:177,1,181.500005538941,2|0,1:0|0:0,0:0:0:0:
331,262,53420,2,0,B|348:263|362:273|362:273|344:291|326:288,1,60.5000018463135,10|0,0:0|0:0,0:0:0:0:
154,339,53651,2,0,B|136:340|122:350|122:350|140:368|158:365,1,60.5000018463135,2|0,1:0|0:0,0:0:0:0:
255,353,53882,6,0,P|238:289|172:236,1,121.000003692627,2|0,1:0|0:0,0:0:0:0:
0,326,54228,1,0,0:0:0:0:
23,321,54343,2,0,P|47:298|50:261,1,60.5000018463135,10|0,0:0|0:0,0:0:0:0:
148,143,54574,2,0,P|124:166|121:203,1,60.5000018463135,2|8,0:0|0:0,0:0:0:0:
154,339,54804,1,0,1:0:0:0:
154,339,55036,6,0,B|219:314|219:314|239:336,1,90.7500027694703,10|0,0:0|0:0,0:0:0:0:
239,343,55266,2,0,B|304:368|304:368|324:346,1,90.7500027694703,8|0,0:0|0:0,0:0:0:0:
327,339,55497,1,2,1:0:0:0:
508,263,55728,6,0,B|516:333|424:358|424:358|374:291|447:269,1,242.000007385254,2|0,1:0|0:0,0:0:0:0:
456,77,57805,6,0,P|439:66|408:57,1,30.2500009231568
447,64,58036,2,0,P|430:53|399:44,1,30.2500009231568
438,53,58266,2,0,P|421:42|390:33,1,30.2500009231568
327,79,58382,5,0,0:0:0:0:
317,84,58497,2,0,P|296:82|279:66,1,30.2500009231568
76,219,58728,5,0,0:0:0:0:
76,219,58958,6,0,P|61:222|54:235,1,30.2500009231568
2,311,59073,1,0,0:0:0:0:
2,311,59189,2,0,P|39:276|85:267,1,90.7500027694703
71,368,59419,6,0,B|108:366|50:219|145:168|215:208|175:291|181:277,1,250.249988544465,6|0,1:0|0:0,0:0:0:0:
173,290,59882,6,0,P|169:319|191:290,1,71.4999967269899,10|0,0:0|0:0,0:0:0:0:
296,114,60112,1,2,0:0:0:0:
338,106,60228,1,10,0:0:0:0:
367,137,60343,2,0,P|337:132|364:114,1,71.4999967269899,2|0,1:0|0:0,0:0:0:0:
455,74,60574,2,0,P|473:97|444:100,1,71.4999967269899,2|0,1:0|0:0,0:0:0:0:
413,355,60805,6,0,B|361:331|354:295|378:230|430:237|474:218|524:295|454:353,1,285.99998690796,10|2,0:0|1:0,0:0:0:0:
61,340,61497,1,0,0:0:0:0:
56,327,61612,1,0,0:0:0:0:
70,317,61728,2,0,P|70:283|52:300,1,71.4999967269899,10|0,0:0|0:0,0:0:0:0:
306,360,61959,1,2,0:0:0:0:
277,328,62074,1,8,0:0:0:0:
279,243,62189,2,0,P|311:231|300:254,1,71.4999967269899,2|0,1:0|0:0,0:0:0:0:
190,352,62420,2,0,P|157:340|168:363,1,71.4999967269899,10|0,0:0|0:0,0:0:0:0:
440,347,62651,2,0,P|425:316|416:339,1,71.4999967269899,10|0,0:0|0:0,0:0:0:0:
306,384,62882,1,2,1:0:0:0:
294,369,62997,1,0,0:0:0:0:
332,295,63112,6,0,P|356:240|290:248,1,142.99999345398,2|0,1:0|0:0,0:0:0:0:
15,172,63459,1,0,0:0:0:0:
19,182,63574,2,0,P|50:194|30:158,1,71.4999967269899,10|0,0:0|0:0,0:0:0:0:
255,43,63805,1,2,0:0:0:0:
258,85,63920,1,8,0:0:0:0:
229,117,64036,2,0,P|198:129|218:93,1,71.4999967269899,2|0,1:0|0:0,0:0:0:0:
46,30,64266,2,0,P|77:18|57:54,1,71.4999967269899,0|0,1:0|0:0,0:0:0:0:
195,255,64497,2,0,P|145:274|177:216,1,142.99999345398,10|0,0:0|1:0,0:0:0:0:
413,355,64959,6,0,P|475:370|443:312,1,142.99999345398,2|0,1:0|0:0,0:0:0:0:
354,50,65305,1,0,0:0:0:0:
355,37,65420,2,0,P|417:22|385:80,1,142.99999345398,10|0,0:0|0:0,0:0:0:0:
302,253,65766,1,8,0:0:0:0:
305,271,65882,2,0,P|336:283|316:247,1,71.4999967269899,2|0,1:0|0:0,0:0:0:0:
475,199,66112,2,0,P|444:211|464:175,1,71.4999967269899,8|0,0:0|0:0,0:0:0:0:
187,88,66343,6,0,P|227:72|201:119,1,107.249995090485,10|0,0:0|0:0,0:0:0:0:
369,144,66574,6,0,P|328:128|354:175,1,107.249995090485,0|0,1:0|0:0,0:0:0:0:
237,197,66804,6,0,P|201:282|194:197,1,214.49999018097,6|0,1:0|0:0,0:0:0:0:
466,339,67266,6,0,P|479:351|445:355,1,71.4999967269899,10|0,0:0|0:0,0:0:0:0:
305,271,67496,1,2,0:0:0:0:
276,303,67612,1,10,0:0:0:0:
320,376,67728,2,0,P|332:389|336:355,1,71.4999967269899,2|0,1:0|0:0,0:0:0:0:
173,219,67959,2,0,P|160:205|156:239,1,71.4999967269899,2|0,1:0|0:0,0:0:0:0:
205,378,68189,6,0,B|263:340|239:306|226:237|79:273|79:353|164:376,1,285.99998690796,10|2,0:0|1:0,0:0:0:0:
465,312,68882,1,0,0:0:0:0:
470,299,68997,1,0,0:0:0:0:
456,289,69113,2,0,P|456:255|474:272,1,71.4999967269899,10|0,0:0|0:0,0:0:0:0:
429,20,69343,1,2,0:0:0:0:
467,38,69458,1,8,0:0:0:0:
474,121,69573,2,0,P|451:149|450:120,1,71.4999967269899,2|0,1:0|0:0,0:0:0:0:
276,81,69805,2,0,P|299:109|300:80,1,71.4999967269899,10|0,0:0|0:0,0:0:0:0:
402,56,70036,2,0,P|379:28|378:57,1,71.4999967269899,10|0,0:0|0:0,0:0:0:0:
367,246,70266,1,2,1:0:0:0:
367,246,70496,6,0,P|346:182|321:217,1,142.99999345398,2|0,1:0|0:0,0:0:0:0:
142,43,70843,1,0,0:0:0:0:
152,29,70959,2,0,P|183:29|172:61,1,71.4999967269899,10|0,0:0|0:0,0:0:0:0:
29,180,71189,1,2,0:0:0:0:
61,151,71304,1,8,0:0:0:0:
134,180,71420,2,0,P|103:180|114:148,1,71.4999967269899,2|0,1:0|0:0,0:0:0:0:
255,118,71651,2,0,P|255:149|223:138,1,71.4999967269899,2|0,1:0|0:0,0:0:0:0:
37,57,71882,2,0,B|74:-4|104:17|193:48|172:126|66:163|71:117,1,250.249988544465,10|0,0:0|0:0,0:0:0:0:
66,209,72343,6,0,B|-27:148|46:77|78:107|165:116|126:192,1,250.249988544465,2|0,1:0|0:0,0:0:0:0:
240,228,72805,6,0,B|229:302|198:294|159:291|108:280|93:191|185:197,1,250.249988544465,10|0,0:0|0:0,0:0:0:0:
253,143,73266,6,0,P|215:134|238:117,1,71.4999967269899,2|0,1:0|0:0,0:0:0:0:
425,33,73497,2,0,P|463:42|440:59,1,71.4999967269899,8|0,0:0|0:0,0:0:0:0:
379,160,73728,5,2,3:0:0:0:
337,131,73843,1,0,3:0:0:0:
365,89,73959,1,0,3:0:0:0:
404,119,74074,1,0,3:0:0:0:
303,52,74189,6,0,B|234:44|206:81|260:154|260:154|310:124|356:149,1,250.249988544465,6|0,1:0|0:0,0:0:0:0:
379,160,74651,6,0,P|386:125|352:142,1,71.4999967269899,10|0,0:0|0:0,0:0:0:0:
215,328,74882,1,2,0:0:0:0:
242,360,74997,1,8,0:0:0:0:
324,332,75112,2,0,P|325:300|294:304,1,71.4999967269899,2|0,1:0|0:0,0:0:0:0:
146,200,75343,2,0,P|144:168|175:172,1,71.4999967269899,2|0,1:0|0:0,0:0:0:0:
62,374,75574,6,0,B|0:359|27:303|67:233|133:243|194:326|122:371,1,285.99998690796,10|2,0:0|1:0,0:0:0:0:
21,126,76266,1,0,0:0:0:0:
26,113,76381,1,0,0:0:0:0:
12,103,76497,2,0,P|12:69|30:86,1,71.4999967269899,10|0,0:0|0:0,0:0:0:0:
250,28,76728,1,2,0:0:0:0:
235,68,76843,1,8,0:0:0:0:
172,115,76958,2,0,P|136:119|155:87,1,71.4999967269899,2|0,1:0|0:0,0:0:0:0:
283,4,77189,2,0,P|318:0|299:31,1,71.4999967269899,10|0,0:0|0:0,0:0:0:0:
512,188,77420,2,0,P|476:183|495:215,1,71.4999967269899,10|0,0:0|0:0,0:0:0:0:
318,292,77651,2,0,P|352:294|334:264,1,71.4999967269899,2|0,1:0|0:0,0:0:0:0:
318,114,77881,6,0,P|284:144|348:132,1,142.99999345398,2|0,1:0|0:0,0:0:0:0:
466,351,78228,1,0,0:0:0:0:
478,347,78343,2,0,P|475:317|464:338,1,71.4999967269899,10|0,0:0|0:0,0:0:0:0:
214,255,78574,1,2,0:0:0:0:
227,295,78689,1,8,0:0:0:0:
303,330,78805,2,0,P|333:316|308:291,1,71.4999967269899,2|0,1:0|0:0,0:0:0:0:
71,286,79036,1,2,1:0:0:0:
94,321,79151,1,0,0:0:0:0:
165,374,79266,2,0,P|209:330|179:323,1,107.249995090485,10|0,0:0|0:0,0:0:0:0:
195,318,79497,5,0,1:0:0:0:
141,253,79728,6,0,P|141:196|174:240,1,142.99999345398,2|0,1:0|0:0,0:0:0:0:
36,123,80074,1,0,0:0:0:0:
83,64,80189,2,0,P|83:7|50:51,1,142.99999345398,10|0,0:0|0:0,0:0:0:0:
278,128,80535,1,8,0:0:0:0:
228,75,80651,2,0,P|228:46|252:73,1,71.4999967269899,2|0,1:0|0:0,0:0:0:0:
493,94,80882,2,0,P|493:123|469:96,1,71.4999967269899,8|0,0:0|0:0,0:0:0:0:
342,65,81112,6,0,P|370:32|355:78,1,107.249995090485,10|0,0:0|0:0,0:0:0:0:
352,177,81343,6,0,P|324:144|339:190,1,107.249995090485,0|0,1:0|0:0,0:0:0:0:
333,206,81574,6,0,B|323:283|368:262|369:336,1,134.749995887756,4|0,1:0|0:0,0:0:0:0:
281,330,82036,6,0,P|240:335|209:361,1,76.9999976501466,2|0,0:0|0:0,0:0:0:0:
33,299,82497,1,2,0:0:0:0:
33,299,82728,1,2,1:0:0:0:
109,355,82959,1,2,0:0:0:0:
151,278,83189,1,2,1:0:0:0:
125,67,83420,6,0,P|73:27|0:10,1,134.749995887756,2|0,1:0|0:0,0:0:0:0:
0,88,83882,2,0,B|0:61|13:49|13:49|33:59|42:83,1,76.9999976501466,2|2,0:0|0:0,0:0:0:0:
239,246,84343,2,0,P|268:181|334:209,1,153.999995300293,2|2,0:0|0:0,0:0:0:0:
497,109,85036,1,2,1:0:0:0:
425,179,85266,1,2,1:0:0:0:
423,54,85497,2,0,P|448:22|491:9,1,76.9999976501466,2|0,0:0|0:0,0:0:0:0:
317,333,85959,6,0,L|327:303,7,19.2499994125366,2|0|0|0|0|0|0|0,0:0|0:0|0:0|0:0|0:0|0:0|0:0|0:0,0:0:0:0:
319,348,86420,2,0,L|370:328,2,38.4999988250733,2|0|0,1:0|0:0|0:0,0:0:0:0:
163,240,86882,6,0,L|153:210,7,19.2499994125366,2|0|0|0|0|0|0|0,0:0|0:0|0:0|0:0|1:0|0:0|0:0|0:0,0:0:0:0:
161,255,87343,2,0,L|110:235,2,38.4999988250733,2|0|0,0:0|0:0|0:0,0:0:0:0:
315,123,87805,6,0,L|325:93,3,19.2499994125366,2|0|0|0,0:0|0:0|0:0|0:0,0:0:0:0:
325,85,88036,1,2,3:0:0:0:
319,71,88151,1,0,3:0:0:0:
290,43,88266,1,2,3:0:0:0:
241,26,88382,1,0,3:0:0:0:
170,40,88497,2,0,P|155:37|144:25,1,19.2499994125366,2|0,3:0|0:0,0:0:0:0:
36,55,88728,2,0,P|51:52|62:40,1,19.2499994125366,2|0,3:0|0:0,0:0:0:0:
101,158,88959,6,0,P|103:117|136:126,1,76.9999976501466,6|0,1:0|0:0,0:0:0:0:
236,207,89305,1,0,0:0:0:0:
249,191,89420,2,0,P|247:150|214:159,1,76.9999976501466,2|2,0:0|0:0,0:0:0:0:
26,244,89881,1,2,0:0:0:0:
26,244,90112,1,2,1:0:0:0:
147,235,90343,1,2,0:0:0:0:
209,284,90573,1,2,1:0:0:0:
403,298,90804,6,0,P|474:316|511:377,1,134.749995887756,2|0,1:0|0:0,0:0:0:0:
487,365,91266,2,0,B|487:387|470:387|470:387|474:363|452:332,1,76.9999976501466,2|2,0:0|0:0,0:0:0:0:
500,104,91727,2,0,P|431:114|422:37,1,153.999995300293,2|2,0:0|0:0,0:0:0:0:
501,12,92420,1,2,1:0:0:0:
425,205,92650,5,2,1:0:0:0:
281,56,92882,1,2,0:0:0:0:
268,46,92997,1,0,0:0:0:0:
253,42,93112,2,0,P|214:48|179:66,1,76.9999976501466,2|2,0:0|0:0,0:0:0:0:
83,25,93574,1,2,0:0:0:0:
61,295,93805,1,2,1:0:0:0:
75,288,93920,1,0,0:0:0:0:
86,277,94036,1,2,0:0:0:0:
189,276,94266,1,2,1:0:0:0:
0,137,94497,6,0,P|37:142|66:157,1,57.7499982376099,6|0,1:0|0:0,0:0:0:0:
68,170,94727,1,2,0:0:0:0:
82,188,94842,1,8,0:0:0:0:
115,206,94959,5,10,0:0:0:0:
161,209,95074,1,8,0:0:0:0:
204,176,95189,1,10,0:0:0:0:
258,120,95305,5,8,0:0:0:0:
276,116,95420,1,10,0:0:0:0:
292,125,95536,1,8,0:0:0:0:
333,185,95651,5,2,3:0:0:0:
343,196,95766,1,0,3:0:0:0:
402,244,95882,2,0,P|430:233|451:235,1,38.4999988250733,10|8,0:0|0:0,0:0:0:0:
473,0,96112,5,2,3:0:0:0:
461,2,96228,1,0,3:0:0:0:
454,19,96343,2,0,B|487:44|478:82|478:82|465:54|429:41,1,121.000003692627,6|0,1:0|0:0,0:0:0:0:
373,123,96689,1,0,0:0:0:0:
378,140,96805,2,0,P|406:142|398:116,1,60.5000018463135,10|0,0:0|0:0,0:0:0:0:
216,15,97035,1,0,0:0:0:0:
194,4,97150,1,8,0:0:0:0:
169,3,97266,2,0,P|135:15|108:51,1,60.5000018463135,2|0,1:0|0:0,0:0:0:0:
250,138,97497,2,0,P|217:122|172:128,1,60.5000018463135,10|0,0:0|0:0,0:0:0:0:
0,299,97728,1,2,0:0:0:0:
106,117,97901,5,0,0:0:0:0:
116,113,97958,6,0,B|103:231|39:163|-1:285,1,211.750006462097,6|0,1:0|0:0,0:0:0:0:
13,306,98420,1,2,0:0:0:0:
327,51,98651,1,10,0:0:0:0:
310,69,98766,1,0,0:0:0:0:
369,73,98881,1,0,0:0:0:0:
417,42,98997,1,8,0:0:0:0:
426,32,99112,2,0,P|453:43|475:75,1,60.5000018463135,2|0,1:0|0:0,0:0:0:0:
497,272,99343,1,10,0:0:0:0:
497,272,99574,2,0,P|486:243|466:221,1,60.5000018463135,10|0,0:0|0:0,0:0:0:0:
211,384,99804,1,2,1:0:0:0:
211,384,100036,6,0,B|249:366|275:330|275:330|284:355|308:369,1,121.000003692627,2|0,1:0|0:0,0:0:0:0:
399,273,100381,1,0,0:0:0:0:
408,289,100497,2,0,B|413:303|406:317|406:317|397:301|384:291,1,60.5000018463135,10|0,0:0|0:0,0:0:0:0:
179,225,100727,1,0,0:0:0:0:
162,232,100842,1,8,0:0:0:0:
157,249,100958,2,0,B|151:263|158:277|158:277|167:261|180:251,1,60.5000018463135,2|0,1:0|0:0,0:0:0:0:
312,175,101189,2,0,B|318:159|304:143|304:143|287:147|283:165,1,60.5000018463135,10|0,0:0|0:0,0:0:0:0:
301,384,101419,1,2,0:0:0:0:
321,381,101535,1,0,0:0:0:0:
336,351,101650,2,0,B|284:307|315:296|265:251,1,121.000003692627,6|0,1:0|0:0,0:0:0:0:
15,22,102112,5,2,0:0:0:0:
10,33,102228,1,0,0:0:0:0:
16,43,102343,2,0,P|45:33|26:22,1,60.5000018463135,10|0,0:0|0:0,0:0:0:0:
47,270,102573,1,0,0:0:0:0:
66,284,102689,1,8,0:0:0:0:
104,290,102804,2,0,B|136:280|170:252|170:252|157:250|143:243,1,90.7500027694703,2|0,1:0|0:0,0:0:0:0:
145,227,103036,6,0,P|135:216|147:218,1,30.2500009231568,10|0,0:0|0:0,0:0:0:0:
248,58,103266,2,0,P|258:69|246:67,1,30.2500009231568,10|0,0:0|0:0,0:0:0:0:
38,27,103497,6,0,P|19:37|32:38,1,53.6249975452424,2|0,1:0|0:0,0:0:0:0:
45,52,103728,6,0,B|67:43|89:46|89:46|147:119,1,121.000003692627,2|0,1:0|0:0,0:0:0:0:
356,22,104074,1,0,0:0:0:0:
339,4,104189,2,0,B|317:-5|295:-2|295:-2|237:71,1,121.000003692627,10|0,0:0|0:0,0:0:0:0:
454,65,104536,1,8,0:0:0:0:
466,66,104650,2,0,B|480:84|497:93|497:93|482:90|469:90,1,60.5000018463135,2|0,1:0|0:0,0:0:0:0:
297,163,104882,2,0,B|283:181|266:190|266:190|281:187|294:187,1,60.5000018463135,10|0,0:0|0:0,0:0:0:0:
464,322,105112,6,0,P|490:334|509:362,1,53.6249975452424,2|0,0:0|0:0,0:0:0:0:
504,375,105343,6,0,B|424:274|389:352|279:254,1,242.000007385254,2|0,1:0|0:0,0:0:0:0:
431,190,105920,1,0,0:0:0:0:
431,205,106036,2,0,P|376:209|403:167,1,121.000003692627,10|0,0:0|0:0,0:0:0:0:
285,360,106381,1,8,0:0:0:0:
262,368,106497,2,0,P|228:356|201:320,1,60.5000018463135,2|0,1:0|0:0,0:0:0:0:
33,302,106728,2,0,P|62:299|89:285,1,60.5000018463135,10|0,0:0|0:0,0:0:0:0:
236,175,106959,2,0,P|210:190|192:214,1,60.5000018463135,10|0,0:0|0:0,0:0:0:0:
16,22,107189,6,0,P|41:37|19:44,1,53.6249975452424,2|0,1:0|0:0,0:0:0:0:
10,85,107420,6,0,B|80:63|56:40|119:15,1,121.000003692627,2|0,1:0|0:0,0:0:0:0:
172,111,107766,1,0,0:0:0:0:
165,122,107881,2,0,P|132:117|142:95,1,60.5000018463135,10|0,0:0|0:0,0:0:0:0:
9,196,108112,1,0,0:0:0:0:
19,218,108228,1,8,0:0:0:0:
42,228,108343,2,0,P|75:223|65:201,1,60.5000018463135,2|0,1:0|0:0,0:0:0:0:
220,299,108574,1,8,0:0:0:0:
216,323,108690,1,0,0:0:0:0:
200,338,108805,2,0,P|136:328|155:285,1,121.000003692627,2|2,0:0|1:0,0:0:0:0:
506,381,109266,6,0,P|502:366|489:357,1,30.2500009231568,10|0,0:0|0:0,0:0:0:0:
227,302,109612,5,0,0:0:0:0:
233,278,109728,2,0,P|237:263|250:254,1,30.2500009231568,10|0,0:0|0:0,0:0:0:0:
459,158,110074,5,0,0:0:0:0:
453,134,110190,2,0,P|449:119|436:110,1,30.2500009231568,8|0,0:0|0:0,0:0:0:0:
303,23,110420,2,0,P|307:8|320:-1,1,30.2500009231568,10|0,0:0|0:0,0:0:0:0:
352,375,110650,5,2,3:0:0:0:
367,336,110766,1,0,3:0:0:0:
355,281,110881,1,0,3:0:0:0:
401,219,110997,1,0,3:0:0:0:
432,230,111112,6,0,P|363:155|315:55,1,211.750006462097,6|0,1:0|0:0,0:0:0:0:
316,48,111573,2,0,B|295:79|250:89|250:89|272:70|273:47,1,121.000003692627,10|0,0:0|0:0,0:0:0:0:
107,18,111920,1,8,0:0:0:0:
128,5,112036,2,0,P|164:11|192:39,1,60.5000018463135,2|0,1:0|0:0,0:0:0:0:
244,173,112266,2,0,P|207:167|179:139,1,60.5000018463135,0|0,1:0|0:0,0:0:0:0:
0,105,112497,2,0,P|59:101|72:169,1,121.000003692627,10|2,0:0|1:0,0:0:0:0:
47,324,112843,5,0,0:0:0:0:
4,384,112959,2,0,B|71:370|53:336|122:313,1,121.000003692627,2|0,1:0|0:0,0:0:0:0:
262,287,113305,1,0,0:0:0:0:
239,281,113420,2,0,P|208:296|207:326,1,60.5000018463135,10|0,0:0|0:0,0:0:0:0:
371,381,113650,1,0,0:0:0:0:
400,377,113766,1,8,0:0:0:0:
439,347,113882,2,0,P|437:317|382:278,1,90.7500027694703,2|0,1:0|0:0,0:0:0:0:
379,281,114112,6,0,P|371:296|386:289,1,30.2500009231568,8|0,0:0|0:0,0:0:0:0:
488,170,114343,2,0,P|496:185|481:178,1,30.2500009231568,10|0,0:0|0:0,0:0:0:0:
372,6,114574,6,0,P|366:32|385:17,1,53.6249975452424,2|0,1:0|0:0,0:0:0:0:
437,74,114805,6,0,B|315:65|353:16|229:10,1,211.750006462097,2|0,1:0|0:0,0:0:0:0:
207,17,115266,2,0,P|182:36|168:69,1,60.5000018463135,10|0,0:0|0:0,0:0:0:0:
0,0,115497,2,0,P|26:18|39:52,1,60.5000018463135,0|8,0:0|0:0,0:0:0:0:
26,263,115728,2,0,P|53:192|103:159,1,121.000003692627,2|0,1:0|1:0,0:0:0:0:
278,109,116074,1,0,0:0:0:0:
274,122,116189,2,0,P|244:113|274:110,1,60.5000018463135,10|0,0:0|0:0,0:0:0:0:
496,0,116420,2,0,P|469:71|419:104,2,121.000003692627,2|2|0,1:0|1:0|0:0,0:0:0:0:
471,230,116997,5,0,0:0:0:0:
483,216,117112,2,0,P|486:190|461:196,1,60.5000018463135,10|0,0:0|0:0,0:0:0:0:
266,370,117343,1,0,0:0:0:0:
287,353,117458,1,8,0:0:0:0:
313,355,117573,2,0,B|377:319|345:302|414:262,1,121.000003692627,2|8,1:0|0:0,0:0:0:0:
456,358,117920,5,0,0:0:0:0:
447,361,117977,5,0,0:0:0:0:
443,352,118035,5,10,0:0:0:0:
411,102,118266,1,0,1:0:0:0:
243,1,118439,5,0,0:0:0:0:
232,0,118497,6,0,P|167:23|130:73,1,121.000003692627,6|0,1:0|0:0,0:0:0:0:
0,270,118843,1,0,0:0:0:0:
22,274,118958,2,0,B|57:259|79:218|79:218|56:209|35:233,1,121.000003692627,10|0,0:0|0:0,0:0:0:0:
20,66,119304,2,0,P|26:50|31:63,1,30.2500009231568,8|0,0:0|0:0,0:0:0:0:
48,68,119420,2,0,B|69:178|130:103|162:219,1,181.500005538941,2|0,1:0|0:0,0:0:0:0:
381,377,119882,2,0,B|361:369|344:349|344:349|341:365|351:375,1,60.5000018463135,10|0,0:0|0:0,0:0:0:0:
186,279,120112,2,0,B|206:271|223:251|223:251|226:267|216:277,1,60.5000018463135,2|0,1:0|0:0,0:0:0:0:
392,168,120343,6,0,B|385:202|361:219|361:219|357:216|357:216|326:226|319:271,1,121.000003692627,2|0,1:0|0:0,0:0:0:0:
416,299,120689,1,0,0:0:0:0:
428,284,120804,2,0,P|461:264|491:267,1,60.5000018463135,10|0,0:0|0:0,0:0:0:0:
488,52,121036,2,0,P|478:89|455:108,2,60.5000018463135,0|8|0,0:0|0:0|1:0,0:0:0:0:
214,355,121497,6,0,B|183:366|183:366|117:335,1,90.7500027694703,10|0,0:0|0:0,0:0:0:0:
118,332,121728,2,0,B|87:321|87:321|21:352,1,90.7500027694703,8|0,0:0|0:0,0:0:0:0:
22,364,121958,1,2,1:0:0:0:
187,271,122189,6,0,B|208:191|164:122|164:122|109:140|102:164|135:182|129:150,1,242.000007385254,2|0,1:0|0:0,0:0:0:0:
456,370,124266,6,0,P|439:381|408:390,1,30.2500009231568
378,299,124497,2,0,P|395:310|426:319,1,30.2500009231568
509,152,124728,2,0,P|488:154|471:170,1,30.2500009231568
433,238,124843,5,0,0:0:0:0:
433,238,124958,2,0,P|454:236|471:220,1,30.2500009231568
334,29,125189,5,0,0:0:0:0:
334,29,125419,6,4,P|349:32|356:45,1,30.2500009231568,0|0,0:0|0:0,0:0:0:0:
398,148,125535,1,0,0:0:0:0:
398,148,125650,2,0,P|366:162|388:127,1,90.7500027694703
439,67,125881,6,0,B|414:29|358:24|358:24|277:46|318:95|218:121,1,250.249988544465,6|0,1:0|0:0,0:0:0:0:
195,14,126342,6,0,P|227:3|219:33,1,71.4999967269899,10|0,0:0|0:0,0:0:0:0:
9,126,126574,1,2,0:0:0:0:
0,153,126690,1,10,0:0:0:0:
15,175,126805,2,0,P|47:186|39:156,1,71.4999967269899,2|0,1:0|0:0,0:0:0:0:
155,88,127036,2,0,P|123:99|131:69,1,71.4999967269899,2|0,1:0|0:0,0:0:0:0:
189,302,127267,6,0,B|94:263|125:224|153:210|172:151|233:144|260:211|241:263,1,285.99998690796,10|6,0:0|1:0,0:0:0:0:
490,351,127959,1,0,0:0:0:0:
473,354,128074,1,0,0:0:0:0:
462,340,128190,2,0,P|470:307|485:330,1,71.4999967269899,10|0,0:0|0:0,0:0:0:0:
498,121,128419,1,2,0:0:0:0:
491,150,128536,1,8,0:0:0:0:
420,200,128651,2,0,P|398:209|409:174,1,71.4999967269899,2|0,1:0|0:0,0:0:0:0:
247,50,128882,2,0,P|238:20|268:23,1,71.4999967269899,10|0,0:0|0:0,0:0:0:0:
402,29,129112,2,0,P|410:58|380:55,1,71.4999967269899,10|0,0:0|0:0,0:0:0:0:
213,266,129342,1,2,1:0:0:0:
203,243,129459,1,0,0:0:0:0:
234,161,129574,6,0,P|280:137|268:205,1,142.99999345398,2|0,1:0|0:0,0:0:0:0:
13,125,129919,1,0,0:0:0:0:
0,137,130036,2,0,P|17:172|36:152,1,71.4999967269899,10|0,0:0|0:0,0:0:0:0:
210,30,130267,1,2,0:0:0:0:
247,50,130382,1,8,0:0:0:0:
257,91,130497,2,0,P|239:126|220:106,1,71.4999967269899,2|0,1:0|0:0,0:0:0:0:
67,55,130728,2,0,P|84:19|103:39,1,71.4999967269899,0|0,1:0|0:0,0:0:0:0:
152,289,130959,2,0,P|157:221|112:270,1,142.99999345398,10|0,0:0|1:0,0:0:0:0:
437,15,131420,6,0,P|431:82|477:34,1,142.99999345398,2|0,1:0|0:0,0:0:0:0:
432,254,131767,1,0,0:0:0:0:
440,233,131882,2,0,P|507:227|459:273,1,142.99999345398,10|0,0:0|0:0,0:0:0:0:
229,351,132228,1,8,0:0:0:0:
239,370,132343,2,0,P|272:370|257:345,1,71.4999967269899,2|0,1:0|0:0,0:0:0:0:
346,255,132574,2,0,P|312:255|327:230,1,71.4999967269899,8|0,0:0|0:0,0:0:0:0:
147,239,132805,6,0,P|170:216|162:268,1,107.249995090485,10|0,0:0|0:0,0:0:0:0:
134,352,133036,6,0,P|111:329|119:381,1,107.249995090485,0|0,1:0|0:0,0:0:0:0:
0,267,133266,6,0,P|90:287|28:229,1,214.49999018097,6|0,1:0|0:0,0:0:0:0:
40,140,133670,5,0,0:0:0:0:
51,150,133728,2,0,P|83:148|62:113,1,71.4999967269899,10|0,0:0|0:0,0:0:0:0:
301,123,133958,1,2,0:0:0:0:
292,80,134074,1,10,0:0:0:0:
218,31,134189,2,0,P|186:33|207:68,1,71.4999967269899,2|0,1:0|0:0,0:0:0:0:
443,62,134420,2,0,P|475:64|454:99,1,71.4999967269899,2|0,1:0|0:0,0:0:0:0:
271,258,134651,6,0,B|233:251|236:187|251:91|380:116|406:217|312:256,1,285.99998690796,10|2,0:0|1:0,0:0:0:0:
104,33,135343,1,0,0:0:0:0:
100,51,135458,1,0,0:0:0:0:
86,61,135574,2,0,P|51:55|66:28,1,71.4999967269899,10|0,0:0|0:0,0:0:0:0:
207,224,135805,1,2,0:0:0:0:
187,185,135920,1,8,0:0:0:0:
103,154,136036,2,0,P|68:159|83:187,1,71.4999967269899,2|0,1:0|0:0,0:0:0:0:
96,376,136266,2,0,P|130:370|116:343,1,71.4999967269899,10|0,0:0|0:0,0:0:0:0:
46,293,136497,2,0,P|11:287|26:260,1,71.4999967269899,10|0,0:0|0:0,0:0:0:0:
229,30,136728,1,2,1:0:0:0:
229,30,136958,6,0,P|226:88|183:36,1,142.99999345398,2|0,1:0|0:0,0:0:0:0:
337,240,137305,1,0,0:0:0:0:
351,216,137420,2,0,P|342:183|312:210,1,71.4999967269899,10|0,0:0|0:0,0:0:0:0:
360,8,137651,1,2,0:0:0:0:
376,48,137766,1,8,0:0:0:0:
455,89,137882,2,0,P|489:83|472:67,1,71.4999967269899,2|0,1:0|0:0,0:0:0:0:
474,235,138112,2,0,P|468:201|452:218,1,71.4999967269899,2|0,1:0|0:0,0:0:0:0:
315,349,138343,2,0,P|250:284|347:300,1,250.249988544465,10|0,0:0|0:0,0:0:0:0:
249,367,138805,6,0,B|268:324|265:259|174:240|118:277|126:350|131:363|175:360,1,250.249988544465,2|0,1:0|0:0,0:0:0:0:
2,317,139266,6,0,B|13:391|44:383|83:380|134:369|149:280|57:286,1,250.249988544465,10|0,0:0|0:0,0:0:0:0:
15,223,139728,6,0,P|4:194|34:193,1,71.4999967269899,2|0,1:0|0:0,0:0:0:0:
166,172,139959,2,0,P|176:200|146:201,1,71.4999967269899,8|0,0:0|0:0,0:0:0:0:
57,76,140190,5,2,3:0:0:0:
92,40,140305,1,0,3:0:0:0:
125,77,140419,1,0,3:0:0:0:
92,114,140536,1,0,3:0:0:0:
91,7,140650,6,0,B|269:2|275:87|275:87|253:79|218:86,1,250.249988544465,6|0,1:0|0:0,0:0:0:0:
234,194,141113,6,0,P|242:159|261:175,1,71.4999967269899,10|0,0:0|0:0,0:0:0:0:
415,61,141343,1,2,0:0:0:0:
440,95,141459,1,8,0:0:0:0:
399,176,141574,2,0,P|364:168|380:149,1,71.4999967269899,2|0,1:0|0:0,0:0:0:0:
490,307,141805,2,0,P|525:299|509:280,1,71.4999967269899,2|0,1:0|0:0,0:0:0:0:
317,330,142036,6,0,B|282:274|308:212|399:257|442:305|425:397|338:365,1,285.99998690796,10|2,0:0|1:0,0:0:0:0:
10,278,142728,1,0,0:0:0:0:
21,260,142843,1,0,0:0:0:0:
42,255,142959,2,0,P|71:260|60:293,1,71.4999967269899,10|0,0:0|0:0,0:0:0:0:
16,50,143190,1,2,0:0:0:0:
32,90,143305,1,8,0:0:0:0:
104,138,143420,2,0,P|133:132|122:99,1,71.4999967269899,2|0,1:0|0:0,0:0:0:0:
288,10,143651,2,0,P|258:15|269:48,1,71.4999967269899,10|0,0:0|0:0,0:0:0:0:
492,161,143882,2,0,P|486:131|453:142,1,71.4999967269899,10|0,0:0|0:0,0:0:0:0:
277,256,144112,2,0,P|282:226|315:237,1,71.4999967269899,2|0,1:0|0:0,0:0:0:0:
492,378,144343,6,0,P|494:319|456:355,1,142.99999345398,2|0,1:0|0:0,0:0:0:0:
227,337,144690,1,0,0:0:0:0:
213,347,144805,2,0,P|183:324|206:314,1,71.4999967269899,10|0,0:0|0:0,0:0:0:0:
28,178,145036,1,2,0:0:0:0:
46,216,145151,1,8,0:0:0:0:
136,229,145267,2,0,P|164:206|134:200,1,71.4999967269899,2|0,1:0|0:0,0:0:0:0:
178,8,145496,1,2,1:0:0:0:
166,50,145613,1,0,0:0:0:0:
81,85,145728,2,0,P|31:73|70:51,1,107.249995090485,10|0,0:0|0:0,0:0:0:0:
72,39,145959,1,0,1:0:0:0:
465,296,146190,6,0,P|405:335|410:299,1,142.99999345398,2|0,1:0|0:0,0:0:0:0:
311,159,146536,1,0,0:0:0:0:
248,200,146651,2,0,P|224:237|288:228,1,142.99999345398,10|0,0:0|0:0,0:0:0:0:
428,42,146997,1,8,0:0:0:0:
496,85,147113,2,0,P|492:120|475:88,1,71.4999967269899,2|0,1:0|0:0,0:0:0:0:
297,53,147343,2,0,P|293:18|276:50,1,71.4999967269899,8|0,0:0|0:0,0:0:0:0:
19,155,147574,6,0,P|56:163|36:121,1,107.249995090485,10|0,0:0|0:0,0:0:0:0:
173,46,147805,6,0,P|135:37|155:79,1,107.249995090485,0|0,1:0|0:0,0:0:0:0:
148,159,148036,6,0,P|185:211|143:267,1,134.749995887756,4|0,1:0|0:0,0:0:0:0:
68,273,148497,2,0,P|25:287|15:328,1,76.9999976501466,2|0,0:0|0:0,0:0:0:0:
248,369,148958,1,2,0:0:0:0:
312,326,149189,1,2,1:0:0:0:
495,367,149420,1,2,0:0:0:0:
450,307,149650,1,2,1:0:0:0:
395,92,149881,6,0,P|420:34|489:10,1,134.749995887756,2|0,1:0|0:0,0:0:0:0:
498,37,150343,2,0,P|480:62|453:27,1,76.9999976501466,2|2,0:0|0:0,0:0:0:0:
62,49,150804,2,0,P|91:114|135:69,1,153.999995300293,2|2,0:0|0:0,0:0:0:0:
300,48,151497,1,2,1:0:0:0:
219,120,151727,1,2,1:0:0:0:
118,339,151958,2,0,P|71:347|42:375,1,76.9999976501466,2|0,0:0|0:0,0:0:0:0:
376,338,152420,6,0,P|386:324|386:308,7,19.2499994125366,2|0|0|0|0|0|0|0,0:0|0:0|0:0|0:0|0:0|0:0|0:0|0:0,0:0:0:0:
345,340,152881,2,0,P|332:329|309:325,2,38.4999988250733,2|0|0,1:0|0:0|0:0,0:0:0:0:
186,208,153343,6,0,P|176:194|176:178,7,19.2499994125366,2|0|0|0|0|0|0|0,0:0|0:0|0:0|0:0|1:0|0:0|0:0|0:0,0:0:0:0:
217,210,153804,2,0,P|230:199|252:195,2,38.4999988250733,2|0|0,0:0|0:0|0:0,0:0:0:0:
411,56,154266,6,0,P|421:42|421:26,3,19.2499994125366,2|0|0|0,0:0|0:0|0:0|0:0,0:0:0:0:
423,21,154497,1,2,3:0:0:0:
453,15,154612,1,0,3:0:0:0:
491,53,154727,1,2,3:0:0:0:
502,112,154843,1,0,3:0:0:0:
480,182,154958,2,0,P|486:196|500:210,1,19.2499994125366,2|0,3:0|0:0,0:0:0:0:
470,348,155189,2,0,P|464:334|450:320,1,19.2499994125366,2|0,3:0|0:0,0:0:0:0:
348,210,155420,6,0,P|376:243|421:249,1,76.9999976501466,6|0,1:0|0:0,0:0:0:0:
277,356,155766,1,0,0:0:0:0:
275,332,155882,2,0,P|246:298|201:292,1,76.9999976501466,2|2,0:0|0:0,0:0:0:0:
76,302,156342,1,2,0:0:0:0:
31,362,156573,1,2,1:0:0:0:
194,366,156804,1,2,0:0:0:0:
254,303,157036,1,2,1:0:0:0:
367,103,157265,6,0,P|393:62|476:21,1,134.749995887756,2|0,1:0|0:0,0:0:0:0:
480,32,157727,2,0,P|456:57|476:57,1,76.9999976501466,2|2,0:0|0:0,0:0:0:0:
413,307,158188,2,0,P|456:345|395:330,1,153.999995300293,2|2,0:0|0:0,0:0:0:0:
59,177,158881,1,2,1:0:0:0:
72,160,159112,5,2,1:0:0:0:
226,107,159343,1,2,0:0:0:0:
222,335,159574,1,2,0:0:0:0:
222,335,159805,5,2,0:0:0:0:
409,63,160035,1,2,0:0:0:0:
172,137,160266,1,2,1:0:0:0:
300,339,160497,1,2,0:0:0:0:
363,301,160728,1,2,1:0:0:0:
142,54,160959,6,0,P|98:31|52:17,1,96.25,6|0,1:0|0:0,0:0:0:0:
50,111,161882,6,0,B|40:140|52:151|52:151|47:133|23:128,1,71.4999967269899,2|0,0:0|0:0,0:0:0:0:
14,35,162112,2,0,B|24:6|12:-5|12:-5|17:13|40:17,1,71.4999967269899,2|0,0:0|0:0,0:0:0:0:
160,59,162343,6,0,B|190:38|190:38|198:61|198:61|257:47|327:4|327:4|329:22|339:43|339:43|319:24,1,250.249988544465,2|0,0:0|0:0,0:0:0:0:
281,11,162804,6,0,B|188:35|276:78|339:122|275:146|275:146|270:90|217:67,1,264,6|0,1:0|0:0,0:0:0:0:
162,130,163266,6,0,P|156:166|190:153,1,88,10|0,0:0|0:0,0:0:0:0:
380,47,163497,1,2,0:0:0:0:
452,22,163612,1,8,0:0:0:0:
477,30,163728,6,0,L|459:77,1,41.2500015735627,2|0,1:0|0:0,0:0:0:0:
436,144,163959,2,0,L|454:191,1,41.2500015735627,10|0,0:0|0:0,0:0:0:0:
468,268,164189,2,0,L|434:329,1,61.875002360344,2|0,0:0|0:0,0:0:0:0:
439,348,164420,6,0,B|452:350|460:361|460:361|461:341|428:94|187:246|228:321|228:338|228:338|242:333|320:298|266:233|185:228,1,550,6|0,1:0|0:0,0:0:0:0:
59,332,165112,6,0,P|39:343|27:364,1,30.2500009231568,10|0,0:0|0:0,0:0:0:0:
18,372,165343,6,0,P|31:362|35:344,1,30.2500009231568,2|0,0:0|0:0,0:0:0:0:
59,332,165459,2,0,P|61:315|51:300,1,30.2500009231568,10|0,0:0|0:0,0:0:0:0:
35,272,165574,6,0,B|19:267|19:267|6:222|52:250|77:228,1,88,2|0,1:0|0:0,0:0:0:0:
145,180,165805,2,0,P|165:181|151:169,1,44,10|0,0:0|0:0,0:0:0:0:
173,21,166036,2,0,B|162:18|139:9|139:9|182:38|216:95,1,132,10|0,0:0|0:0,0:0:0:0:
72,100,166266,2,0,B|83:97|105:88|105:88|63:117|28:174,1,132,2|0,1:0|0:0,0:0:0:0:
139,173,166497,6,0,B|175:102|278:111|282:55|282:55|232:63|228:115|257:153,1,296.99999093628,2|0,1:0|0:0,0:0:0:0:
475,340,166959,2,0,B|478:356|488:377|488:377|468:342|436:314,1,98.9999969787599,10|0,0:0|0:0,0:0:0:0:
351,166,167189,1,2,0:0:0:0:
370,95,167305,1,8,0:0:0:0:
432,24,167420,2,0,B|453:14|468:23|468:23|484:105,1,98.9999969787599,2|0,1:0|0:0,0:0:0:0:
378,263,167651,2,0,B|375:279|365:300|365:300|385:265|417:237,1,98.9999969787599,10|0,0:0|0:0,0:0:0:0:
282,57,167882,2,0,B|261:47|246:56|246:56|230:138,1,98.9999969787599,2|0,0:0|0:0,0:0:0:0:
51,370,168112,6,0,B|74:392|105:373|100:341|100:341|81:361|54:350,1,123.74999622345,2|0,1:0|0:0,0:0:0:0:
26,227,168805,6,0,B|3:187|43:176|43:176|86:238|41:225|69:293,1,165,10|8,0:0|0:0,0:0:0:0:
171,372,169266,6,0,P|140:360|127:331,1,65.9999979858399,2|0,1:0|0:0,0:0:0:0:
15,38,169497,1,10,0:0:0:0:
15,38,169728,2,0,B|29:23|47:27|47:27|44:48|24:53,1,65.9999979858399,10|0,0:0|0:0,0:0:0:0:
43,177,169959,2,0,B|29:162|11:166|11:166|14:187|34:192,1,65.9999979858399,2|0,1:0|0:0,0:0:0:0:
127,331,170189,6,0,B|148:347|169:343|169:343|147:369|63:369|63:369|79:256|150:267,1,308,2|0,1:0|0:0,0:0:0:0:
164,266,170651,2,0,B|210:255|192:229|250:220,1,88,10|0,0:0|0:0,0:0:0:0:
422,299,170882,1,2,0:0:0:0:
490,331,170997,1,8,0:0:0:0:
511,376,171112,2,0,P|456:260|395:248,1,176,2|10,1:0|0:0,0:0:0:0:
256,327,171516,5,0,0:0:0:0:
246,319,171574,6,0,P|240:305|260:311,1,37.1249988670349,2|0,0:0|0:0,0:0:0:0:
349,303,171805,6,0,B|437:388|486:325|486:325|449:251|392:340|331:347,1,330,2|0,1:0|0:0,0:0:0:0:
128,285,172266,6,0,B|32:371|6:303|6:303|28:233|93:312|146:329,1,296.99999093628,2|0,0:0|0:0,0:0:0:0:
373,92,172728,6,0,B|448:17|479:70|479:70|458:132|410:57|362:47,1,264,2|0,0:0|0:0,0:0:0:0:
137,90,173189,6,0,B|83:20|46:72|46:72|75:118|116:71|164:52,1,230.99999295044,10|0,0:0|0:0,0:0:0:0:
271,194,173651,6,0,B|258:196|250:202|250:202|256:194|254:181,1,37.1249988670349,2|0,1:0|0:0,0:0:0:0:
268,180,173882,6,0,P|290:156|276:108,1,65.9999979858399,2|0,1:0|0:0,0:0:0:0:
38,90,174112,1,0,0:0:0:0:
28,98,174228,1,0,0:0:0:0:
0,173,174343,2,0,B|60:157|22:104|110:87,1,131.99999597168,10|2,0:0|0:0,0:0:0:0:
184,176,174689,1,8,0:0:0:0:
194,184,174805,1,0,1:0:0:0:
219,257,175036,2,0,B|158:241|196:188|108:171,1,131.99999597168,10|0,0:0|0:0,0:0:0:0:
27,366,175497,6,0,P|43:365|37:349,1,37.1249988670349,0|0,1:0|0:0,0:0:0:0:
100,259,175727,6,0,P|83:259|89:275,1,30.2500009231568,10|0,0:0|0:0,0:0:0:0:
92,141,175959,1,0,0:0:0:0:
80,134,176074,1,0,0:0:0:0:
66,133,176189,2,0,P|51:141|63:152,1,30.2500009231568,10|0,0:0|0:0,0:0:0:0:
53,12,176420,5,0,0:0:0:0:
40,11,176535,1,0,0:0:0:0:
26,16,176651,2,0,P|15:30|31:35,1,38.4999988250733,10|0,0:0|0:0,0:0:0:0:
266,187,176882,2,0,P|269:169|253:172,1,38.4999988250733,10|0,0:0|0:0,0:0:0:0:
471,354,177112,5,2,3:0:0:0:
482,332,177227,1,0,3:0:0:0:
465,313,177343,1,0,3:0:0:0:
440,310,177459,1,0,3:0:0:0:
366,357,177573,6,0,B|402:354|431:371|431:371|470:246|264:280|317:175|317:175|354:200|389:192,1,395.999987915039,6|10,1:0|0:0,0:0:0:0:
500,2,178266,1,2,0:0:0:0:
476,6,178382,1,8,0:0:0:0:
413,68,178497,2,0,B|430:77|430:77|394:84|367:104|367:104|388:113,1,98.9999969787599,2|0,1:0|0:0,0:0:0:0:
504,328,178728,2,0,B|462:303|465:250|465:250|474:245|474:245|488:187|438:155,1,197.99999395752,2|8,1:0|0:0,0:0:0:0:
156,269,179074,1,0,0:0:0:0:
139,262,179189,2,0,B|122:253|122:253|158:246|185:226|185:226|164:217,1,98.9999969787599,2|0,1:0|0:0,0:0:0:0:
48,2,179420,2,0,B|90:27|87:80|87:80|78:85|78:85|64:143|114:175,1,197.99999395752,2|2,1:0|0:0,0:0:0:0:
107,375,179766,1,0,0:0:0:0:
101,355,179882,2,0,B|74:320|33:316|33:316|48:326|52:346,1,98.9999969787599,8|0,0:0|0:0,0:0:0:0:
175,221,180112,5,2,0:0:0:0:
193,216,180227,2,0,P|218:216|244:235,1,49.4999984893799,8|0,0:0|0:0,0:0:0:0:
270,244,180343,6,0,B|246:219|271:187|271:187|316:186|303:253,1,148.49999546814,2|0,1:0|0:0,0:0:0:0:
300,266,180574,5,10,0:0:0:0:
292,279,180632,5,0,0:0:0:0:
483,148,180804,5,10,0:0:0:0:
491,161,180862,5,0,0:0:0:0:
512,128,181036,6,0,B|535:103|510:71|510:71|465:70|478:137,1,148.49999546814,2|0,1:0|0:0,0:0:0:0:
453,241,181266,6,0,B|349:193|423:126|306:88,1,197.99999395752,2|2,1:0|0:0,0:0:0:0:
51,47,181612,2,0,B|39:19|39:19|65:36,1,49.4999984893799
73,62,181728,2,0,B|89:114|111:87|130:140,1,98.9999969787599,10|0,0:0|0:0,0:0:0:0:
132,378,181959,1,2,0:0:0:0:
73,384,182074,1,8,0:0:0:0:
27,346,182189,2,0,P|6:235|72:161,1,197.99999395752,2|0,1:0|1:0,0:0:0:0:
476,363,182593,5,0,0:0:0:0:
479,348,182651,6,0,B|439:280|389:272|389:272|411:285|411:310,1,148.49999546814,10|0,0:0|0:0,0:0:0:0:
402,306,182882,2,0,B|320:398|309:279|199:411,2,197.99999395752,2|2|2,1:0|1:0|0:0,0:0:0:0:
110,97,183516,5,0,0:0:0:0:
95,94,183574,6,0,B|27:133|19:183|19:183|32:161|57:161,1,148.49999546814,10|0,0:0|0:0,0:0:0:0:
53,171,183805,2,0,B|145:252|26:263|158:373,2,197.99999395752,2|2|8,0:0|1:0|0:0,0:0:0:0:
343,250,184497,6,0,B|328:261|318:262|318:262|323:245|340:239,1,41.2500015735627,10|0,0:0|0:0,0:0:0:0:
178,267,184728,2,0,B|192:278|202:279|202:279|197:262|180:256,1,41.2500015735627,0|0,1:0|0:0,0:0:0:0:
216,130,184959,6,0,B|267:119|275:93|275:93|247:94|221:145|255:201,1,197.99999395752,6|0,1:0|0:0,0:0:0:0:
493,33,185305,2,0,P|473:25|476:46,1,49.4999984893799
481,84,185420,2,0,B|432:60|452:42|389:9,1,98.9999969787599,8|0,0:0|0:0,0:0:0:0:
334,207,185651,1,2,0:0:0:0:
330,150,185766,1,8,0:0:0:0:
291,130,185882,2,0,B|240:119|232:93|232:93|260:94|286:145|252:201,1,197.99999395752,2|0,1:0|1:0,0:0:0:0:
13,40,186228,2,0,B|14:24|14:24|32:43|32:43|17:45,1,49.4999984893799
0,98,186343,2,0,B|43:65|43:65|40:58|40:58|79:24,1,98.9999969787599,10|0,0:0|0:0,0:0:0:0:
187,163,186574,2,0,B|138:139|158:121|95:88,1,98.9999969787599,0|0,1:0|0:0,0:0:0:0:
29,256,186805,6,0,B|23:233|-11:221|-11:221|50:141|141:219|95:242|195:298,1,296.99999093628,2|0,1:0|0:0,0:0:0:0:
475,13,187266,2,0,P|429:37|468:47,1,98.9999969787599,10|0,0:0|0:0,0:0:0:0:
464,72,187497,6,0,B|489:75|511:56|511:56|413:148|390:162|387:200|387:200|403:224|435:233|460:213|459:180|459:180|443:157|414:146|329:89|329:89|353:101|373:98,1,544.499983383179,2|0,0:0|0:0,0:0:0:0:
368,27,188189,6,0,P|349:47|301:51,1,61.875002360344,10|0,0:0|0:0,0:0:0:0:
250,98,188420,2,0,P|231:78|183:74,1,61.875002360344,0|0,1:0|0:0,0:0:0:0:
84,21,188651,6,0,B|131:-2|149:50|149:50|197:178,1,197.99999395752,6|0,1:0|0:0,0:0:0:0:
422,364,188996,2,0,P|395:365|407:349,1,49.4999984893799
423,310,189112,2,0,B|467:255|467:255|493:255|503:280,1,98.9999969787599,8|0,0:0|0:0,0:0:0:0:
368,27,189343,1,2,0:0:0:0:
328,71,189459,1,8,0:0:0:0:
309,165,189574,2,0,B|286:263|238:223|197:328,1,197.99999395752,2|0,1:0|1:0,0:0:0:0:
17,118,189920,2,0,P|44:117|32:133,1,49.4999984893799
23,171,190035,2,0,B|13:171|13:197|13:197|68:241,1,98.9999969787599,10|0,0:0|0:0,0:0:0:0:
213,167,190266,2,0,B|222:166|222:140|222:140|167:96,1,98.9999969787599,0|0,1:0|0:0,0:0:0:0:
331,345,190497,5,2,1:0:0:0:
331,335,190612,1,0,0:0:0:0:
323,328,190728,1,0,0:0:0:0:
313,331,190843,1,0,0:0:0:0:
326,357,190959,5,8,0:0:0:0:
365,352,191074,1,8,0:0:0:0:
441,324,191189,5,0,3:0:0:0:
441,324,191305,1,0,3:0:0:0:
468,250,191420,5,8,0:0:0:0:
419,186,191536,1,8,0:0:0:0:
343,192,191651,5,0,3:0:0:0:
343,192,191766,1,0,3:0:0:0:
379,266,191882,5,0,1:0:0:0:
504,172,192112,1,0,1:0:0:0:
176,73,192342,6,0,P|377:235|219:53,1,791.999975830079,6|0,1:0|0:0,0:0:0:0:
