osu file format v14

[General]
AudioFilename: audio.mp3
AudioLeadIn: 0
PreviewTime: 176420
Countdown: 0
SampleSet: Soft
StackLeniency: 0.7
Mode: 0
LetterboxInBreaks: 0
WidescreenStoryboard: 1

[Editor]
Bookmarks: 60805,61266,68189,68651,75574,76036,127266,127728,134651,135112,142036,142497,192343,196036
DistanceSpacing: 0.7
BeatDivisor: 4
GridSize: 32
TimelineZoom: 1.9

[Metadata]
Title:Krepost'
TitleUnicode:Крепость
Artist:Dayte tank (!)
ArtistUnicode:Дайте танк (!)
Creator:Hachiko
Version:Gordon's Hard
Source:
Tags:alternative rock russian Florescence Gordon123 Parad0xa tokiko русский Человеко-часы 2020 Дмитрий Мозжухин indie tank! tank(!) hacpaho fortress
BeatmapID:3807328
BeatmapSetID:1827765

[Difficulty]
HPDrainRate:4
CircleSize:3.8
OverallDifficulty:6
ApproachRate:8
SliderMultiplier:1.5
SliderTickRate:0.5

[Events]
//Background and Video events
0,0,"kr.jpg",0,0
//Break Periods
//Storyboard Layer 0 (Background)
//Storyboard Layer 1 (Fail)
//Storyboard Layer 2 (Pass)
//Storyboard Layer 3 (Foreground)
//Storyboard Layer 4 (Overlay)
//Storyboard Sound Samples

[TimingPoints]
343,461.538461538461,4,2,1,43,1,0
14190,-100,4,2,1,43,0,0
14651,-100,4,2,1,43,0,0
14825,-100,4,2,1,35,0,0
14940,-100,4,2,1,26,0,0
15055,-100,4,2,1,20,0,0
15113,-100,4,2,1,55,0,0
29882,-100,4,2,1,55,0,0
37036,-100,4,2,1,55,0,0
37266,-100,4,2,1,55,0,0
40670,-100,4,2,1,55,0,0
40959,-100,4,2,1,55,0,0
59420,-90.9090909090909,4,2,1,65,0,0
81574,-100,4,2,1,60,0,0
81632,-100,4,2,1,45,0,0
85959,-100,4,2,1,42,0,0
92651,-100,4,2,1,50,0,0
94497,-100,4,2,1,55,0,0
96343,-100,4,2,1,55,0,0
103497,-100,4,2,1,55,0,0
103727,-100,4,2,1,55,0,0
105112,-100,4,2,1,55,0,0
105343,-100,4,2,1,55,0,0
107131,-100,4,2,1,55,0,0
107420,-100,4,2,1,55,0,0
114574,-100,4,2,1,55,0,0
114805,-100,4,2,1,55,0,0
125881,-90.9090909090909,4,2,1,65,0,0
148035,-100,4,2,1,60,0,0
148093,-100,4,2,1,45,0,0
152420,-100,4,2,1,42,0,0
159112,-100,4,2,1,50,0,0
160958,-100,4,2,1,55,0,0
160959,-100,4,2,1,55,0,0
161882,-100,4,2,1,55,0,0
162804,-100,4,2,1,70,0,1
163728,-100,4,2,1,70,0,1
164420,-100,4,2,1,70,0,1
165112,-100,4,2,1,70,0,0
165342,-90.9090909090909,4,2,1,70,0,1
165574,-90.9090909090909,4,2,1,70,0,1
166497,-90.9090909090909,4,2,1,70,0,1
168112,-90.9090909090909,4,2,1,70,0,1
168805,-90.9090909090909,4,2,1,70,0,1
169266,-90.9090909090909,4,2,1,70,0,1
170189,-90.9090909090909,4,2,1,70,0,1
171574,-90.9090909090909,4,2,1,70,0,1
171805,-90.9090909090909,4,2,1,70,0,1
172266,-90.9090909090909,4,2,1,70,0,1
172728,-90.9090909090909,4,2,1,70,0,1
173189,-90.9090909090909,4,2,1,70,0,1
173651,-90.9090909090909,4,2,1,70,0,1
173882,-90.9090909090909,4,2,1,70,0,1
175497,-90.9090909090909,4,2,1,70,0,1
175727,-100,4,2,1,55,0,0
176651,-100,4,2,1,70,0,0
177112,-100,4,2,1,70,0,0
177573,-90.9090909090909,4,2,1,70,0,1
184497,-90.9090909090909,4,2,1,70,0,1
184959,-90.9090909090909,4,2,1,70,0,1
188189,-90.9090909090909,4,2,1,70,0,1
188651,-90.9090909090909,4,2,1,70,0,1
192342,-100,4,2,1,70,0,0
192805,-100,4,2,1,50,0,0
194189,-100,4,2,1,30,0,0
195574,-100,4,2,1,10,0,0

[Colours]
Combo1 : 237,185,154
Combo2 : 214,208,163
Combo3 : 164,164,189

[HitObjects]
298,66,14190,5,2,0:0:0:0:
337,171,14420,1,2,0:0:0:0:
177,243,14651,2,0,L|183:186,1,37.5,10|0,0:0|0:0,0:0:0:0:
25,23,15112,6,0,P|42:67|38:131,1,112.5,6|0,1:0|0:0,0:0:0:0:
24,157,15574,1,8,0:0:0:0:
70,316,15805,1,0,0:0:0:0:
65,295,15920,1,8,0:0:0:0:
71,274,16036,1,2,1:0:0:0:
190,285,16266,1,10,0:0:0:0:
276,356,16497,1,2,0:0:0:0:
267,211,16728,1,6,1:0:0:0:
259,198,17189,5,0,0:0:0:0:
256,182,17305,1,0,0:0:0:0:
258,161,17420,1,10,0:0:0:0:
449,55,17766,2,0,L|438:101,1,37.5,8|2,0:0|1:0,0:0:0:0:
461,209,18112,1,10,0:0:0:0:
386,317,18343,1,10,0:0:0:0:
349,300,18574,1,0,1:0:0:0:
215,322,18805,6,0,P|222:304|208:200,1,112.5,2|0,1:0|0:0,0:0:0:0:
201,192,19266,1,10,0:0:0:0:
88,239,19497,1,0,0:0:0:0:
66,236,19612,1,8,0:0:0:0:
46,228,19728,1,2,1:0:0:0:
83,134,19959,1,10,0:0:0:0:
46,37,20189,1,2,0:0:0:0:
188,62,20420,1,6,1:0:0:0:
209,46,20882,5,2,0:0:0:0:
235,50,20997,1,0,0:0:0:0:
254,62,21112,1,10,0:0:0:0:
211,183,21343,1,2,0:0:0:0:
211,194,21459,1,8,0:0:0:0:
210,206,21574,2,0,P|249:210|287:215,1,75,2|8,1:0|0:0,0:0:0:0:
453,264,22036,2,0,P|414:268|376:273,1,75,10|0,0:0|1:0,0:0:0:0:
433,135,22497,6,0,P|442:115|397:46,1,112.5,2|0,1:0|0:0,0:0:0:0:
374,50,22959,1,10,0:0:0:0:
157,20,23305,2,0,L|160:73,1,37.5,8|2,0:0|1:0,0:0:0:0:
32,88,23651,1,10,0:0:0:0:
90,190,23882,1,2,0:0:0:0:
76,228,24112,1,6,1:0:0:0:
213,339,24574,5,0,0:0:0:0:
203,316,24689,1,0,0:0:0:0:
205,289,24805,1,10,0:0:0:0:
327,118,25151,2,0,P|322:139|322:160,1,37.5,8|2,0:0|1:0,0:0:0:0:
366,249,25497,1,10,0:0:0:0:
478,323,25728,1,10,0:0:0:0:
474,283,25959,1,0,1:0:0:0:
481,112,26189,6,0,L|394:123,1,75,2|2,1:0|1:0,0:0:0:0:
389,106,26536,1,0,0:0:0:0:
374,91,26651,1,10,0:0:0:0:
274,246,26997,2,0,L|280:309,1,37.5,8|2,0:0|1:0,0:0:0:0:
179,317,27343,1,2,1:0:0:0:
50,318,27574,2,0,P|71:283|84:232,1,75,10|2,0:0|1:0,0:0:0:0:
56,106,28035,6,0,L|160:116,1,75,6|2,1:0|0:0,0:0:0:0:
145,105,28382,1,0,0:0:0:0:
161,96,28497,1,10,0:0:0:0:
325,76,28728,2,0,P|323:54|331:19,2,37.5,10|8|10,0:0|0:0|0:0,0:0:0:0:
330,103,29074,1,8,0:0:0:0:
347,133,29189,1,2,3:0:0:0:
370,151,29305,1,0,3:0:0:0:
408,165,29420,2,0,L|400:222,1,37.5,10|8,0:0|0:0,0:0:0:0:
458,268,29651,2,0,L|450:325,1,37.5,2|0,3:0|3:0,0:0:0:0:
326,291,29882,6,0,P|288:273|207:260,1,112.5,14|0,1:0|0:0,0:0:0:0:
186,271,30343,1,10,0:0:0:0:
38,214,30574,1,0,0:0:0:0:
139,152,30805,2,0,L|136:49,1,75,2|10,1:0|0:0,0:0:0:0:
269,25,31266,1,2,0:0:0:0:
361,57,31497,6,0,P|327:104|421:105,1,187.5,6|0,1:0|0:0,0:0:0:0:
442,96,32189,2,0,L|440:190,1,75,10|0,0:0|0:0,0:0:0:0:
458,299,32651,1,2,1:0:0:0:
354,268,32882,1,10,0:0:0:0:
191,301,33112,2,0,P|132:313|86:271,1,112.5,10|0,0:0|0:0,0:0:0:0:
90,255,33574,6,0,L|94:152,1,75,2|0,1:0|0:0,0:0:0:0:
30,79,34036,1,10,0:0:0:0:
175,84,34266,1,0,0:0:0:0:
192,96,34382,1,8,0:0:0:0:
215,103,34497,2,0,P|252:103|291:91,1,75,2|10,1:0|0:0,0:0:0:0:
430,22,34959,1,2,0:0:0:0:
471,106,35189,6,0,L|451:299,1,187.5,6|0,1:0|0:0,0:0:0:0:
434,308,35882,2,0,P|388:300|349:266,1,75,10|0,0:0|0:0,0:0:0:0:
341,257,36228,1,8,0:0:0:0:
341,257,36343,1,2,1:0:0:0:
358,139,36574,1,10,0:0:0:0:
245,55,36805,2,0,P|191:58|126:100,1,112.5,10|0,0:0|0:0,0:0:0:0:
128,102,37266,6,0,L|131:197,1,75,2|0,1:0|0:0,0:0:0:0:
70,274,37728,1,10,0:0:0:0:
219,318,37959,2,0,P|243:321|266:316,1,37.5,0|8,0:0|0:0,0:0:0:0:
290,308,38189,2,0,L|285:206,1,75,2|10,1:0|0:0,0:0:0:0:
274,78,38651,1,2,0:0:0:0:
361,121,38882,6,0,P|388:83|474:161,1,187.5,2|0,1:0|0:0,0:0:0:0:
472,171,39574,2,0,L|459:261,1,75,10|0,0:0|0:0,0:0:0:0:
455,272,39920,1,8,0:0:0:0:
455,273,40036,1,2,1:0:0:0:
331,242,40266,1,10,0:0:0:0:
215,299,40497,2,0,L|222:207,1,75,10|2,0:0|1:0,0:0:0:0:
152,152,40959,6,0,P|90:163|28:167,2,112.5,2|2|0,1:0|0:0|0:0,0:0:0:0:
225,48,41882,2,0,P|246:49|285:98,1,75,2|8,1:0|0:0,0:0:0:0:
377,124,42343,1,0,0:0:0:0:
290,244,42574,1,2,1:0:0:0:
355,326,42805,6,0,L|408:323,1,37.5,10|0,0:0|0:0,0:0:0:0:
197,322,43266,2,0,L|250:319,1,37.5,10|0,0:0|0:0,0:0:0:0:
48,255,43728,2,0,L|126:252,1,75,8|10,0:0|0:0,0:0:0:0:
206,166,44189,2,0,P|186:125|197:82,1,75,2|0,3:0|3:0,0:0:0:0:
206,62,44536,1,0,3:0:0:0:
206,62,44651,6,0,L|312:81,1,75,6|0,1:0|0:0,0:0:0:0:
402,37,45112,1,10,0:0:0:0:
419,145,45343,2,0,P|432:137|464:137,1,37.5,0|8,0:0|0:0,0:0:0:0:
485,139,45574,2,0,L|470:268,1,112.5,2|0,1:0|0:0,0:0:0:0:
469,283,46036,1,10,0:0:0:0:
355,323,46266,1,2,1:0:0:0:
261,267,46497,6,0,P|251:226|271:187,1,75,2|0,1:0|0:0,0:0:0:0:
194,127,46959,2,0,P|205:91|195:56,1,75,10|0,0:0|0:0,0:0:0:0:
172,38,47305,1,8,0:0:0:0:
172,38,47420,1,2,1:0:0:0:
43,58,47651,1,8,0:0:0:0:
87,140,47882,2,0,L|78:224,1,75,10|2,0:0|1:0,0:0:0:0:
21,328,48343,6,0,P|80:312|181:320,1,150,2|10,1:0|0:0,0:0:0:0:
267,253,49036,1,2,0:0:0:0:
292,261,49151,1,8,0:0:0:0:
320,270,49266,2,0,L|333:154,1,112.5,2|0,1:0|0:0,0:0:0:0:
337,126,49728,2,0,P|373:128|421:173,1,75,10|2,0:0|1:0,0:0:0:0:
485,250,50189,5,2,1:0:0:0:
352,333,50420,1,0,0:0:0:0:
357,304,50536,1,0,0:0:0:0:
352,281,50651,1,10,0:0:0:0:
226,249,50882,2,0,L|227:196,1,37.5,0|8,0:0|0:0,0:0:0:0:
229,184,51112,1,2,1:0:0:0:
156,46,51343,1,8,0:0:0:0:
50,70,51574,2,0,P|66:102|83:179,1,112.5,10|0,0:0|0:0,0:0:0:0:
75,205,52036,6,0,L|64:303,1,75,6|0,1:0|0:0,0:0:0:0:
188,338,52497,1,10,0:0:0:0:
265,284,52728,2,0,P|286:278|311:280,1,37.5,0|8,0:0|0:0,0:0:0:0:
336,286,52959,2,0,L|322:187,1,75,2|0,1:0|0:0,0:0:0:0:
226,157,53420,1,10,0:0:0:0:
251,53,53651,1,2,1:0:0:0:
371,47,53882,6,0,P|414:58|457:131,1,112.5,2|0,1:0|0:0,0:0:0:0:
456,144,54343,2,0,L|368:141,1,75,10|2,0:0|0:0,0:0:0:0:
360,160,54689,1,8,0:0:0:0:
360,160,54805,1,0,1:0:0:0:
326,272,55036,1,10,0:0:0:0:
228,243,55266,1,8,0:0:0:0:
74,288,55497,1,2,1:0:0:0:
118,215,55727,6,0,P|115:154|99:74,2,112.5,2|2|0,1:0|0:0|0:0,0:0:0:0:
231,298,56651,2,0,P|281:308|352:326,2,112.5,2|2|0,0:0|0:0|0:0,0:0:0:0:
292,157,57805,5,2,0:0:0:0:
281,60,58036,1,8,0:0:0:0:
379,53,58266,2,0,L|397:11,2,37.5,2|0|8,0:0|0:0|0:0,0:0:0:0:
391,148,58728,1,8,0:0:0:0:
329,278,58959,2,0,P|343:275|374:275,2,37.5,8|8|8,0:0|0:0|0:0,0:0:0:0:
198,319,59420,6,0,P|200:265|210:186,1,123.75000377655,6|0,1:0|0:0,0:0:0:0:
225,152,59882,2,0,L|128:168,1,82.5000025177003,10|2,0:0|0:0,0:0:0:0:
103,168,60228,1,8,0:0:0:0:
103,168,60343,1,2,1:0:0:0:
26,288,60574,1,2,1:0:0:0:
90,344,60805,1,10,0:0:0:0:
220,332,61035,2,0,L|213:227,1,82.5000025177003,2|2,1:0|1:0,0:0:0:0:
189,61,61728,5,10,0:0:0:0:
293,93,61959,1,2,0:0:0:0:
320,84,62074,1,8,0:0:0:0:
349,83,62189,1,2,1:0:0:0:
449,145,62420,1,10,0:0:0:0:
448,248,62651,2,0,P|422:245|362:222,1,82.5000025177003,10|2,0:0|1:0,0:0:0:0:
296,295,63112,6,0,P|244:289|144:311,1,123.75000377655,2|0,1:0|0:0,0:0:0:0:
142,315,63574,2,0,L|148:219,1,82.5000025177003,10|2,0:0|0:0,0:0:0:0:
65,110,64036,1,2,1:0:0:0:
145,41,64266,1,0,1:0:0:0:
286,78,64497,2,0,P|279:56|276:28,2,41.2500012588501,10|0|0,0:0|0:0|1:0,0:0:0:0:
306,99,64843,1,0,0:0:0:0:
331,109,64959,6,0,L|455:99,1,123.75000377655,2|0,1:0|0:0,0:0:0:0:
476,96,65420,1,10,0:0:0:0:
435,261,65651,1,0,0:0:0:0:
432,243,65766,1,8,0:0:0:0:
422,227,65882,2,0,P|379:219|317:226,2,82.5000025177003,2|8|10,1:0|0:0|0:0,0:0:0:0:
317,337,66574,1,0,1:0:0:0:
154,303,66805,6,0,L|166:152,1,123.75000377655,6|0,1:0|0:0,0:0:0:0:
154,158,67266,2,0,P|147:112|178:64,1,82.5000025177003,10|2,0:0|0:0,0:0:0:0:
181,64,67612,1,8,0:0:0:0:
181,64,67728,1,2,1:0:0:0:
40,51,67959,1,2,1:0:0:0:
58,134,68189,1,10,0:0:0:0:
8,257,68419,2,0,L|-2:354,1,82.5000025177003,2|2,1:0|1:0,0:0:0:0:
215,333,68997,5,0,0:0:0:0:
215,333,69112,2,0,P|193:297|200:236,1,82.5000025177003,10|2,0:0|0:0,0:0:0:0:
316,187,69574,2,0,P|314:227|292:262,2,82.5000025177003,2|10|10,1:0|0:0|0:0,0:0:0:0:
245,112,70266,1,2,1:0:0:0:
188,28,70497,6,0,P|243:17|328:19,1,123.75000377655,2|0,1:0|0:0,0:0:0:0:
342,24,70959,1,10,0:0:0:0:
470,122,71189,1,2,0:0:0:0:
448,116,71305,1,8,0:0:0:0:
424,122,71420,2,0,L|432:218,1,82.5000025177003,2|2,1:0|1:0,0:0:0:0:
449,317,71882,1,10,0:0:0:0:
332,271,72112,1,0,0:0:0:0:
181,310,72343,6,0,P|131:291|14:279,2,165.000005035401,2|10|2,1:0|0:0|1:0,0:0:0:0:
183,211,73497,1,8,0:0:0:0:
108,112,73728,2,0,L|149:113,1,41.2500012588501,2|0,3:0|3:0,0:0:0:0:
197,46,73959,2,0,L|238:47,1,41.2500012588501,0|0,3:0|3:0,0:0:0:0:
296,106,74189,6,0,P|338:65|406:39,1,123.75000377655,6|0,1:0|0:0,0:0:0:0:
426,37,74651,2,0,L|415:126,1,82.5000025177003,10|2,0:0|0:0,0:0:0:0:
427,153,74996,1,8,0:0:0:0:
427,153,75112,1,2,1:0:0:0:
389,247,75343,1,2,1:0:0:0:
452,343,75574,1,10,0:0:0:0:
307,305,75804,2,0,P|259:296|208:290,1,82.5000025177003,2|2,1:0|1:0,0:0:0:0:
41,323,76497,5,10,0:0:0:0:
102,214,76728,2,0,P|91:191|94:152,2,41.2500012588501,2|8|2,0:0|0:0|1:0,0:0:0:0:
186,247,77189,1,10,0:0:0:0:
282,215,77420,1,10,0:0:0:0:
346,76,77651,1,2,1:0:0:0:
172,18,77882,6,0,L|182:153,1,123.75000377655,2|0,1:0|0:0,0:0:0:0:
151,154,78343,1,10,0:0:0:0:
50,299,78574,1,2,0:0:0:0:
41,271,78689,1,8,0:0:0:0:
49,241,78805,2,0,P|67:238|139:263,1,82.5000025177003,2|2,1:0|1:0,0:0:0:0:
245,210,79266,2,0,P|263:213|335:188,1,82.5000025177003,10|0,0:0|1:0,0:0:0:0:
434,82,79728,6,0,L|266:66,2,165.000005035401,2|10|2,1:0|0:0|1:0,0:0:0:0:
475,226,80882,1,8,0:0:0:0:
391,304,81112,2,0,P|359:292|338:290,1,41.2500012588501,10|0,0:0|0:0,0:0:0:0:
310,211,81343,2,0,P|282:190|262:182,1,41.2500012588501,0|0,1:0|0:0,0:0:0:0:
186,157,81574,6,0,P|205:121|117:56,1,150,4|2,1:0|0:0,0:0:0:0:
36,99,82266,1,0,0:0:0:0:
79,192,82497,2,0,L|70:287,1,75,2|2,0:0|1:0,0:0:0:0:
128,348,82959,1,2,0:0:0:0:
165,326,83189,1,2,1:0:0:0:
308,336,83420,6,0,L|301:201,1,112.5,2|0,1:0|0:0,0:0:0:0:
301,192,83882,2,0,P|335:194|401:223,1,75,2|2,0:0|0:0,0:0:0:0:
416,116,84342,2,0,P|471:109|526:82,2,112.5,2|0|2,0:0|0:0|1:0,0:0:0:0:
318,62,85266,5,2,1:0:0:0:
193,29,85497,2,0,L|202:127,1,75,2|0,0:0|0:0,0:0:0:0:
51,123,85959,2,0,P|65:158|89:281,1,150,2|2,0:0|1:0,0:0:0:0:
161,345,86651,1,0,0:0:0:0:
193,228,86882,6,0,L|365:242,1,150,2|2,0:0|0:0,0:0:0:0:
325,328,87574,1,0,0:0:0:0:
438,267,87805,1,2,0:0:0:0:
444,146,88036,2,0,P|468:141|498:124,2,37.5,2|0|2,3:0|3:0|3:0,0:0:0:0:
417,144,88382,1,0,3:0:0:0:
385,128,88497,2,0,L|391:85,1,37.5,2|0,3:0|0:0,0:0:0:0:
309,70,88728,2,0,L|315:27,1,37.5,2|0,3:0|0:0,0:0:0:0:
227,41,88959,6,0,P|182:88|160:188,1,150,6|2,1:0|0:0,0:0:0:0:
33,105,89651,1,2,0:0:0:0:
36,265,89882,2,0,P|55:262|46:207,1,75,2|2,0:0|1:0,0:0:0:0:
168,318,90343,1,2,0:0:0:0:
161,275,90574,1,2,1:0:0:0:
268,220,90805,6,0,L|282:100,1,112.5,2|0,1:0|0:0,0:0:0:0:
299,93,91266,2,0,P|340:124|372:168,1,75,2|2,0:0|0:0,0:0:0:0:
411,252,91728,2,0,P|469:226|531:209,2,112.5,2|0|2,0:0|0:0|1:0,0:0:0:0:
327,314,92651,5,2,1:0:0:0:
231,287,92882,1,2,0:0:0:0:
214,267,92997,2,0,P|212:248|219:209,1,37.5,0|2,0:0|0:0,0:0:0:0:
258,135,93343,1,2,0:0:0:0:
150,57,93574,2,0,L|155:149,1,75,2|2,0:0|1:0,0:0:0:0:
62,190,94036,2,0,L|57:264,1,75,2|2,0:0|1:0,0:0:0:0:
140,334,94497,5,6,1:0:0:0:
263,291,94728,2,0,P|277:295|308:310,2,37.5,2|8|10,0:0|0:0|0:0,0:0:0:0:
224,199,95189,1,10,0:0:0:0:
215,167,95305,1,8,0:0:0:0:
219,125,95420,1,10,0:0:0:0:
242,95,95536,1,8,0:0:0:0:
273,83,95651,2,0,L|272:21,3,37.5,2|0|10|8,3:0|3:0|0:0|0:0,0:0:0:0:
366,75,96112,2,0,P|387:74|410:68,1,37.5,2|0,3:0|3:0,0:0:0:0:
484,201,96343,6,0,L|352:190,1,112.5,6|0,1:0|0:0,0:0:0:0:
349,212,96805,1,10,0:0:0:0:
309,355,97036,1,0,0:0:0:0:
304,337,97151,1,8,0:0:0:0:
301,317,97266,2,0,P|345:306|387:302,1,75,2|10,1:0|0:0,0:0:0:0:
487,333,97728,1,2,0:0:0:0:
437,197,97959,6,0,P|455:157|463:37,1,150,6|2,1:0|0:0,0:0:0:0:
346,94,98651,1,10,0:0:0:0:
244,55,98882,2,0,L|245:11,2,37.5,0|8|2,0:0|0:0|1:0,0:0:0:0:
241,151,99343,1,10,0:0:0:0:
68,174,99574,2,0,P|85:170|118:223,1,75,10|2,0:0|1:0,0:0:0:0:
48,314,100036,6,0,L|174:300,1,112.5,2|0,1:0|0:0,0:0:0:0:
184,313,100497,1,10,0:0:0:0:
278,253,100728,2,0,P|268:230|268:207,1,37.5,0|8,0:0|0:0,0:0:0:0:
274,186,100959,1,2,1:0:0:0:
334,101,101189,1,10,0:0:0:0:
454,129,101420,1,2,0:0:0:0:
498,258,101651,6,0,P|448:260|328:303,1,150,6|2,1:0|0:0,0:0:0:0:
341,312,102228,1,0,0:0:0:0:
341,312,102343,1,10,0:0:0:0:
303,154,102574,1,0,0:0:0:0:
279,174,102689,1,8,0:0:0:0:
246,180,102805,2,0,P|198:170|158:153,2,75,2|10|10,1:0|0:0|0:0,0:0:0:0:
218,57,103497,1,2,1:0:0:0:
59,58,103728,6,0,L|66:187,1,112.5,2|0,1:0|0:0,0:0:0:0:
66,199,104189,1,10,0:0:0:0:
153,276,104420,1,0,0:0:0:0:
174,283,104536,1,8,0:0:0:0:
192,293,104651,2,0,P|229:282|298:289,1,75,2|10,1:0|0:0,0:0:0:0:
358,303,105112,1,2,0:0:0:0:
463,188,105343,6,0,P|411:213|355:146,1,150,2|0,1:0|0:0,0:0:0:0:
298,51,106036,1,10,0:0:0:0:
161,94,106266,2,0,L|171:146,1,37.5,0|8,0:0|0:0,0:0:0:0:
173,162,106497,1,2,1:0:0:0:
262,204,106728,1,10,0:0:0:0:
305,292,106959,1,10,0:0:0:0:
166,344,107189,1,2,1:0:0:0:
36,328,107420,6,0,P|23:277|27:192,1,112.5,2|0,1:0|0:0,0:0:0:0:
41,187,107882,1,10,0:0:0:0:
170,127,108112,2,0,P|177:148|178:172,1,37.5,0|8,0:0|0:0,0:0:0:0:
175,192,108343,1,2,1:0:0:0:
268,261,108574,1,8,0:0:0:0:
409,289,108805,2,0,P|370:269|381:243,1,75,2|2,0:0|1:0,0:0:0:0:
418,143,109266,6,0,P|435:136|461:138,1,37.5,10|0,0:0|0:0,0:0:0:0:
263,71,109728,2,0,P|281:72|303:85,1,37.5,10|0,0:0|0:0,0:0:0:0:
109,38,110189,2,0,L|113:94,1,37.5,8|0,0:0|0:0,0:0:0:0:
47,133,110420,2,0,L|51:189,1,37.5,10|0,0:0|0:0,0:0:0:0:
62,192,110651,1,2,3:0:0:0:
81,203,110766,1,0,3:0:0:0:
105,201,110882,1,0,3:0:0:0:
126,190,110997,1,0,3:0:0:0:
145,175,111112,6,0,P|142:223|202:282,1,112.5,6|0,1:0|0:0,0:0:0:0:
203,284,111574,1,10,0:0:0:0:
354,187,111920,1,8,0:0:0:0:
354,187,112036,2,0,P|358:225|377:270,1,75,2|0,1:0|1:0,0:0:0:0:
439,328,112497,1,10,0:0:0:0:
503,218,112728,1,2,1:0:0:0:
452,98,112958,6,0,L|349:108,1,75,2|0,1:0|0:0,0:0:0:0:
292,54,113420,1,10,0:0:0:0:
181,67,113651,2,0,L|190:130,1,37.5,0|8,0:0|0:0,0:0:0:0:
194,134,113882,1,2,1:0:0:0:
195,232,114112,1,8,0:0:0:0:
132,312,114343,2,0,P|79:301|37:295,1,75,10|2,0:0|1:0,0:0:0:0:
22,190,114805,6,0,P|77:182|94:144,1,75,2|0,1:0|0:0,0:0:0:0:
91,142,115151,1,0,0:0:0:0:
91,142,115266,1,10,0:0:0:0:
230,47,115497,1,0,0:0:0:0:
211,72,115612,1,8,0:0:0:0:
206,102,115728,2,0,L|292:93,1,75,2|0,1:0|1:0,0:0:0:0:
388,78,116189,1,10,0:0:0:0:
361,200,116420,6,0,P|426:208|514:242,1,150,2|0,1:0|0:0,0:0:0:0:
494,269,116997,1,0,0:0:0:0:
494,269,117112,1,10,0:0:0:0:
342,343,117343,2,0,P|351:325|347:299,1,37.5,0|8,0:0|0:0,0:0:0:0:
341,286,117574,1,2,1:0:0:0:
240,322,117805,1,8,0:0:0:0:
228,226,118036,1,10,0:0:0:0:
126,129,118266,1,0,1:0:0:0:
24,191,118497,6,0,P|36:243|46:313,1,112.5,6|0,1:0|0:0,0:0:0:0:
50,330,118959,1,10,0:0:0:0:
166,295,119189,1,0,0:0:0:0:
200,307,119305,1,8,0:0:0:0:
223,327,119420,2,0,L|315:326,1,75,2|0,1:0|0:0,0:0:0:0:
411,313,119882,1,10,0:0:0:0:
356,224,120112,1,2,1:0:0:0:
430,102,120343,6,0,P|375:92|288:92,1,112.5,2|0,1:0|0:0,0:0:0:0:
289,101,120805,1,10,0:0:0:0:
147,63,121036,2,0,P|156:79|152:110,1,37.5,0|8,0:0|0:0,0:0:0:0:
148,120,121266,1,0,1:0:0:0:
35,144,121497,1,10,0:0:0:0:
91,264,121728,2,0,P|81:269|51:298,2,37.5,8|0|2,0:0|0:0|1:0,0:0:0:0:
229,288,122189,6,0,P|304:300|394:319,2,150,2|2|2,1:0|0:0|0:0,0:0:0:0:
266,203,123343,1,2,0:0:0:0:
232,120,123574,1,2,0:0:0:0:
71,42,124266,5,2,0:0:0:0:
132,117,124497,1,8,0:0:0:0:
109,216,124728,2,0,P|76:207|54:206,2,37.5,2|8|8,0:0|0:0|0:0,0:0:0:0:
186,268,125189,1,8,0:0:0:0:
315,271,125419,2,0,L|311:319,2,37.5,8|8|8,0:0|0:0|0:0,0:0:0:0:
448,173,125882,6,0,P|377:157|378:94,1,123.75000377655,6|0,1:0|0:0,0:0:0:0:
383,83,126342,2,0,L|286:99,1,82.5000025177003,10|2,0:0|0:0,0:0:0:0:
268,85,126689,1,8,0:0:0:0:
268,85,126805,1,2,1:0:0:0:
157,38,127036,1,2,1:0:0:0:
172,159,127267,1,10,0:0:0:0:
64,197,127496,2,0,P|55:236|60:287,1,82.5000025177003,2|6,1:0|1:0,0:0:0:0:
240,348,128190,5,10,0:0:0:0:
335,255,128420,1,2,0:0:0:0:
312,249,128536,1,8,0:0:0:0:
296,237,128651,1,2,1:0:0:0:
301,92,128882,1,10,0:0:0:0:
436,62,129112,2,0,L|427:161,1,82.5000025177003,10|2,0:0|1:0,0:0:0:0:
496,297,129574,6,0,P|457:271|410:332,1,123.75000377655,2|0,1:0|0:0,0:0:0:0:
406,339,130036,2,0,P|361:323|302:314,1,82.5000025177003,10|2,0:0|0:0,0:0:0:0:
207,323,130496,1,2,1:0:0:0:
294,211,130728,1,0,1:0:0:0:
204,93,130959,2,0,P|210:71|213:38,2,41.2500012588501,10|0|0,0:0|0:0|1:0,0:0:0:0:
181,109,131305,1,0,0:0:0:0:
150,108,131420,6,0,P|63:93|9:94,1,123.75000377655,2|0,1:0|0:0,0:0:0:0:
4,111,131882,1,10,0:0:0:0:
71,273,132112,1,0,0:0:0:0:
58,250,132228,1,8,0:0:0:0:
65,225,132343,2,0,L|176:228,2,82.5000025177003,2|8|10,1:0|0:0|0:0,0:0:0:0:
141,357,133036,1,0,1:0:0:0:
305,323,133266,6,0,P|288:269|290:186,1,123.75000377655,6|0,1:0|0:0,0:0:0:0:
291,172,133728,2,0,L|403:194,1,82.5000025177003,10|2,0:0|0:0,0:0:0:0:
401,198,134074,1,8,0:0:0:0:
401,198,134190,1,2,1:0:0:0:
512,247,134419,1,2,1:0:0:0:
491,102,134651,1,10,0:0:0:0:
399,12,134882,2,0,P|342:26|280:33,1,82.5000025177003,2|2,1:0|1:0,0:0:0:0:
123,65,135459,5,0,0:0:0:0:
123,65,135574,2,0,L|32:61,1,82.5000025177003,10|2,0:0|0:0,0:0:0:0:
163,157,136036,2,0,L|254:153,2,82.5000025177003,2|10|10,1:0|0:0|0:0,0:0:0:0:
51,215,136728,1,2,1:0:0:0:
155,313,136959,6,0,P|203:318|297:335,1,123.75000377655,2|0,1:0|0:0,0:0:0:0:
305,340,137419,1,10,0:0:0:0:
408,254,137651,1,2,0:0:0:0:
386,240,137766,1,8,0:0:0:0:
377,212,137882,2,0,P|380:182|419:130,1,82.5000025177003,2|2,1:0|1:0,0:0:0:0:
505,85,138343,1,10,0:0:0:0:
488,245,138573,1,0,1:0:0:0:
388,319,138805,6,0,P|318:302|219:293,2,165.000005035401,2|10|2,1:0|0:0|1:0,0:0:0:0:
361,230,139959,1,8,0:0:0:0:
242,121,140189,2,0,P|243:142|241:163,1,41.2500012588501,2|0,3:0|3:0,0:0:0:0:
164,206,140420,2,0,P|162:226|165:247,1,41.2500012588501,0|0,3:0|3:0,0:0:0:0:
184,332,140651,6,0,L|29:323,1,123.75000377655,6|0,1:0|0:0,0:0:0:0:
28,318,141112,2,0,P|16:287|23:216,1,82.5000025177003,10|2,0:0|0:0,0:0:0:0:
30,208,141458,1,8,0:0:0:0:
30,208,141574,1,2,1:0:0:0:
116,137,141805,1,2,1:0:0:0:
200,211,142036,1,10,0:0:0:0:
327,269,142266,2,0,L|319:154,1,82.5000025177003,2|2,1:0|1:0,0:0:0:0:
475,47,142959,5,10,0:0:0:0:
445,147,143189,2,0,P|451:141|489:142,2,41.2500012588501,2|8|2,0:0|0:0|1:0,0:0:0:0:
368,221,143651,1,10,0:0:0:0:
382,321,143882,1,10,0:0:0:0:
237,248,144113,1,2,1:0:0:0:
73,320,144343,6,0,P|86:262|56:178,1,123.75000377655,2|0,1:0|0:0,0:0:0:0:
55,179,144805,1,10,0:0:0:0:
207,65,145036,1,2,0:0:0:0:
183,46,145151,1,8,0:0:0:0:
152,44,145266,2,0,L|156:157,1,82.5000025177003,2|2,1:0|1:0,0:0:0:0:
231,229,145728,2,0,P|249:232|321:207,1,82.5000025177003,10|0,0:0|1:0,0:0:0:0:
328,88,146189,6,0,P|403:91|473:22,2,165.000005035401,2|10|2,1:0|0:0|1:0,0:0:0:0:
405,184,147342,1,8,0:0:0:0:
369,290,147574,2,0,L|371:332,1,41.2500012588501,10|0,0:0|0:0,0:0:0:0:
283,309,147805,2,0,L|278:251,1,41.2500012588501,0|0,1:0|0:0,0:0:0:0:
306,185,148036,6,0,P|330:147|313:36,1,150,4|2,1:0|0:0,0:0:0:0:
225,77,148728,1,0,0:0:0:0:
134,43,148959,2,0,P|96:34|34:41,1,75,2|2,0:0|1:0,0:0:0:0:
99,169,149419,1,2,0:0:0:0:
82,210,149651,1,2,1:0:0:0:
199,318,149882,6,0,P|187:284|198:204,1,112.5,2|0,1:0|0:0,0:0:0:0:
212,188,150343,2,0,P|248:184|266:227,1,75,2|2,0:0|0:0,0:0:0:0:
401,292,150805,2,0,L|381:155,2,112.5,2|0|2,0:0|0:0|1:0,0:0:0:0:
509,305,151728,5,2,1:0:0:0:
495,136,151959,2,0,P|474:132|465:81,1,75,2|0,0:0|0:0,0:0:0:0:
353,121,152420,2,0,L|200:96,1,150,2|2,0:0|1:0,0:0:0:0:
181,8,153113,1,0,0:0:0:0:
64,40,153343,6,0,P|78:80|72:200,1,150,2|2,0:0|0:0,0:0:0:0:
28,267,154036,1,0,0:0:0:0:
142,313,154267,1,2,0:0:0:0:
264,306,154497,2,0,L|269:369,2,37.5,2|0|2,3:0|3:0|3:0,0:0:0:0:
269,276,154842,1,0,3:0:0:0:
299,257,154959,2,0,P|319:258|353:264,1,37.5,2|0,3:0|0:0,0:0:0:0:
414,188,155189,2,0,P|395:187|360:181,1,37.5,2|0,3:0|0:0,0:0:0:0:
317,106,155420,6,0,P|272:132|174:128,1,150,6|2,1:0|0:0,0:0:0:0:
173,255,156112,1,2,0:0:0:0:
65,282,156343,2,0,L|57:181,1,75,2|2,0:0|1:0,0:0:0:0:
30,88,156805,1,2,0:0:0:0:
71,91,157036,1,2,1:0:0:0:
202,28,157266,6,0,L|323:47,1,112.5,2|0,1:0|0:0,0:0:0:0:
330,52,157728,2,0,P|311:95|322:151,1,75,2|2,0:0|0:0,0:0:0:0:
393,231,158189,2,0,P|446:243|523:244,2,112.5,2|0|2,0:0|0:0|1:0,0:0:0:0:
336,295,159112,5,2,1:0:0:0:
161,351,159343,1,2,0:0:0:0:
180,344,159459,1,0,0:0:0:0:
205,339,159574,2,0,L|212:249,1,75,2|2,0:0|0:0,0:0:0:0:
280,157,160036,2,0,P|275:147|194:126,1,75,2|2,0:0|1:0,0:0:0:0:
73,224,160497,2,0,P|78:214|159:193,1,75,2|2,0:0|1:0,0:0:0:0:
276,255,160959,5,6,1:0:0:0:
423,145,161882,2,0,L|423:183,1,37.5,2|0,0:0|0:0,0:0:0:0:
336,203,162112,2,0,L|346:240,1,37.5,2|0,0:0|0:0,0:0:0:0:
254,253,162343,2,0,P|238:213|151:180,1,112.5,2|0,0:0|0:0,0:0:0:0:
148,170,162805,6,0,L|149:263,1,75,6|0,1:0|0:0,0:0:0:0:
122,266,163151,1,0,0:0:0:0:
122,266,163266,1,10,0:0:0:0:
247,345,163497,2,0,P|261:335|296:328,1,37.5,2|8,0:0|0:0,0:0:0:0:
311,331,163728,1,2,1:0:0:0:
425,362,163959,1,10,0:0:0:0:
491,276,164189,1,2,0:0:0:0:
468,144,164420,6,0,P|413:183|327:151,1,150,6|0,1:0|0:0,0:0:0:0:
316,142,164997,1,0,0:0:0:0:
316,142,165112,1,10,0:0:0:0:
193,42,165343,2,0,P|196:61|194:88,1,41.2500012588501,2|10,0:0|0:0,0:0:0:0:
185,108,165574,1,2,1:0:0:0:
83,88,165805,1,10,0:0:0:0:
128,201,166036,1,10,0:0:0:0:
41,325,166266,1,2,1:0:0:0:
183,304,166497,6,0,L|300:313,1,82.5000025177003,2|0,1:0|0:0,0:0:0:0:
300,324,166843,1,0,0:0:0:0:
300,324,166959,1,10,0:0:0:0:
294,210,167189,2,0,L|292:158,1,41.2500012588501,2|8,0:0|0:0,0:0:0:0:
292,135,167420,1,2,1:0:0:0:
229,52,167651,1,10,0:0:0:0:
370,26,167882,1,2,0:0:0:0:
471,69,168112,6,0,L|462:239,1,165.000005035401,2|0,1:0|0:0,0:0:0:0:
464,271,168689,1,0,0:0:0:0:
464,271,168805,1,10,0:0:0:0:
313,320,169151,1,8,0:0:0:0:
313,320,169266,2,0,P|280:295|238:289,1,82.5000025177003,2|10,1:0|0:0,0:0:0:0:
108,239,169728,2,0,P|141:214|183:208,1,82.5000025177003,10|2,0:0|1:0,0:0:0:0:
271,153,170189,6,0,L|279:20,1,123.75000377655,2|0,1:0|0:0,0:0:0:0:
261,7,170651,2,0,P|207:17|150:40,1,82.5000025177003,10|2,0:0|0:0,0:0:0:0:
153,42,170997,1,8,0:0:0:0:
153,42,171112,1,2,1:0:0:0:
36,36,171343,1,10,0:0:0:0:
100,148,171574,1,2,0:0:0:0:
26,264,171805,6,0,P|72:275|190:313,1,165.000005035401,2|2,1:0|0:0,0:0:0:0:
211,330,172382,1,0,0:0:0:0:
211,330,172496,1,10,0:0:0:0:
323,298,172727,2,0,P|337:303|379:308,2,41.2500012588501,2|0|2,0:0|0:0|1:0,0:0:0:0:
247,232,173189,1,10,0:0:0:0:
222,121,173420,1,10,0:0:0:0:
361,32,173651,1,2,1:0:0:0:
449,85,173882,6,0,L|444:181,1,82.5000025177003,2|0,1:0|0:0,0:0:0:0:
429,197,174228,1,0,0:0:0:0:
429,197,174343,1,10,0:0:0:0:
355,272,174574,2,0,P|335:265|309:263,1,41.2500012588501,2|8,0:0|0:0,0:0:0:0:
285,269,174805,1,0,1:0:0:0:
283,162,175036,1,10,0:0:0:0:
216,58,175266,2,0,L|109:74,1,82.5000025177003,0|0,0:0|1:0,0:0:0:0:
0,96,175728,5,10,0:0:0:0:
16,152,176189,1,10,0:0:0:0:
33,205,176651,2,0,P|61:208|79:219,1,37.5,10|0,0:0|0:0,0:0:0:0:
133,284,176882,2,0,P|150:277|169:277,1,37.5,10|0,0:0|0:0,0:0:0:0:
199,282,177112,1,2,3:0:0:0:
222,289,177228,1,0,3:0:0:0:
244,307,177343,1,0,3:0:0:0:
259,330,177459,1,0,3:0:0:0:
273,353,177574,6,0,P|259:299|299:231,1,123.75000377655,6|0,1:0|0:0,0:0:0:0:
307,224,178036,1,10,0:0:0:0:
459,264,178266,2,0,P|451:241|453:208,1,41.2500012588501,2|8,0:0|0:0,0:0:0:0:
455,194,178497,1,2,1:0:0:0:
504,90,178728,1,2,1:0:0:0:
375,39,178959,2,0,P|343:44|282:51,1,82.5000025177003,8|2,0:0|1:0,0:0:0:0:
181,34,179420,5,2,1:0:0:0:
251,160,179651,2,0,L|244:208,2,41.2500012588501,2|0|8,0:0|0:0|0:0,0:0:0:0:
133,187,180112,1,2,0:0:0:0:
105,166,180228,1,8,0:0:0:0:
77,166,180343,2,0,L|81:254,1,82.5000025177003,2|10,1:0|0:0,0:0:0:0:
169,343,180805,2,0,L|173:255,1,82.5000025177003,10|2,0:0|1:0,0:0:0:0:
304,298,181266,6,0,P|347:273|329:164,1,165.000005035401,2|10,1:0|0:0,0:0:0:0:
220,133,181959,2,0,L|225:71,1,41.2500012588501,2|8,0:0|0:0,0:0:0:0:
228,63,182189,1,2,1:0:0:0:
342,21,182420,1,0,1:0:0:0:
451,54,182651,2,0,P|439:98|442:162,1,82.5000025177003,10|2,0:0|1:0,0:0:0:0:
481,248,183112,5,2,1:0:0:0:
361,312,183343,2,0,P|385:315|409:324,2,41.2500012588501,2|0|10,0:0|0:0|0:0,0:0:0:0:
217,337,183805,1,2,0:0:0:0:
236,315,183920,1,0,0:0:0:0:
245,286,184036,2,0,P|249:257|223:198,1,82.5000025177003,2|8,1:0|0:0,0:0:0:0:
154,125,184497,1,10,0:0:0:0:
15,122,184728,1,0,1:0:0:0:
24,248,184959,6,0,P|59:135|93:74,1,165.000005035401,6|8,1:0|0:0,0:0:0:0:
208,34,185651,2,0,P|206:55|216:85,1,41.2500012588501,2|8,0:0|0:0,0:0:0:0:
227,98,185882,1,2,1:0:0:0:
318,142,186112,1,0,1:0:0:0:
436,110,186343,2,0,L|425:204,1,82.5000025177003,10|0,0:0|1:0,0:0:0:0:
415,330,186805,5,2,1:0:0:0:
293,294,187036,2,0,P|266:286|224:283,1,41.2500012588501
223,289,187266,1,10,0:0:0:0:
47,341,187612,1,8,0:0:0:0:
47,341,187728,2,0,L|65:238,1,82.5000025177003,2|10,1:0|0:0,0:0:0:0:
146,185,188189,2,0,L|131:103,1,82.5000025177003,10|0,0:0|1:0,0:0:0:0:
260,23,188651,6,0,P|311:45|364:166,1,165.000005035401,6|8,1:0|0:0,0:0:0:0:
274,204,189343,2,0,L|279:275,1,41.2500012588501,2|8,0:0|0:0,0:0:0:0:
280,279,189574,1,2,1:0:0:0:
355,333,189805,1,0,1:0:0:0:
479,306,190036,2,0,P|462:267|449:216,1,82.5000025177003,10|0,0:0|1:0,0:0:0:0:
387,94,190497,6,0,P|375:133|359:171,1,82.5000025177003,2|0,1:0|0:0,0:0:0:0:
246,275,190959,2,0,P|253:290|258:318,2,41.2500012588501,8|8|0,0:0|0:0|3:0,0:0:0:0:
213,248,191305,1,0,3:0:0:0:
183,235,191420,2,0,L|140:257,2,41.2500012588501,8|8|0,0:0|0:0|3:0,0:0:0:0:
171,210,191766,1,0,3:0:0:0:
164,187,191882,1,0,1:0:0:0:
322,97,192112,1,0,1:0:0:0:
256,198,192343,5,6,1:0:0:0:
256,192,192459,12,0,196036,0:0:0:0:
