osu file format v14

[General]
AudioFilename: audio.mp3
AudioLeadIn: 0
PreviewTime: 75646
Countdown: 0
SampleSet: Normal
StackLeniency: 0.7
Mode: 0
LetterboxInBreaks: 0
WidescreenStoryboard: 1

[Editor]
Bookmarks: 12357,33933,55506,66292,77079,98652,118874
DistanceSpacing: 1
BeatDivisor: 4
GridSize: 32
TimelineZoom: 2.5

[Metadata]
Title:Hentacito
TitleUnicode:Hentacito
Artist:DaymanOurSavior
ArtistUnicode:DaymanOurSavior
Creator:Kiyoflame
Version:remapped
Source:
Tags:despacito, s3rl
BeatmapID:2054585
BeatmapSetID:801194

[Difficulty]
HPDrainRate:0
CircleSize:4.2
OverallDifficulty:8
ApproachRate:9.4
SliderMultiplier:2
SliderTickRate:1

[Events]
//Background and Video events
0,0,"aa.jpg",0,0
//Break Periods
//Storyboard Layer 0 (Background)
//Storyboard Layer 1 (Fail)
//Storyboard Layer 2 (Pass)
//Storyboard Layer 3 (Foreground)
//Storyboard Sound Samples

[TimingPoints]
12360,337.078651685393,4,1,0,80,1,0
12360,-133.333333333333,4,1,0,80,0,0
27528,-40,4,1,0,80,0,0
28202,-133.333333333333,4,1,0,80,0,0
33933,-100,4,1,0,80,0,0
38904,-100,4,1,0,5,0,0
38989,-100,4,1,0,80,0,0
39242,-100,4,1,0,5,0,0
39326,-100,4,1,0,80,0,0
48848,-100,4,1,0,5,0,0
48933,-100,4,1,0,80,0,0
55506,-66.6666666666667,4,1,0,80,0,0
67135,-33.3333333333333,4,1,0,80,0,0
67977,-25,4,1,0,80,0,0
69494,-25,4,1,0,80,0,0
70000,168.539325842697,4,1,0,80,1,0
70000,-33.3333333333333,4,1,0,80,0,0
70505,168.539325842697,4,1,0,80,1,0
70505,-28.5714285714286,4,1,0,80,0,0
70926,-36.3636363636364,4,1,0,80,0,0
71684,-25,4,1,0,80,0,0
72864,84.2696629213483,4,1,0,80,1,0
72864,-40,4,1,0,80,0,0
74380,168.539325842697,4,1,0,80,1,0
74548,-42.5531914893617,4,1,0,80,0,0
75728,168.539325842697,4,1,0,80,1,0
75728,-31.25,4,1,0,80,0,0
76402,-42.5531914893617,4,1,0,80,0,0
77079,168.539325842697,4,1,0,80,1,0
77079,-39.2156862745098,4,1,0,80,0,0
77753,337.078651685393,4,1,0,80,1,0
78427,337.078651685393,4,1,0,80,1,0
85337,-111.111111111111,4,1,0,80,0,0
86516,168.539325842697,4,1,0,80,1,0
86516,-31.25,4,1,0,80,0,0
87190,-42.5531914893617,4,1,0,80,0,0
87864,-39.2156862745098,4,1,0,80,0,0
88538,337.078651685393,4,1,0,80,1,0
89212,337.078651685393,4,1,0,80,1,0
97976,-133.333333333333,4,1,0,80,0,0
98650,-100,4,1,0,80,0,0
114998,-66.6666666666667,4,1,0,80,0,0
116178,-100,4,1,0,80,0,0
117695,-57.1428571428571,4,1,0,80,0,0
118874,-100,4,1,0,80,0,0
119380,-200,4,1,0,80,0,0

[HitObjects]
42,173,12359,6,0,P|58:225|186:278,1,200
282,165,13034,2,0,L|331:86,1,75.0000028610231
376,172,13371,2,0,L|336:235,1,75.0000028610231
242,353,13708,6,0,P|171:281|154:215,1,150.000005722046
119,90,14382,6,0,L|27:119,1,75.0000028610231
144,169,14719,2,0,L|215:146,1,75.0000028610231
363,117,15056,6,0,P|367:226|326:282,1,150.000005722046
251,315,15562,1,0,0:0:0:0:
164,243,15730,6,0,L|137:163,1,75.0000028610231
193,72,16067,2,0,L|216:143,1,75.0000028610231
305,213,16404,6,0,P|410:219|463:184,1,150.000005722046
417,89,16910,1,0,0:0:0:0:
322,27,17079,6,0,L|270:100,1,75.0000028610231
167,106,17416,2,0,L|210:44,1,75.0000028610231
99,23,17753,6,0,P|45:84|55:163,1,150.000005722046
45,373,18427,6,0,L|12:304,1,75.0000028610231
76,212,18764,2,0,L|108:279,1,75.0000028610231
184,363,19101,6,0,P|299:371|360:355,1,150.000005722046
462,181,19775,6,0,L|502:117,4,75.0000028610231
198,196,20955,1,0,0:0:0:0:
50,181,21124,6,0,L|10:117,4,75.0000028610231
418,294,22303,1,0,0:0:0:0:
401,182,22472,2,0,P|367:144|314:127,1,75.0000028610231
266,213,22809,2,0,P|300:251|353:268,1,75.0000028610231
477,233,23146,6,0,P|484:163|424:70,1,150.000005722046
152,57,23820,2,0,P|122:37|77:33,1,75.0000028610231
90,144,24157,2,0,P|120:164|165:168,1,75.0000028610231
239,90,24494,6,0,P|263:147|228:259,1,150.000005722046
156,297,25000,1,0,0:0:0:0:
55,246,25168,6,0,P|16:221|0:184,1,75.0000028610231
90,123,25506,2,0,P|129:148|145:185,1,75.0000028610231
151,284,25843,6,0,L|315:329,1,150.000005722046
443,348,26517,6,0,P|489:345|521:321,1,75.0000028610231
474,223,26855,2,0,P|427:225|395:249,1,75.0000028610231
313,339,27191,5,0,0:0:0:0:
213,272,27528,6,2,B|150:163|150:163|126:174|144:135|144:135|185:145|161:158|161:158|219:267|219:267|248:250|266:267|254:293|237:289|222:277|222:277|223:296|215:313|186:318|178:291|213:272,1,500,6|6,0:0|0:0,0:0:0:0:
56,153,28202,5,0,0:0:0:0:
32,124,28286,1,0,0:0:0:0:
23,87,28371,1,0,0:0:0:0:
65,25,28539,6,0,P|226:65|297:175,1,300.000011444092
158,253,29551,2,0,P|176:212|206:185,1,75.0000028610231
293,205,29888,2,0,P|207:336|46:339,1,300.000011444092
27,256,30899,2,0,L|57:185,1,75.0000028610231
256,192,31236,12,0,33258,0:0:0:0:
298,106,33595,6,0,P|314:144|350:175,1,75.0000028610231
461,186,33933,6,0,P|396:259|294:279,1,200
168,207,34438,2,0,P|125:182|76:179,1,100
75,179,34691,1,0,0:0:0:0:
75,179,34775,1,0,0:0:0:0:
42,84,34944,2,0,P|105:65|153:70,1,100
230,106,35281,6,0,P|319:127|434:107,1,200
500,175,35786,2,0,P|486:222|453:260,1,100
453,259,36039,1,0,0:0:0:0:
453,259,36124,1,0,0:0:0:0:
336,353,36292,6,0,P|294:313|281:271,1,100
273,174,36629,6,0,P|250:98|143:23,1,200
75,84,37135,2,0,P|98:160|205:235,1,200
288,251,37640,2,0,P|365:280|399:303,1,100
461,346,37977,6,0,P|490:293|475:153,1,200
458,128,38399,1,0,0:0:0:0:
432,103,38483,1,0,0:0:0:0:
399,91,38567,6,0,P|352:80|215:130,1,200
197,161,38989,2,0,P|284:179|345:156,1,150
368,138,39326,6,0,P|361:219|272:307,1,200
149,345,39831,2,0,P|156:264|245:176,1,200
350,144,40337,2,0,P|410:97|421:62,1,100
306,32,40674,6,0,P|222:53|122:138,1,200
41,299,41180,2,0,P|125:278|225:193,1,200
371,87,41685,1,0,0:0:0:0:
371,87,41770,1,0,0:0:0:0:
371,87,41854,1,0,0:0:0:0:
375,236,42022,6,0,P|312:313|206:346,1,200
70,324,42528,2,0,P|132:247|225:214,1,200
345,202,43034,2,0,P|394:186|438:145,1,100
373,49,43371,6,0,P|323:64|280:106,1,100
239,206,43708,1,0,0:0:0:0:
239,206,43876,2,0,P|186:275|81:313,1,200
120,198,44382,2,0,P|158:122|138:86,1,100
43,70,44719,6,0,P|142:24|246:48,1,200
333,97,45225,2,0,P|398:117|435:105,1,100
427,109,45477,1,0,0:0:0:0:
427,109,45562,1,0,0:0:0:0:
363,210,45730,6,0,P|308:247|264:253,1,100
161,213,46067,2,0,P|117:175|111:26,1,200
199,113,46573,2,0,P|244:158|279:170,1,100
277,169,46826,1,0,0:0:0:0:
277,169,46910,1,0,0:0:0:0:
377,236,47079,2,0,P|427:264|490:284,1,100
488,129,47416,6,0,P|437:77|304:33,1,200
281,135,47921,2,0,P|375:163|449:230,1,200
395,331,48427,2,0,P|344:279|283:255,1,100
226,231,48764,6,0,P|205:219|185:197,1,50
167,159,48933,1,0,0:0:0:0:
167,159,49017,1,0,0:0:0:0:
167,159,49101,1,0,0:0:0:0:
45,229,49270,5,0,0:0:0:0:
45,229,49354,1,0,0:0:0:0:
45,229,49438,2,0,P|81:273|129:293,1,100
258,309,49775,2,0,P|348:304|386:283,1,100
465,212,50112,6,0,P|436:143|302:72,1,200
194,59,50618,2,0,P|100:72|22:154,1,200
57,280,51124,2,0,P|139:303|172:295,1,100
264,217,51461,6,0,P|300:148|296:25,1,200
385,22,51966,2,0,P|403:119|465:195,1,200
399,319,52472,5,0,0:0:0:0:
399,319,52556,1,0,0:0:0:0:
402,314,52640,1,0,0:0:0:0:
264,342,52809,2,0,P|185:322|157:303,1,100
61,223,53146,6,0,B|83:202|83:202|51:196|51:196|96:180|96:180|57:172|57:172|97:162|97:162|71:150,1,200
253,44,53820,1,0,0:0:0:0:
256,192,54157,12,0,55168,0:0:0:0:
92,32,55506,6,0,P|46:142|66:207,1,150.000005722046
67,201,55758,1,0,0:0:0:0:
91,228,55842,1,0,0:0:0:0:
125,243,55926,1,0,0:0:0:0:
162,242,56010,1,0,0:0:0:0:
196,226,56095,1,0,0:0:0:0:
219,196,56180,6,0,L|277:114,1,75.0000028610231
311,78,56433,2,0,L|368:160,1,75.0000028610231
384,207,56685,2,0,L|283:215,1,75.0000028610231
260,271,56854,6,0,L|403:360,1,150.000005722046
139,283,57107,2,0,L|267:363,1,150.000005722046
20,296,57359,2,0,L|95:342,1,75.0000028610231
139,283,57528,6,0,L|266:203,1,150.000005722046
259,295,57781,2,0,L|386:215,1,150.000005722046
506,228,58033,2,0,L|431:274,1,75.0000028610231
343,323,58202,6,0,P|245:287|179:213,1,150.000005722046
190,227,58455,1,0,0:0:0:0:
172,194,58539,1,0,0:0:0:0:
166,158,58623,1,0,0:0:0:0:
174,121,58707,1,0,0:0:0:0:
193,89,58792,1,0,0:0:0:0:
222,66,58876,6,0,L|303:16,1,75.0000028610231
357,2,59129,2,0,L|359:97,1,75.0000028610231
352,151,59382,2,0,L|268:105,1,75.0000028610231
165,102,59551,6,0,L|22:191,1,150.000005722046
285,115,59804,2,0,L|157:194,1,150.000005722046
405,127,60056,2,0,L|330:173,1,75.0000028610231
145,203,60224,6,0,L|272:282,1,150.000005722046
265,191,60477,2,0,L|392:270,1,150.000005722046
512,258,60730,2,0,L|437:212,1,75.0000028610231
341,158,60899,6,0,P|266:117|161:132,1,150.000005722046
166,125,61152,1,0,0:0:0:0:
132,141,61236,1,0,0:0:0:0:
108,170,61320,1,0,0:0:0:0:
96,205,61404,1,0,0:0:0:0:
97,242,61489,1,0,0:0:0:0:
113,276,61573,6,0,L|159:357,1,75.0000028610231
295,382,61826,2,0,L|258:316,1,75.0000028610231
306,174,62079,2,0,L|351:254,1,75.0000028610231
384,301,62247,6,0,L|481:169,1,150.000005722046
383,161,62500,2,0,L|480:29,1,150.000005722046
381,33,62753,2,0,L|327:103,1,75.0000028610231
283,165,62921,6,0,L|156:46,1,150.000005722046
169,175,63174,2,0,L|42:56,1,150.000005722046
51,185,63427,2,0,L|105:236,1,75.0000028610231
203,291,63595,6,0,P|341:296|389:250,1,150.000005722046
376,272,63849,1,0,0:0:0:0:
402,245,63933,1,0,0:0:0:0:
420,212,64017,1,0,0:0:0:0:
427,176,64101,1,0,0:0:0:0:
423,139,64186,1,0,0:0:0:0:
408,104,64270,6,0,L|354:26,1,75.0000028610231
246,49,64522,2,0,L|205:136,1,75.0000028610231
290,210,64775,2,0,L|385:201,1,75.0000028610231
478,205,64944,6,0,L|384:340,1,150.000005722046
364,203,65197,2,0,L|270:338,1,150.000005722046
218,231,65449,2,0,L|260:169,1,75.0000028610231
374,167,65618,6,0,L|280:32,1,150.000005722046
260,169,65871,2,0,L|166:34,1,150.000005722046
114,141,66123,2,0,L|156:202,1,75.0000028610231
227,291,66292,5,0,0:0:0:0:
41,214,67135,6,0,B|30:162|-3:102|-3:102|82:130|120:185|120:185|116:104|75:58|75:58|148:48|193:11|193:11|237:0|262:23|270:42|270:42|282:78|273:110|233:121|233:121|189:129|170:95|168:59|168:59|168:24|209:8,1,900.000034332277
188,235,67977,6,0,B|122:231|101:358|209:442|305:352|256:277|256:277|226:290|226:290|276:266|276:266|292:260|292:260|403:284|414:219|374:96|312:129|237:178|247:233|292:309|369:295|444:197|444:197|433:140|382:106|382:106|462:50|528:112|453:186,1,1200
231,129,69494,6,0,B|259:85|278:18|278:18|319:99|307:164|307:164|361:105|365:43|365:43|424:88|482:93|504:118|522:150|514:170|503:202|474:210|445:215|428:228|370:168|393:93|436:107|474:106,1,800
130,197,70000,6,0,B|86:147|-18:223|-1:358|130:362|148:275|148:275|118:263|118:263|170:282|170:282|186:288|186:288|247:384|301:346|360:230|292:210|204:192|172:237|150:323|215:367|337:352|337:352|370:303|358:243|358:243|454:260|457:350|351:350,1,1200
159,138,70505,6,0,B|200:99|217:25|217:25|288:40|285:107|201:102|201:102|285:107|263:45|263:45|336:56|336:56|318:147|261:173|261:173|350:207|350:207|416:222|433:218|461:193|461:178|461:178|460:163|430:138|399:106|399:89|399:89|400:70|452:43|496:76,1,1050.00001001358
31,381,70926,6,0,B|33:329|16:261|16:261|92:310|114:374|114:374|131:295|105:239|105:239|178:248|231:227|258:229|283:254|297:274|303:308|289:358|255:375|213:362|156:351|168:267|206:250|241:250,1,825.000007867813
31,381,71684,6,0,B|33:329|16:261|16:261|92:310|114:374|114:374|131:295|105:239|105:239|178:248|231:227|258:229|283:254|297:274|303:308|289:358|255:375|213:362|156:351|168:267|206:250|244:252,1,800
31,381,72864,6,0,B|34:316|13:234|13:234|107:294|134:372|134:372|155:275|122:207|122:207|212:218|277:191|311:194|342:225|358:250|366:291|349:353|307:373|255:358|185:344|200:240|239:217|264:213,1,1000
31,381,74548,6,0,B|34:287|4:179|4:179|128:259|163:358|163:358|190:233|147:146|147:146|261:165|300:138|337:139|379:160|424:193|433:328|371:413|251:407|138:364|248:165|136:115|396:168|410:170|410:170|425:171|486:165|486:165|701:222|565:398|456:401|392:340|431:214|352:127|594:174|620:175|620:175|646:174|732:171|732:171|901:215|840:399|656:412|606:311|502:169|887:133|887:133,1,2819.99995697022
182,113,75728,6,0,B|84:207|64:334|64:334|-16:301|-16:253|14:214|83:236|83:236|104:285|226:305|226:305|246:249|199:226|199:226|158:227|138:305|134:351|134:351|169:371|211:377|275:376|275:376|340:372|357:339|325:307|325:307|304:295|284:267|287:241|336:220|387:257,1,1280,2|0,0:0|0:0,0:0:0:0:
184,153,76402,2,0,B|261:108|311:23|311:23|358:77|357:157|262:114|262:114|357:157|413:116|432:123|478:141|478:141|402:105|395:151|361:169|388:197|417:223|438:226|471:215|493:147|493:147|455:264,1,939.999985656739
46,245,77079,2,0,B|9:253|-30:299|6:355|31:368|77:360|77:360|135:336|139:301|129:279|129:279|139:301|135:336|178:343|178:343|216:338|234:339|236:286|236:286|229:266|229:266|210:268|210:268|248:263|248:263|229:266|229:266|223:244|223:244|236:286|236:286|234:339|249:347|314:335|448:343|436:327|416:255|408:214|344:194|312:212|285:248|305:313|315:329|365:331,1,1019.99998638153,8|0,0:0|0:0,0:0:0:0:
419,28,77753,5,0,0:0:0:0:
331,239,77921,1,0,0:0:0:0:
356,80,78090,5,0,0:0:0:0:
345,308,78258,1,0,0:0:0:0:
322,134,78427,5,0,0:0:0:0:
408,344,78595,1,0,0:0:0:0:
313,214,78764,5,0,0:0:0:0:
466,384,78932,1,0,0:0:0:0:
307,298,79101,6,0,L|204:255,1,100
2,168,79438,1,0,0:0:0:0:
121,373,79606,6,0,L|316:293,1,200
93,28,80449,5,0,0:0:0:0:
181,239,80617,1,0,0:0:0:0:
156,80,80786,5,0,0:0:0:0:
167,308,80954,1,0,0:0:0:0:
190,134,81123,5,0,0:0:0:0:
104,344,81291,1,0,0:0:0:0:
199,214,81460,5,0,0:0:0:0:
46,384,81628,1,0,0:0:0:0:
205,298,81797,6,0,L|308:255,1,100
510,168,82134,1,0,0:0:0:0:
391,373,82302,6,0,L|196:293,1,200
289,70,83146,5,0,0:0:0:0:
160,283,83314,1,0,0:0:0:0:
354,124,83483,5,0,0:0:0:0:
121,214,83651,1,0,0:0:0:0:
371,206,83820,5,0,0:0:0:0:
132,135,83988,1,0,0:0:0:0:
333,284,84157,5,0,0:0:0:0:
192,78,84325,1,0,0:0:0:0:
253,320,84494,6,0,L|262:209,1,100
272,75,84831,1,0,0:0:0:0:
172,305,85000,5,0,0:0:0:0:
290,76,85337,6,0,B|309:119|314:152|308:161|230:203|185:214|114:133|150:-3|312:33|273:180|247:214|130:251|121:128,1,449.99998626709
22,61,86516,6,0,B|19:196|94:300|94:300|14:333|-19:300|-25:251|38:217|38:217|88:237|188:165|188:165|163:111|113:128|113:128|85:158|126:227|156:263|156:263|195:252|229:227|273:181|273:181|316:132|305:97|260:97|260:97|236:103|203:97|186:77|206:27|268:17,1,1280,2|0,0:0|0:0,0:0:0:0:
366,384,87190,2,0,B|342:297|273:227|273:227|337:196|414:217|348:298|348:298|414:217|389:153|401:136|430:96|430:96|376:161|418:179|427:217|461:198|493:177|502:157|500:122|440:83|440:83|543:150,1,939.999985656739
40,200,87864,2,0,B|11:225|1:284|60:315|88:314|124:284|124:284|162:234|148:201|128:187|128:187|148:201|162:234|203:218|203:218|233:195|249:187|225:140|225:140|208:126|208:126|193:137|193:137|223:114|223:114|208:126|208:126|192:110|192:110|225:140|225:140|249:187|266:186|317:143|437:83|418:76|365:23|338:-7|272:6|253:38|248:83|298:129|314:138|359:114,1,1019.99998638153,8|0,0:0|0:0,0:0:0:0:
23,47,88538,5,0,0:0:0:0:
234,135,88706,1,0,0:0:0:0:
75,110,88875,5,0,0:0:0:0:
303,121,89043,1,0,0:0:0:0:
129,144,89212,5,0,0:0:0:0:
339,58,89380,1,0,0:0:0:0:
209,153,89549,5,0,0:0:0:0:
379,0,89717,1,0,0:0:0:0:
296,182,89886,6,0,L|207:249,1,100
30,381,90223,1,0,0:0:0:0:
267,380,90391,6,0,L|295:171,1,200
494,337,91234,5,0,0:0:0:0:
283,249,91402,1,0,0:0:0:0:
442,274,91571,5,0,0:0:0:0:
214,263,91739,1,0,0:0:0:0:
388,240,91908,5,0,0:0:0:0:
178,326,92076,1,0,0:0:0:0:
308,231,92245,5,0,0:0:0:0:
138,384,92413,1,0,0:0:0:0:
221,202,92582,6,0,L|309:134,1,100
487,3,92919,1,0,0:0:0:0:
250,4,93087,6,0,L|221:212,1,200
135,70,93931,5,0,0:0:0:0:
264,283,94099,1,0,0:0:0:0:
70,124,94268,5,0,0:0:0:0:
303,214,94436,1,0,0:0:0:0:
53,206,94605,5,0,0:0:0:0:
292,135,94773,1,0,0:0:0:0:
91,284,94942,5,0,0:0:0:0:
232,78,95110,1,0,0:0:0:0:
171,320,95279,6,0,L|162:211,1,100
148,57,95616,1,0,0:0:0:0:
254,294,95785,5,0,0:0:0:0:
265,35,96122,5,0,0:0:0:0:
167,148,96290,1,0,0:0:0:0:
310,101,96459,5,0,0:0:0:0:
212,214,96627,1,0,0:0:0:0:
355,170,96796,5,0,0:0:0:0:
257,283,96964,1,0,0:0:0:0:
400,239,97133,5,0,0:0:0:0:
355,170,97638,5,0,0:0:0:0:
257,283,97807,1,0,0:0:0:0:
400,239,97976,6,0,L|344:307,1,75.0000028610231
304,354,98313,2,0,L|351:296,1,75.0000028610231
281,55,98650,5,0,0:0:0:0:
227,247,98818,1,0,0:0:0:0:
423,204,98987,2,0,L|451:88,1,100
282,154,99324,5,0,0:0:0:0:
111,257,99492,1,0,0:0:0:0:
113,56,99661,2,0,L|205:11,1,100
175,149,99998,5,0,0:0:0:0:
270,177,100167,1,0,0:0:0:0:
123,202,100335,5,0,0:0:0:0:
320,118,100504,1,0,0:0:0:0:
71,255,100672,5,0,0:0:0:0:
370,61,100841,1,0,0:0:0:0:
15,302,101009,5,0,0:0:0:0:
422,7,101178,1,0,0:0:0:0:
381,161,101346,5,0,0:0:0:0:
292,282,101515,1,0,0:0:0:0:
234,144,101683,2,0,L|280:56,1,100
130,60,102020,5,0,0:0:0:0:
4,142,102189,1,0,0:0:0:0:
129,216,102358,2,0,L|206:152,1,100
203,306,102695,5,0,0:0:0:0:
296,272,102863,1,0,0:0:0:0:
129,287,103032,5,0,0:0:0:0:
370,291,103200,1,0,0:0:0:0:
58,268,103369,5,0,0:0:0:0:
445,312,103537,1,0,0:0:0:0:
2,218,103706,5,0,0:0:0:0:
503,358,103874,1,0,0:0:0:0:
158,159,104043,6,0,L|100:77,1,100
255,205,104380,2,0,L|312:286,1,100
241,110,104717,5,0,0:0:0:0:
160,247,104886,1,0,0:0:0:0:
167,68,105054,5,0,0:0:0:0:
232,283,105223,1,0,0:0:0:0:
250,201,105391,6,0,L|307:119,1,100
153,247,105728,2,0,L|95:328,1,100
167,152,106065,5,0,0:0:0:0:
248,289,106234,1,0,0:0:0:0:
241,110,106402,5,0,0:0:0:0:
176,325,106571,1,0,0:0:0:0:
349,242,106740,5,0,0:0:0:0:
421,111,106908,1,0,0:0:0:0:
270,110,107077,2,0,L|213:204,1,100
122,311,107414,5,0,0:0:0:0:
5,217,107582,1,0,0:0:0:0:
137,146,107751,2,0,L|224:207,1,100
307,250,108088,6,0,L|209:288,1,100
51,320,108425,2,0,L|144:283,1,100
284,183,108762,6,0,L|186:221,1,100
28,253,109099,2,0,L|121:216,1,100
200,140,109436,6,0,L|246:115,1,50
420,104,109605,2,0,L|376:127,1,50
230,202,109773,6,0,L|276:177,1,50
450,166,109942,2,0,L|406:189,1,50
262,264,110110,6,0,L|308:239,1,50
482,228,110279,2,0,L|438:251,1,50
292,326,110447,6,0,L|388:278,1,100
305,240,110785,6,0,L|259:265,1,50
85,276,110954,2,0,L|128:252,1,50
275,178,111122,6,0,L|229:203,1,50
55,214,111291,2,0,L|98:190,1,50
243,116,111459,6,0,L|197:141,1,50
23,152,111627,5,0,0:0:0:0:
10,0,111796,2,0,L|64:83,1,100
207,114,112301,6,0,B|261:94|378:256|0:296|66:41|122:-49|332:37|321:128,1,500
197,271,113481,6,0,L|79:233,1,100
251,321,113818,2,0,L|346:351,1,100
314,138,114155,5,0,0:0:0:0:
181,345,114408,1,0,0:0:0:0:
468,345,114661,2,0,P|406:314|366:268,1,100
329,205,114998,6,0,B|267:113|241:23|241:23|201:102|209:142|209:142|294:286|294:286|397:283|426:208|376:148|376:148|346:97,1,750.000028610231
148,82,116178,6,0,L|50:26,1,100
227,68,116515,2,0,L|313:117,1,100
170,221,117020,5,0,0:0:0:0:
238,164,117189,1,0,0:0:0:0:
246,237,117358,2,0,P|196:293|134:293,1,100
244,153,117695,6,0,B|198:126|164:160|164:160|72:129|-3:199|73:321|183:248|183:248|222:247|256:313|256:313|304:133|351:74|351:74|384:72|394:127|433:170,1,875.00000834465
418,246,118874,6,0,P|375:287|290:299,1,100
244,310,119211,1,0,0:0:0:0:
244,310,119380,2,0,P|158:320|80:348,1,150
