osu file format v14

[General]
AudioFilename: audio.mp3
AudioLeadIn: 0
PreviewTime: 267870
Countdown: 0
SampleSet: Normal
StackLeniency: 0.2
Mode: 0
LetterboxInBreaks: 0
WidescreenStoryboard: 0

[Editor]
Bookmarks: 2120,66120,98120,130119,164120,196120,228120,252120,268120,298120,331120
DistanceSpacing: 2.5
BeatDivisor: 3
GridSize: 4
TimelineZoom: 1.000005

[Metadata]
Title:Travelling Light
TitleUnicode:Travelling Light
Artist:Daydreamer
ArtistUnicode:Daydreamer
Creator:Nel Oderschvank
Version:Jumping through the light
Source:
Tags:hard eletro marathon melodic piano
BeatmapID:1047919
BeatmapSetID:491828

[Difficulty]
HPDrainRate:5
CircleSize:4
OverallDifficulty:9
ApproachRate:9.6
SliderMultiplier:1.5
SliderTickRate:1

[Events]
//Background and Video events
0,0,"wallls.com_114359.jpg",0,0
//Break Periods
2,228319,251611
//Storyboard Layer 0 (Background)
//Storyboard Layer 1 (Fail)
//Storyboard Layer 2 (Pass)
//Storyboard Layer 3 (Foreground)
//Storyboard Sound Samples

[TimingPoints]
2120,500,4,1,0,30,1,0
2120,-100,4,1,1,30,0,0
2203,-100,4,2,0,5,0,0
4120,-100,4,1,2,30,0,0
5120,-100,4,1,3,30,0,0
6120,-100,4,1,1,30,0,0
6203,-100,4,2,0,5,0,0
10120,-100,4,1,1,30,0,0
11870,-100,4,2,0,5,0,0
12120,-100,4,1,2,30,0,0
12203,-100,4,2,0,5,0,0
13120,-100,4,1,3,30,0,0
14120,-100,4,1,1,30,0,0
14203,-100,4,2,0,5,0,0
16120,-100,4,1,4,30,0,0
16203,-100,4,2,0,5,0,0
18120,-100,4,1,1,30,0,0
19870,-100,4,2,0,5,0,0
20120,-100,4,1,2,30,0,0
20203,-100,4,2,0,5,0,0
21120,-100,4,1,3,30,0,0
22120,-100,4,1,1,30,0,0
22203,-100,4,2,0,5,0,0
26120,-100,4,1,1,30,0,0
27870,-100,4,2,0,5,0,0
28120,-100,4,1,2,30,0,0
28203,-100,4,2,0,5,0,0
29120,-100,4,1,3,30,0,0
29203,-100,4,2,0,5,0,0
30120,-100,4,1,2,30,0,0
31870,-100,4,2,0,5,0,0
32119,-100,4,1,4,30,0,0
33870,-100,4,2,0,5,0,0
34120,-100,4,1,1,30,0,0
34203,-100,4,2,0,5,0,0
36120,-100,4,1,2,30,0,0
37120,-100,4,1,3,30,0,0
37203,-100,4,2,0,5,0,0
38120,-100,4,1,1,30,0,0
41870,-100,4,2,0,5,0,0
42120,-100,4,1,1,30,0,0
42203,-100,4,2,0,5,0,0
44120,-100,4,1,2,30,0,0
45120,-100,4,1,3,30,0,0
46120,-100,4,1,1,30,0,0
46203,-100,4,2,0,5,0,0
48120,-100,4,1,4,30,0,0
49870,-100,4,2,0,5,0,0
50120,-100,4,1,1,30,0,0
50203,-100,4,2,0,5,0,0
52120,-100,4,1,2,30,0,0
53120,-100,4,1,3,30,0,0
54120,-100,4,1,1,30,0,0
54203,-100,4,2,0,5,0,0
58120,-100,4,1,1,30,0,0
59870,-100,4,2,0,5,0,0
60120,-100,4,1,2,30,0,0
60203,-100,4,2,0,5,0,0
61120,-100,4,1,3,30,0,0
62120,-100,4,1,2,30,0,0
62203,-100,4,2,0,5,0,0
64119,-100,4,1,4,30,0,0
65870,-100,4,2,0,5,0,0
66120,-100,4,3,3,75,0,0
74120,-50,4,3,3,75,0,0
130118,-100,4,2,1,75,0,0
132120,-50,4,3,2,75,0,0
132620,-50,4,3,1,75,0,0
133120,-50,4,3,2,75,0,0
133620,-50,4,3,1,75,0,0
134120,-50,4,3,2,75,0,0
134620,-50,4,3,1,75,0,0
135120,-50,4,3,2,75,0,0
135620,-50,4,3,1,75,0,0
136120,-50,4,3,2,75,0,0
136620,-50,4,3,1,75,0,0
137120,-50,4,3,2,75,0,0
137620,-50,4,3,1,75,0,0
138120,-50,4,3,2,75,0,0
138620,-50,4,3,1,75,0,0
139120,-50,4,3,2,75,0,0
139620,-50,4,3,1,75,0,0
140120,-50,4,3,2,75,0,0
140620,-50,4,3,1,75,0,0
141120,-50,4,3,2,75,0,0
141620,-50,4,3,1,75,0,0
142120,-50,4,3,2,75,0,0
142620,-50,4,3,1,75,0,0
143120,-50,4,3,2,75,0,0
143620,-50,4,3,1,75,0,0
144120,-50,4,3,2,75,0,0
144620,-50,4,3,1,75,0,0
145120,-50,4,3,2,75,0,0
145620,-50,4,3,1,75,0,0
146120,-50,4,3,2,75,0,0
146620,-50,4,3,1,75,0,0
147120,-50,4,3,2,75,0,0
147620,-50,4,3,1,75,0,0
148120,-50,4,3,2,75,0,0
148620,-50,4,3,1,75,0,0
149120,-50,4,3,2,75,0,0
149620,-50,4,3,1,75,0,0
150120,-50,4,3,2,75,0,0
150620,-50,4,3,1,75,0,0
151120,-50,4,3,2,75,0,0
151620,-50,4,3,1,75,0,0
152120,-50,4,3,2,75,0,0
152620,-50,4,3,1,75,0,0
153120,-50,4,3,2,75,0,0
153620,-50,4,3,1,75,0,0
154120,-50,4,3,2,75,0,0
154620,-50,4,3,1,75,0,0
155120,-50,4,3,2,75,0,0
155620,-50,4,3,1,75,0,0
156120,-50,4,3,2,75,0,0
156620,-50,4,3,1,75,0,0
157120,-50,4,3,2,75,0,0
157620,-50,4,3,1,75,0,0
158120,-50,4,3,2,75,0,0
158620,-50,4,3,1,75,0,0
159120,-50,4,3,2,75,0,0
159620,-50,4,3,1,75,0,0
160120,-50,4,3,2,75,0,0
160620,-50,4,3,1,75,0,0
161120,-50,4,3,2,75,0,0
161620,-50,4,3,1,75,0,0
162120,-50,4,3,2,75,0,0
162620,-50,4,3,1,75,0,0
163120,-50,4,3,2,75,0,0
163620,-50,4,3,1,75,0,0
164120,-50,4,3,2,75,0,1
164620,-50,4,3,1,75,0,1
165120,-50,4,3,2,75,0,1
165620,-50,4,3,1,75,0,1
166120,-50,4,3,2,75,0,1
166620,-50,4,3,1,75,0,1
167120,-50,4,3,2,75,0,1
167620,-50,4,3,1,75,0,1
168120,-50,4,3,2,75,0,1
168620,-50,4,3,1,75,0,1
169120,-50,4,3,2,75,0,1
169620,-50,4,3,1,75,0,1
170120,-50,4,3,2,75,0,1
170620,-50,4,3,1,75,0,1
171120,-50,4,3,2,75,0,1
171620,-50,4,3,1,75,0,0
172120,-50,4,3,2,75,0,1
172620,-50,4,3,1,75,0,1
173120,-50,4,3,2,75,0,1
173620,-50,4,3,1,75,0,1
174120,-50,4,3,2,75,0,1
174620,-50,4,3,1,75,0,1
175120,-50,4,3,2,75,0,1
175620,-50,4,3,1,75,0,1
176120,-50,4,3,2,75,0,1
176620,-50,4,3,1,75,0,1
177120,-50,4,3,2,75,0,1
177620,-50,4,3,1,75,0,1
178120,-50,4,3,2,75,0,1
178620,-50,4,3,1,75,0,1
179120,-50,4,3,2,75,0,1
179620,-50,4,3,1,75,0,1
180120,-50,4,3,2,75,0,1
180620,-50,4,3,1,75,0,1
181120,-50,4,3,2,75,0,1
181620,-50,4,3,1,75,0,1
182120,-50,4,3,2,75,0,1
182620,-50,4,3,1,75,0,1
183120,-50,4,3,2,75,0,1
183620,-50,4,3,1,75,0,1
184120,-50,4,3,2,75,0,1
184620,-50,4,3,1,75,0,1
185120,-50,4,3,2,75,0,1
185620,-50,4,3,1,75,0,1
186120,-50,4,3,2,75,0,1
186620,-50,4,3,1,75,0,1
187120,-50,4,3,2,75,0,1
187620,-50,4,3,1,75,0,1
188120,-50,4,3,2,75,0,1
188620,-50,4,3,1,75,0,1
189120,-50,4,3,2,75,0,1
189620,-50,4,3,1,75,0,1
190120,-50,4,3,2,75,0,1
190620,-50,4,3,1,75,0,1
191120,-50,4,3,2,75,0,1
191620,-50,4,3,1,75,0,1
192120,-50,4,3,2,75,0,1
192620,-50,4,3,1,75,0,1
193120,-50,4,3,2,75,0,1
193620,-50,4,3,1,75,0,1
194120,-50,4,1,5,40,0,1
194453,-50,4,1,5,30,0,1
194620,-50,4,3,1,75,0,1
194786,-50,4,1,5,20,0,1
195120,-50,4,1,5,10,0,1
195620,-50,4,3,1,75,0,1
196120,-100,4,1,1,30,0,0
196203,-100,4,2,0,5,0,0
198120,-100,4,1,2,30,0,0
199120,-100,4,1,3,30,0,0
200120,-100,4,1,1,30,0,0
200203,-100,4,2,0,5,0,0
204120,-100,4,1,1,30,0,0
205870,-100,4,2,0,5,0,0
206120,-100,4,1,1,30,0,0
206203,-100,4,2,0,5,0,0
207120,-100,4,1,2,30,0,0
208120,-100,4,1,3,30,0,0
208203,-100,4,2,0,5,0,0
210120,-100,4,1,4,30,0,0
211870,-100,4,2,0,5,0,0
212120,-100,4,1,1,30,0,0
212203,-100,4,2,0,5,0,0
214120,-100,4,1,2,30,0,0
215120,-100,4,1,3,30,0,0
216120,-100,4,1,1,30,0,0
216203,-100,4,2,0,5,0,0
220120,-100,4,1,1,30,0,0
221870,-100,4,2,0,5,0,0
222120,-100,4,1,2,30,0,0
222203,-100,4,2,0,5,0,0
223120,-100,4,1,3,30,0,0
223203,-100,4,2,0,5,0,0
224120,-100,4,1,2,30,0,0
225870,-100,4,2,0,5,0,0
226120,-100,4,1,4,30,0,0
226203,-100,4,2,0,5,0,0
228120,-100,4,1,1,30,0,0
252120,-100,4,1,1,30,0,0
252203,-100,4,2,0,5,0,0
254120,-100,4,1,2,30,0,0
255120,-100,4,1,3,30,0,0
256120,-100,4,1,2,30,0,0
256203,-100,4,2,0,5,0,0
258120,-100,4,1,4,30,0,0
260119,-100,4,1,0,31,0,0
260286,-100,4,1,0,33,0,0
260453,-100,4,1,0,35,0,0
260619,-100,4,1,0,37,0,0
260786,-100,4,1,0,39,0,0
260953,-100,4,1,0,41,0,0
261119,-100,4,1,0,43,0,0
261286,-100,4,1,0,45,0,0
261453,-100,4,1,0,47,0,0
261619,-100,4,1,0,49,0,0
261786,-100,4,1,0,51,0,0
261953,-100,4,1,0,53,0,0
262118,-100,4,1,0,55,0,0
262284,-100,4,1,0,57,0,0
262451,-100,4,1,0,59,0,0
262618,-100,4,1,0,61,0,0
262784,-100,4,1,0,63,0,0
262951,-100,4,1,0,65,0,0
263118,-100,4,1,0,67,0,0
263284,-100,4,1,0,69,0,0
263451,-100,4,1,0,71,0,0
263618,-100,4,1,0,73,0,0
263784,-100,4,1,0,75,0,0
263951,-100,4,1,0,77,0,0
264118,-100,4,1,0,79,0,0
264284,-100,4,1,0,81,0,0
264451,-100,4,1,0,83,0,0
264618,-100,4,1,0,85,0,0
264784,-100,4,1,0,87,0,0
264951,-100,4,1,0,89,0,0
265118,-100,4,1,0,91,0,0
265284,-100,4,1,0,93,0,0
265451,-100,4,1,0,95,0,0
265618,-100,4,1,0,97,0,0
265784,-100,4,1,0,99,0,0
265951,-100,4,1,0,100,0,0
266118,-100,4,1,0,5,0,0
268120,-55.5555555555556,4,3,2,50,0,1
268620,-55.5555555555556,4,3,1,50,0,1
269120,-55.5555555555556,4,3,2,50,0,1
269620,-55.5555555555556,4,3,1,51,0,1
270120,-55.5555555555556,4,3,2,51,0,1
270620,-55.5555555555556,4,3,1,51,0,1
271120,-55.5555555555556,4,3,2,52,0,1
271620,-55.5555555555556,4,3,1,52,0,1
272120,-55.5555555555556,4,3,2,52,0,1
272620,-55.5555555555556,4,3,1,53,0,1
273120,-55.5555555555556,4,3,2,53,0,1
273620,-55.5555555555556,4,3,1,53,0,1
274120,-55.5555555555556,4,3,2,54,0,1
274620,-55.5555555555556,4,3,1,54,0,1
275120,-55.5555555555556,4,3,2,54,0,1
275620,-55.5555555555556,4,3,1,55,0,1
276120,-55.5555555555556,4,3,2,55,0,1
276620,-55.5555555555556,4,3,1,55,0,1
277120,-55.5555555555556,4,3,2,56,0,1
277620,-55.5555555555556,4,3,1,56,0,1
278120,-55.5555555555556,4,3,2,56,0,1
278620,-55.5555555555556,4,3,1,57,0,1
279120,-55.5555555555556,4,3,2,57,0,1
279620,-55.5555555555556,4,3,1,57,0,1
280120,-55.5555555555556,4,3,2,58,0,1
280620,-55.5555555555556,4,3,1,58,0,1
281120,-55.5555555555556,4,3,2,58,0,1
281620,-55.5555555555556,4,3,1,59,0,1
282120,-55.5555555555556,4,3,2,59,0,1
282620,-55.5555555555556,4,3,1,59,0,1
283120,-55.5555555555556,4,3,2,60,0,1
283620,-55.5555555555556,4,3,1,60,0,1
284120,-55.5555555555556,4,3,2,60,0,1
284620,-55.5555555555556,4,3,1,61,0,1
285120,-55.5555555555556,4,3,2,61,0,1
285620,-55.5555555555556,4,3,1,61,0,1
286120,-55.5555555555556,4,3,2,62,0,1
286620,-55.5555555555556,4,3,1,62,0,1
287120,-55.5555555555556,4,3,2,62,0,1
287620,-55.5555555555556,4,3,1,63,0,1
288120,-55.5555555555556,4,3,2,63,0,1
288620,-55.5555555555556,4,3,1,63,0,1
289120,-55.5555555555556,4,3,2,64,0,1
289620,-55.5555555555556,4,3,1,64,0,1
290120,-55.5555555555556,4,3,2,64,0,1
290620,-55.5555555555556,4,3,1,65,0,1
291120,-55.5555555555556,4,3,2,65,0,1
291620,-55.5555555555556,4,3,1,65,0,1
292120,-55.5555555555556,4,3,2,65,0,1
292620,-55.5555555555556,4,3,1,66,0,1
293120,-55.5555555555556,4,3,2,66,0,1
293620,-55.5555555555556,4,3,1,66,0,1
294120,-55.5555555555556,4,3,2,67,0,1
294620,-55.5555555555556,4,3,1,67,0,1
295120,-55.5555555555556,4,3,2,67,0,1
295620,-55.5555555555556,4,3,1,68,0,1
296120,-55.5555555555556,4,3,2,68,0,1
296620,-55.5555555555556,4,3,1,68,0,1
297120,-55.5555555555556,4,3,2,69,0,1
297620,-55.5555555555556,4,3,1,69,0,1
298120,-55.5555555555556,4,3,4,69,0,0
299620,-55.5555555555556,4,3,1,70,0,1
299786,-55.5555555555556,4,3,1,70,0,1
299953,-55.5555555555556,4,3,1,70,0,1
300120,-55.5555555555556,4,3,2,70,0,1
300620,-55.5555555555556,4,3,1,70,0,1
301120,-55.5555555555556,4,3,2,70,0,1
301620,-55.5555555555556,4,3,1,71,0,1
302120,-55.5555555555556,4,3,2,71,0,1
302620,-55.5555555555556,4,3,1,71,0,1
303120,-55.5555555555556,4,3,2,72,0,1
303620,-55.5555555555556,4,3,1,72,0,1
304120,-55.5555555555556,4,3,2,72,0,1
304620,-55.5555555555556,4,3,1,73,0,1
305120,-55.5555555555556,4,3,2,73,0,1
305620,-55.5555555555556,4,3,1,73,0,1
306120,-55.5555555555556,4,3,2,74,0,1
306620,-55.5555555555556,4,3,1,74,0,1
307120,-55.5555555555556,4,3,2,74,0,1
307620,-55.5555555555556,4,3,1,75,0,1
308120,-55.5555555555556,4,3,2,75,0,1
308620,-55.5555555555556,4,3,1,75,0,1
309120,-55.5555555555556,4,3,2,76,0,1
309620,-55.5555555555556,4,3,1,76,0,1
310120,-55.5555555555556,4,3,2,76,0,1
310620,-55.5555555555556,4,3,1,78,0,1
311120,-55.5555555555556,4,3,2,78,0,1
311620,-55.5555555555556,4,3,1,78,0,1
312120,-55.5555555555556,4,3,2,80,0,1
312620,-55.5555555555556,4,3,1,80,0,1
313120,-55.5555555555556,4,3,2,80,0,1
313620,-55.5555555555556,4,3,1,82,0,1
314120,-55.5555555555556,4,3,2,82,0,1
314620,-55.5555555555556,4,3,1,82,0,1
315120,-55.5555555555556,4,3,2,84,0,1
315620,-55.5555555555556,4,3,1,84,0,1
316120,-55.5555555555556,4,3,2,84,0,1
316620,-55.5555555555556,4,3,1,86,0,1
317120,-55.5555555555556,4,3,2,86,0,1
317620,-55.5555555555556,4,3,1,86,0,1
318120,-55.5555555555556,4,3,2,88,0,1
318620,-55.5555555555556,4,3,1,88,0,1
319120,-55.5555555555556,4,3,2,88,0,1
319620,-55.5555555555556,4,3,1,90,0,1
320120,-55.5555555555556,4,3,2,90,0,1
320620,-55.5555555555556,4,3,1,90,0,1
321120,-55.5555555555556,4,3,2,92,0,1
321620,-55.5555555555556,4,3,1,92,0,1
322120,-55.5555555555556,4,3,2,92,0,1
322620,-55.5555555555556,4,3,1,94,0,1
323120,-55.5555555555556,4,3,2,94,0,1
323620,-55.5555555555556,4,3,1,94,0,1
324120,-55.5555555555556,4,3,2,96,0,1
324620,-55.5555555555556,4,3,1,96,0,1
325120,-55.5555555555556,4,3,2,96,0,1
325620,-55.5555555555556,4,3,1,98,0,1
326120,-55.5555555555556,4,3,2,98,0,1
326620,-55.5555555555556,4,3,1,98,0,1
327120,-55.5555555555556,4,3,2,100,0,1
327620,-55.5555555555556,4,3,1,100,0,1
328120,-55.5555555555556,4,3,2,100,0,1
328620,-55.5555555555556,4,3,1,100,0,1
329120,-55.5555555555556,4,3,2,100,0,1
329620,-55.5555555555556,4,3,1,100,0,1
330120,-55.5555555555556,4,3,1,100,0,1
330620,-55.5555555555556,4,3,1,100,0,1
331120,-55.5555555555556,4,3,1,100,0,0

[Colours]
Combo1 : 174,174,255
Combo2 : 0,126,253
Combo3 : 106,106,106

[HitObjects]
144,112,2120,6,0,B|176:128|192:144|192:144|222:105|256:96|256:96|242:171|262:217|262:217|300:224|341:243|341:243|305:134|339:89|339:89|372:149|416:160|416:160,1,600,0|0,1:1|1:1,2:0:0:0:
407,155,5120,5,0,1:0:0:0:
407,155,6120,6,0,B|360:177|309:168|309:168|287:114|248:90|248:90|321:116|385:98|402:-8|578:62|587:298|368:253|317:249|254:232|254:232|230:157|188:138|188:138|182:169|161:198|161:198|195:284|195:284|265:324|343:319|376:317,1,1200,0|0,1:0|1:0,2:0:0:0:
256,192,10370,12,0,11870,2:0:0:0:
151,203,12120,6,0,B|204:219|245:198|245:198|274:224|313:231|348:226|348:226|356:182|412:151,1,300,0|0,1:0|1:0,2:0:0:0:
406,154,14120,6,0,B|337:178|309:227|309:227|240:208|185:267|185:267|250:297|254:350|254:350|277:296|277:296|383:326|365:218|439:229,2,600,0|0|0,1:0|1:0|1:0,2:0:0:0:
256,192,18370,12,0,19870,2:0:0:0:
77,159,20120,6,0,B|108:144|123:126|123:126|159:168|224:157|224:157|184:80|259:31,1,300,0|0,1:0|1:0,2:0:0:0:
472,108,22120,6,0,B|425:90|375:89|375:89|333:116|322:167|322:167|396:149|468:184|468:184|414:243|451:315|451:315|395:293|333:350|333:350|352:236|352:236|311:259|211:223|260:115|260:115|219:174|174:194|174:194|194:280|282:312,1,1200,0|0,1:0|1:0,2:0:0:0:
256,192,26370,12,0,27870,2:0:0:0:
48,203,28120,6,0,B|79:222|118:219|118:219|108:276|123:331|187:354|187:354|201:304|250:305,2,300,0|0|0,1:0|1:0|1:0,2:0:0:0:
256,192,30370,12,0,31870,2:0:0:0:
256,192,32120,5,0,1:0:0:0:
256,192,32370,12,0,33870,2:0:0:0:
220,179,34120,6,0,B|145:113|79:158|79:158|88:102|54:73|54:73|44:35|139:102|218:43|218:43|231:108|290:124|290:124|300:89|338:68,1,600,0|0,1:0|1:0,2:0:0:0:
416,144,37120,6,0,B|409:216|454:237|454:237|383:274|331:225|331:225|311:254|273:255,1,300,0|0,1:0|1:0,2:0:0:0:
256,192,38370,12,0,41870,2:0:0:0:
59,183,42120,6,0,B|97:130|141:92|141:92|201:117|270:118|270:118|170:148|128:222|128:222|194:258|194:258|225:208|278:197,1,600,0|0,1:0|1:0,2:0:0:0:
261,203,45120,5,0,1:0:0:0:
261,203,46120,6,0,B|303:188|352:201|352:201|290:145|267:85|267:85|300:78|329:52|329:52|367:138|423:152|427:189|427:189|429:261|357:278,1,600,0|0,1:0|1:0,2:0:0:0:
256,192,48370,12,0,49870,2:0:0:0:
349,141,50120,6,0,B|318:198|223:195|223:195|272:224|314:296|193:395|156:333|84:295|122:222|154:200|154:200|81:184|41:131,1,600,0|0,1:0|1:0,2:0:0:0:
193,256,53120,5,0,1:0:0:0:
151,44,54120,6,0,B|116:71|52:62|52:62|81:116|81:116|90:194|90:194|52:264|52:264|131:229|131:229|107:278|139:381|281:353|286:264|261:220|231:200|231:200|331:165|331:165|298:99|298:99|157:148|157:148|155:126|155:126|204:111|237:73|234:32|205:-9,1,1200,0|0,1:0|1:0,2:0:0:0:
256,192,58370,12,0,59870,2:0:0:0:
313,268,60120,6,0,B|273:221|202:212|202:212|234:111|184:70|224:18,1,300,0|0,1:0|1:0,2:0:0:0:
313,268,62120,6,0,B|258:240|248:179|248:179|195:219|199:278|199:278|196:200|159:159|159:159|210:83|282:106|282:106|230:71|199:22,1,600,0|0,1:0|1:0,2:0:0:0:
256,192,64370,12,0,65870,2:0:0:0:
192,48,66120,5,0,3:0:0:0:
116,120,66286,1,0,2:0:0:0:
96,222,66453,1,0,2:0:0:0:
196,126,66620,5,0,3:0:0:0:
170,230,66786,1,0,2:0:0:0:
201,325,66953,1,0,2:0:0:0:
302,294,67120,5,0,3:0:0:0:
271,192,67286,1,0,2:0:0:0:
196,126,67453,1,0,2:0:0:0:
324,138,67620,5,0,3:0:0:0:
243,67,67786,1,0,2:0:0:0:
144,51,67953,1,0,2:0:0:0:
27,100,68120,5,0,3:0:0:0:
133,318,68286,1,0,2:0:0:0:
133,190,68453,1,0,2:0:0:0:
144,51,68620,5,0,3:0:0:0:
200,281,68786,1,0,2:0:0:0:
250,141,68953,1,0,2:0:0:0:
133,190,69120,5,0,3:0:0:0:
329,47,69286,1,0,2:0:0:0:
144,51,69453,1,0,2:0:0:0:
200,281,69620,5,0,3:0:0:0:
224,40,69786,1,0,2:0:0:0:
133,190,69953,1,0,2:0:0:0:
343,286,70120,5,0,3:0:0:0:
208,330,70286,2,0,P|200:300|204:262,1,50,0|0,2:0|2:0,2:0:0:0:
51,255,70620,5,0,3:0:0:0:
199,280,70786,2,0,P|200:255|196:231,1,50,0|0,2:0|2:0,2:0:0:0:
344,206,71120,5,0,3:0:0:0:
195,230,71286,2,0,P|193:205|196:181,1,50,0|0,2:0|2:0,2:0:0:0:
49,163,71620,5,0,3:0:0:0:
196,181,71786,2,0,P|197:154|191:130,1,50,0|0,2:0|2:0,2:0:0:0:
163,43,72120,5,0,3:0:0:0:
111,169,72286,1,0,2:0:0:0:
279,151,72453,1,0,2:0:0:0:
196,181,72620,5,0,3:0:0:0:
144,307,72786,1,0,2:0:0:0:
299,279,72953,1,0,2:0:0:0:
226,316,73120,5,0,3:0:0:0:
347,203,73286,1,0,2:0:0:0:
196,181,73453,1,0,2:0:0:0:
279,151,73620,5,0,3:0:0:0:
385,80,73786,1,0,2:0:0:0:
234,14,73953,1,0,2:0:0:0:
307,63,74120,6,0,P|339:15|406:0,2,100,0|0|0,3:0|2:0|2:0,2:0:0:0:
455,144,74620,2,0,P|423:96|356:81,2,100,0|0|0,3:0|2:0|2:0,2:0:0:0:
311,230,75120,2,0,P|332:185|374:160,2,100,0|0|0,3:0|2:0|2:0,2:0:0:0:
462,302,75620,2,0,P|436:259|392:238,2,100,0|0|0,3:0|2:0|2:0,2:0:0:0:
304,288,76120,5,0,3:0:0:0:
168,154,76286,1,0,2:0:0:0:
126,322,76453,1,0,2:0:0:0:
304,288,76620,5,0,3:0:0:0:
259,126,76786,1,0,2:0:0:0:
147,241,76953,1,0,2:0:0:0:
304,288,77120,5,0,3:0:0:0:
346,128,77286,1,0,2:0:0:0:
168,154,77453,1,0,2:0:0:0:
304,288,77620,5,0,3:0:0:0:
421,177,77786,1,0,2:0:0:0:
259,126,77953,1,0,2:0:0:0:
304,288,78120,5,0,3:0:0:0:
117,215,78286,1,0,2:0:0:0:
259,126,78453,1,0,2:0:0:0:
304,288,78620,5,0,3:0:0:0:
142,127,78786,1,0,2:0:0:0:
291,136,78953,1,0,2:0:0:0:
304,288,79120,5,0,3:0:0:0:
217,83,79286,1,0,2:0:0:0:
314,161,79453,1,0,2:0:0:0:
304,288,79620,5,0,3:0:0:0:
303,61,79786,1,0,2:0:0:0:
322,194,79953,1,0,2:0:0:0:
176,154,80120,6,0,P|155:138|137:64,1,100,0|0,3:0|2:0,2:0:0:0:
303,61,80453,1,0,2:0:0:0:
204,227,80620,2,0,P|178:231|111:195,1,100,0|0,3:0|2:0,2:0:0:0:
135,69,80953,1,0,2:0:0:0:
272,258,81120,6,0,P|256:279|183:300,1,100,0|0,3:0|2:0,2:0:0:0:
114,199,81453,1,0,2:0:0:0:
341,223,81620,2,0,P|348:248|319:318,1,100,0|0,3:0|2:0,2:0:0:0:
188,300,81953,1,0,2:0:0:0:
322,314,82120,6,0,P|389:329|410:182,1,200,0|0,3:0|2:0,2:0:0:0:
423,96,82620,1,0,3:0:0:0:
373,250,82786,1,0,2:0:0:0:
237,165,82953,1,0,2:0:0:0:
373,250,83120,6,0,P|342:172|221:179,1,200,0|0,3:0|2:0,2:0:0:0:
98,305,83620,1,0,3:0:0:0:
289,233,83786,1,0,2:0:0:0:
148,155,83953,1,0,2:0:0:0:
288,232,84120,6,0,P|194:238|148:155,1,200,0|0,3:0|2:0,2:0:0:0:
343,37,84620,1,0,3:0:0:0:
236,169,84786,1,0,2:0:0:0:
395,171,84953,1,0,2:0:0:0:
236,169,85120,6,0,P|316:119|395:171,1,200,0|0,3:0|2:0,2:0:0:0:
436,299,85620,1,0,3:0:0:0:
315,201,85786,1,0,2:0:0:0:
219,303,85953,1,0,2:0:0:0:
123,161,86120,5,0,3:0:0:0:
90,20,86286,1,0,2:0:0:0:
241,48,86453,1,0,2:0:0:0:
148,239,86620,5,0,3:0:0:0:
44,137,86786,1,0,2:0:0:0:
189,86,86953,1,0,2:0:0:0:
204,298,87120,5,0,3:0:0:0:
63,261,87286,1,0,2:0:0:0:
163,144,87453,1,0,2:0:0:0:
285,303,87620,5,0,3:0:0:0:
138,349,87786,1,0,2:0:0:0:
196,199,87953,1,0,2:0:0:0:
374,300,88120,5,0,3:0:0:0:
196,199,88286,1,0,2:0:0:0:
318,120,88453,1,0,2:0:0:0:
316,326,88620,5,0,3:0:0:0:
213,149,88786,1,0,2:0:0:0:
358,142,88953,1,0,2:0:0:0:
253,320,89120,5,0,3:0:0:0:
252,116,89286,1,0,2:0:0:0:
381,182,89453,1,0,2:0:0:0:
202,284,89620,5,0,3:0:0:0:
303,106,89786,1,0,2:0:0:0:
382,228,89953,1,0,2:0:0:0:
52,109,90120,6,0,P|98:129|147:121,1,100,0|0,3:0|2:0,2:0:0:0:
219,63,90453,1,0,2:0:0:0:
303,106,90620,2,0,P|352:99|398:119,1,100,0|0,3:0|2:0,2:0:0:0:
443,201,90953,1,0,2:0:0:0:
398,289,91120,6,0,P|352:272|304:281,1,100,0|0,3:0|2:0,2:0:0:0:
243,357,91453,1,0,2:0:0:0:
167,289,91620,2,0,P|119:279|85:244,1,100,0|0,3:0|2:0,2:0:0:0:
65,152,91953,1,0,2:0:0:0:
160,101,92120,5,0,3:0:0:0:
85,244,92286,1,0,2:0:0:0:
276,217,92453,1,0,2:0:0:0:
196,345,92620,5,0,3:0:0:0:
177,205,92786,1,0,2:0:0:0:
110,364,92953,1,0,2:0:0:0:
160,101,93120,5,0,3:0:0:0:
196,345,93286,1,0,2:0:0:0:
276,217,93453,1,0,2:0:0:0:
360,350,93620,5,0,3:0:0:0:
292,41,93786,1,0,2:0:0:0:
276,217,93953,1,0,2:0:0:0:
160,101,94120,6,0,L|172:-27,2,100,0|0|0,3:0|2:0|2:0,2:0:0:0:
152,227,94620,1,0,3:0:0:0:
56,87,94786,1,0,2:0:0:0:
276,217,94953,1,0,2:0:0:0:
397,102,95120,6,0,L|417:1,2,100,0|0|0,3:0|2:0|2:0,2:0:0:0:
436,238,95620,1,0,3:0:0:0:
297,328,95786,1,0,2:0:0:0:
440,235,95953,1,0,2:0:0:0:
199,219,96120,6,0,L|86:218,2,100,0|0|0,3:0|2:0|2:0,2:0:0:0:
326,119,96620,1,0,3:0:0:0:
297,328,96786,1,0,2:0:0:0:
199,219,96953,1,0,2:0:0:0:
326,119,97120,6,0,L|423:39,2,100,0|0|0,3:0|2:0|2:0,2:0:0:0:
199,219,97620,1,0,3:0:0:0:
436,238,97786,1,0,2:0:0:0:
297,328,97953,1,0,2:0:0:0:
199,219,98120,6,0,P|186:186|191:112,2,100,0|0|0,3:0|2:0|2:0,2:0:0:0:
274,153,98620,2,0,P|259:54|163:29,1,200,0|0,3:0|2:0,2:0:0:0:
274,153,99120,6,0,P|287:186|282:260,2,100,0|0|0,3:0|2:0|2:0,2:0:0:0:
199,219,99620,2,0,P|213:317|310:343,1,200,0|0,3:0|2:0,2:0:0:0:
285,249,100120,5,0,3:0:0:0:
141,355,100286,1,0,2:0:0:0:
97,197,100453,1,0,2:0:0:0:
285,249,100620,6,0,P|270:152|151:137,1,200,0|0,3:0|2:0,2:0:0:0:
199,219,101120,5,0,3:0:0:0:
299,345,101286,1,0,2:0:0:0:
388,217,101453,1,0,2:0:0:0:
199,219,101620,6,0,P|214:318|333:331,1,200,0|0,3:0|2:0,2:0:0:0:
423,313,102120,5,0,3:0:0:0:
285,249,102286,1,0,2:0:0:0:
414,147,102453,1,0,2:0:0:0:
292,87,102620,6,0,P|200:128|221:246,1,200,0|0,3:0|2:0,2:0:0:0:
299,345,103120,5,0,3:0:0:0:
275,175,103286,1,0,2:0:0:0:
128,267,103453,1,0,2:0:0:0:
134,95,103620,6,0,P|228:91|274:174,1,200,0|0,3:0|2:0,2:0:0:0:
189,163,104120,5,0,3:0:0:0:
25,226,104286,1,0,2:0:0:0:
274,174,104453,1,0,2:0:0:0:
128,267,104620,5,0,3:0:0:0:
286,169,104786,1,0,2:0:0:0:
126,372,104953,1,0,2:0:0:0:
303,258,105120,5,0,3:0:0:0:
255,384,105286,1,0,2:0:0:0:
298,162,105453,1,0,2:0:0:0:
386,304,105620,5,0,3:0:0:0:
312,155,105786,1,0,2:0:0:0:
493,292,105953,1,0,2:0:0:0:
312,155,106120,6,0,P|254:111|134:230,1,200,0|0,3:0|2:0,2:0:0:0:
227,187,106620,2,0,P|183:245|302:365,1,200,0|0,3:0|2:0,2:0:0:0:
259,270,107120,2,0,P|317:314|437:195,1,200,0|0,3:0|2:0,2:0:0:0:
342,241,107620,2,0,P|386:183|267:63,1,200,0|0,3:0|2:0,2:0:0:0:
207,194,108120,5,0,3:0:0:0:
342,74,108286,1,0,2:0:0:0:
269,142,108453,1,0,2:0:0:0:
259,270,108620,5,0,3:0:0:0:
207,194,108786,1,0,2:0:0:0:
304,336,108953,1,0,2:0:0:0:
322,200,109120,5,0,3:0:0:0:
207,345,109286,1,0,2:0:0:0:
328,194,109453,1,0,2:0:0:0:
350,321,109620,5,0,3:0:0:0:
139,246,109786,1,0,2:0:0:0:
357,324,109953,1,0,2:0:0:0:
207,345,110120,6,0,P|246:315|259:268,1,100,0|0,3:0|2:0,2:0:0:0:
139,246,110453,1,0,2:0:0:0:
290,154,110620,2,0,P|351:217|348:346,1,200,0|0,3:0|2:0,2:0:0:0:
415,180,111120,6,0,P|382:131|336:96,1,100,0|0,3:0|2:0,2:0:0:0:
259,268,111453,1,0,2:0:0:0:
197,145,111620,2,0,P|305:75|369:175,1,200,0|0,3:0|2:0,2:0:0:0:
259,268,112120,6,0,P|247:316|213:357,1,100,0|0,3:0|2:0,2:0:0:0:
283,151,112453,1,0,2:0:0:0:
361,283,112620,2,0,P|391:222|333:91,1,200,0|0,3:0|2:0,2:0:0:0:
189,151,113120,6,0,P|210:162|303:128,1,100,0|0,3:0|2:0,2:0:0:0:
349,103,113453,1,0,2:0:0:0:
189,151,113620,2,0,P|120:165|115:288,1,200,0|0,3:0|2:0,2:0:0:0:
375,196,114120,5,0,3:0:0:0:
274,296,114286,1,0,2:0:0:0:
380,192,114453,1,0,2:0:0:0:
176,226,114620,5,0,3:0:0:0:
380,192,114786,1,0,2:0:0:0:
169,230,114953,1,0,2:0:0:0:
342,123,115120,5,0,3:0:0:0:
176,226,115286,1,0,2:0:0:0:
349,119,115453,1,0,2:0:0:0:
118,167,115620,5,0,3:0:0:0:
349,119,115786,1,0,2:0:0:0:
112,170,115953,1,0,2:0:0:0:
349,119,116120,5,0,3:0:0:0:
226,255,116286,1,0,2:0:0:0:
160,71,116453,1,0,2:0:0:0:
257,193,116620,5,0,3:0:0:0:
191,9,116786,1,0,2:0:0:0:
112,170,116953,1,0,2:0:0:0:
160,71,117120,5,0,3:0:0:0:
226,255,117286,1,0,2:0:0:0:
349,119,117453,1,0,2:0:0:0:
257,193,117620,5,0,3:0:0:0:
191,9,117786,1,0,2:0:0:0:
112,170,117953,1,0,2:0:0:0:
160,71,118120,5,0,3:0:0:0:
179,214,118286,2,0,P|144:242|72:239,1,100,0|0,2:0|2:0,2:0:0:0:
227,300,118620,2,0,P|260:262|207:116,1,200,0|0,3:0|2:0,2:0:0:0:
179,214,119120,5,0,3:0:0:0:
341,171,119286,2,0,P|329:136|270:67,1,100,0|0,2:0|2:0,2:0:0:0:
227,300,119620,2,0,P|279:341|426:316,1,200,0|0,3:0|2:0,2:0:0:0:
179,214,120120,1,0,3:0:0:0:
326,245,120286,1,0,2:0:0:0:
292,85,120453,1,0,2:0:0:0:
179,214,120620,2,0,P|125:217|48:99,1,200,0|0,3:0|2:0,2:0:0:0:
179,214,121120,5,0,3:0:0:0:
326,245,121286,1,0,2:0:0:0:
141,126,121453,1,0,2:0:0:0:
244,65,121620,5,0,3:0:0:0:
179,214,121786,1,0,2:0:0:0:
332,27,121953,1,0,2:0:0:0:
179,214,122120,6,0,P|243:182|236:56,1,200,0|0,3:0|2:0,2:0:0:0:
172,123,122620,1,0,3:0:0:0:
179,214,122786,1,0,2:0:0:0:
255,271,122953,1,0,2:0:0:0:
344,122,123120,6,0,P|306:90|161:136,1,200,0|0,3:0|2:0,2:0:0:0:
255,271,123620,1,0,3:0:0:0:
258,169,123786,1,0,2:0:0:0:
171,122,123953,1,0,2:0:0:0:
255,271,124120,6,0,P|341:316|429:275,1,200,0|0,3:0|2:0,2:0:0:0:
258,169,124620,1,0,3:0:0:0:
343,228,124786,1,0,2:0:0:0:
383,139,124953,1,0,2:0:0:0:
258,169,125120,6,0,P|183:191|189:334,1,200,0|0,3:0|2:0,2:0:0:0:
260,274,125620,1,0,3:0:0:0:
258,169,125786,1,0,2:0:0:0:
161,301,125953,1,0,2:0:0:0:
258,169,126120,6,0,L|345:68,2,100,0|0|0,3:0|2:0|2:0,2:0:0:0:
161,301,126620,2,0,L|74:402,2,100,0|0|0,3:0|2:0|2:0,2:0:0:0:
130,177,127120,2,0,L|29:90,2,100,0|0|0,3:0|2:0|2:0,2:0:0:0:
285,289,127620,2,0,L|386:376,2,100,0|0|0,3:0|2:0|2:0,2:0:0:0:
130,177,128120,5,0,3:0:0:0:
54,111,128286,1,0,2:0:0:0:
56,10,128453,1,0,2:0:0:0:
287,111,128620,5,0,3:0:0:0:
314,196,128786,1,0,2:0:0:0:
285,289,128953,1,0,2:0:0:0:
130,177,129120,5,0,3:0:0:0:
167,65,129286,1,0,2:0:0:0:
287,111,129453,1,0,2:0:0:0:
285,289,129620,5,0,3:0:0:0:
157,294,129786,1,0,2:0:0:0:
130,177,129953,1,0,2:0:0:0:
287,111,130120,5,0,2:0:0:0:
287,111,130619,5,0,2:0:0:0:
287,111,131120,5,0,2:0:0:0:
396,73,131286,1,0,3:0:0:0:
176,149,131453,1,0,3:0:0:0:
494,37,131620,1,12,2:0:0:0:
176,149,132120,5,0,3:1:0:0:
68,245,132286,1,0,2:0:0:0:
146,365,132453,1,0,2:0:0:0:
280,273,132620,5,0,3:3:0:0:
377,384,132786,1,0,2:0:0:0:
426,246,132953,1,0,2:3:0:0:
331,112,133120,5,0,3:3:0:0:
176,149,133286,1,0,2:0:0:0:
280,273,133453,1,0,2:0:0:0:
242,83,133620,5,0,3:3:0:0:
193,234,133786,1,0,2:0:0:0:
344,204,133953,1,0,2:0:0:0:
193,234,134120,5,0,3:3:0:0:
304,359,134286,1,0,2:0:0:0:
344,204,134453,1,0,2:0:0:0:
193,234,134620,5,0,3:3:0:0:
242,83,134786,1,0,2:0:0:0:
344,204,134953,1,0,2:0:0:0:
242,83,135120,5,0,3:3:0:0:
79,123,135286,1,0,2:0:0:0:
193,234,135453,1,0,2:0:0:0:
242,83,135620,5,0,3:3:0:0:
344,204,135786,1,0,2:0:0:0:
193,234,135953,1,0,2:0:0:0:
79,123,136120,5,0,3:3:0:0:
119,0,136286,1,0,2:0:0:0:
242,83,136453,1,0,2:0:0:0:
193,234,136620,5,0,3:3:0:0:
173,309,136786,1,0,2:0:0:0:
107,348,136953,1,0,2:0:0:0:
224,160,137120,5,0,3:3:0:0:
173,309,137286,1,0,2:0:0:0:
227,155,137453,1,0,2:0:0:0:
390,160,137620,5,0,3:3:0:0:
173,309,137786,1,0,2:0:0:0:
224,160,137953,1,0,2:0:0:0:
351,315,138120,5,0,3:3:0:0:
224,159,138286,1,0,2:0:0:0:
390,160,138453,1,0,2:0:0:0:
273,12,138620,5,0,3:3:0:0:
160,112,138786,1,0,2:0:0:0:
390,160,138953,1,0,2:0:0:0:
192,32,139120,5,0,3:3:0:0:
150,215,139286,1,0,2:0:0:0:
390,160,139453,1,0,2:0:0:0:
192,32,139620,5,4,3:3:0:0:
192,32,140120,5,0,3:0:0:0:
21,91,140286,1,0,2:0:0:0:
200,30,140453,1,0,2:0:0:0:
47,209,140620,5,0,3:0:0:0:
304,112,140786,1,0,2:0:0:0:
40,213,140953,1,0,2:0:0:0:
233,286,141120,5,0,3:0:0:0:
122,93,141286,1,0,2:0:0:0:
237,293,141453,1,0,2:0:0:0:
304,112,141620,5,0,3:0:0:0:
404,287,141786,1,0,2:0:0:0:
301,105,141953,1,0,2:0:0:0:
237,293,142120,5,0,3:0:0:0:
433,144,142286,1,0,2:0:0:0:
231,297,142453,1,0,2:0:0:0:
193,144,142620,5,0,3:0:0:0:
404,287,142786,1,0,2:0:0:0:
186,140,142953,1,0,2:0:0:0:
231,297,143120,5,0,3:0:0:0:
311,123,143286,1,0,2:0:0:0:
227,304,143453,1,0,2:0:0:0:
128,192,143620,5,0,3:0:0:0:
97,39,143786,1,0,2:0:0:0:
272,48,143953,1,0,2:0:0:0:
151,265,144120,5,0,3:0:0:0:
37,157,144286,1,0,2:0:0:0:
186,64,144453,1,0,2:0:0:0:
212,312,144620,5,0,3:0:0:0:
57,289,144786,1,0,2:0:0:0:
126,127,144953,1,0,2:0:0:0:
285,263,145120,5,0,3:0:0:0:
272,48,145286,1,0,2:0:0:0:
462,142,145453,1,0,2:0:0:0:
209,252,145620,5,0,3:0:0:0:
388,133,145786,1,0,2:0:0:0:
402,345,145953,1,0,2:0:0:0:
180,181,146120,5,0,3:0:0:0:
372,277,146286,1,0,2:0:0:0:
194,384,146453,1,0,2:0:0:0:
227,120,146620,5,0,3:0:0:0:
240,335,146786,1,0,2:0:0:0:
58,234,146953,1,0,2:0:0:0:
302,131,147120,5,0,3:0:0:0:
123,250,147286,1,0,2:0:0:0:
120,42,147453,1,0,2:0:0:0:
331,202,147620,5,0,3:0:0:0:
331,202,148120,5,0,3:0:0:0:
224,34,148286,1,0,2:0:0:0:
220,27,148453,1,0,2:0:0:0:
128,144,148620,5,0,3:0:0:0:
384,64,148786,1,0,2:0:0:0:
392,61,148953,1,0,2:0:0:0:
331,202,149120,5,0,3:0:0:0:
224,34,149286,1,0,2:0:0:0:
220,27,149453,1,0,2:0:0:0:
331,202,149620,5,0,2:0:0:0:
157,339,149786,1,0,2:0:0:0:
151,344,149953,1,0,2:0:0:0:
176,144,150120,5,0,3:0:0:0:
30,224,150286,1,0,2:0:0:0:
23,229,150453,1,0,2:0:0:0:
152,345,150620,5,0,3:0:0:0:
80,118,150786,1,0,2:0:0:0:
77,110,150953,1,0,2:0:0:0:
23,229,151120,5,0,3:0:0:0:
192,64,151286,1,0,2:0:0:0:
199,58,151453,1,0,2:0:0:0:
76,111,151620,5,0,3:0:0:0:
357,137,151786,1,0,2:0:0:0:
366,138,151953,1,0,2:0:0:0:
199,56,152120,5,0,3:0:0:0:
314,258,152286,1,0,2:0:0:0:
319,264,152453,1,0,2:0:0:0:
308,59,152620,5,0,3:0:0:0:
174,257,152786,1,0,2:0:0:0:
169,263,152953,1,0,2:0:0:0:
92,87,153120,5,0,3:0:0:0:
314,258,153286,1,0,2:0:0:0:
319,263,153453,1,0,2:0:0:0:
417,89,153620,5,0,3:0:0:0:
174,257,153786,1,0,2:0:0:0:
169,264,153953,1,0,2:0:0:0:
88,82,154120,5,0,3:0:0:0:
217,138,154286,1,0,2:0:0:0:
174,257,154453,1,0,2:0:0:0:
172,54,154620,5,0,3:0:0:0:
212,189,154786,1,0,2:0:0:0:
93,232,154953,1,0,2:0:0:0:
247,101,155120,5,0,3:0:0:0:
170,219,155286,1,0,2:0:0:0:
60,156,155453,1,0,2:0:0:0:
320,250,155620,1,0,0:0:0:0:
172,54,156120,5,0,3:0:0:0:
288,180,156286,1,0,2:0:0:0:
84,63,156453,1,0,2:0:0:0:
288,180,156620,5,0,3:0:0:0:
169,297,156786,1,0,2:0:0:0:
286,93,156953,1,0,2:0:0:0:
97,223,157120,5,0,3:0:0:0:
288,180,157286,1,0,2:0:0:0:
75,309,157453,1,0,2:0:0:0:
288,180,157620,5,0,3:0:0:0:
328,327,157786,1,0,2:0:0:0:
175,130,157953,1,0,2:0:0:0:
227,335,158120,5,0,3:0:0:0:
342,125,158286,1,0,2:0:0:0:
328,327,158453,1,0,2:0:0:0:
178,238,158620,5,0,3:0:0:0:
328,327,158786,1,0,2:0:0:0:
342,125,158953,1,0,2:0:0:0:
227,335,159120,5,0,3:0:0:0:
387,218,159286,1,0,2:0:0:0:
226,148,159453,1,0,2:0:0:0:
328,327,159620,5,0,3:0:0:0:
342,125,159786,1,0,2:0:0:0:
178,238,159953,1,0,2:0:0:0:
387,218,160120,5,0,3:0:0:0:
226,148,160286,1,0,2:0:0:0:
229,326,160453,1,0,2:0:0:0:
387,218,160620,5,0,3:0:0:0:
178,238,160786,1,0,2:0:0:0:
396,215,160953,1,0,2:0:0:0:
168,162,161120,5,0,3:0:0:0:
404,214,161286,1,0,2:0:0:0:
161,159,161453,1,0,2:0:0:0:
294,284,161620,5,0,3:0:0:0:
274,75,161786,1,0,2:0:0:0:
297,293,161953,1,0,2:0:0:0:
421,122,162120,5,0,3:0:0:0:
298,301,162286,1,0,2:0:0:0:
426,116,162453,1,0,2:0:0:0:
249,200,162620,5,0,3:0:0:0:
44,135,162786,1,0,2:0:0:0:
37,132,162953,1,0,2:0:0:0:
272,131,163120,5,0,3:0:0:0:
67,66,163286,1,0,2:0:0:0:
59,62,163453,1,0,2:0:0:0:
272,131,163620,5,4,3:0:0:0:
272,131,164120,5,0,3:0:0:0:
416,336,164286,1,0,2:0:0:0:
421,343,164453,1,0,2:0:0:0:
230,341,164620,5,0,3:0:0:0:
416,184,164786,1,0,2:0:0:0:
422,178,164953,1,0,2:0:0:0:
272,131,165120,5,0,3:0:0:0:
75,274,165286,1,0,2:0:0:0:
68,280,165453,1,0,2:0:0:0:
97,101,165620,5,0,3:0:0:0:
244,283,165786,1,0,2:0:0:0:
250,289,165953,1,0,2:0:0:0:
272,131,166120,5,0,3:0:0:0:
421,343,166286,1,0,2:0:0:0:
266,123,166453,1,0,2:0:0:0:
394,234,166620,5,0,3:0:0:0:
159,124,166786,1,0,2:0:0:0:
404,237,166953,1,0,2:0:0:0:
236,206,167120,5,0,3:0:0:0:
495,183,167286,1,0,2:0:0:0:
227,207,167453,1,0,2:0:0:0:
387,151,167620,5,0,3:0:0:0:
175,300,167786,1,0,2:0:0:0:
395,145,167953,1,0,2:0:0:0:
284,274,168120,5,0,3:0:0:0:
279,40,168286,1,0,2:0:0:0:
337,333,168453,1,0,2:0:0:0:
218,270,168620,5,0,3:0:0:0:
379,100,168786,1,0,2:0:0:0:
213,348,168953,1,0,2:0:0:0:
173,220,169120,5,0,3:0:0:0:
408,215,169286,1,0,2:0:0:0:
114,273,169453,1,0,2:0:0:0:
177,154,169620,5,0,3:0:0:0:
347,315,169786,1,0,2:0:0:0:
99,149,169953,1,0,2:0:0:0:
227,109,170120,5,0,3:0:0:0:
232,344,170286,1,0,2:0:0:0:
175,50,170453,1,0,2:0:0:0:
293,113,170620,5,0,3:0:0:0:
132,283,170786,1,0,2:0:0:0:
298,35,170953,1,0,2:0:0:0:
338,163,171120,5,0,3:0:0:0:
104,168,171286,1,0,2:0:0:0:
397,110,171453,1,0,2:0:0:0:
232,344,171620,5,0,3:0:0:0:
329,10,172120,5,0,3:0:0:0:
174,111,172286,1,0,2:0:0:0:
336,208,172453,1,0,2:0:0:0:
271,41,172620,5,0,3:0:0:0:
129,230,172786,1,0,2:0:0:0:
366,222,172953,1,0,2:0:0:0:
249,98,173120,5,0,3:0:0:0:
191,348,173286,1,0,2:0:0:0:
401,210,173453,1,0,2:0:0:0:
168,153,173620,5,0,3:0:0:0:
321,347,173786,1,0,2:0:0:0:
375,72,173953,1,0,2:0:0:0:
259,163,174120,5,0,3:0:0:0:
168,153,174286,1,0,2:0:0:0:
296,260,174453,1,0,2:0:0:0:
323,138,174620,5,0,3:0:0:0:
168,153,174786,1,0,2:0:0:0:
321,347,174953,1,0,2:0:0:0:
386,112,175120,5,0,3:0:0:0:
168,153,175286,1,0,2:0:0:0:
411,352,175453,1,0,2:0:0:0:
449,87,175620,5,0,3:0:0:0:
168,153,175786,1,0,2:0:0:0:
477,287,175953,1,0,2:0:0:0:
168,153,176120,6,0,P|95:218|85:315,1,200,0|0,3:0|2:0,2:0:0:0:
381,179,176620,2,0,P|384:129|369:81,1,100,0|0,3:0|2:0,2:0:0:0:
255,273,176953,1,0,2:0:0:0:
168,153,177120,5,0,3:0:0:0:
228,87,177286,1,0,2:0:0:0:
308,136,177453,1,0,2:0:0:0:
337,100,177620,5,0,2:0:0:0:
230,41,177786,1,0,2:0:0:0:
141,121,177953,1,0,2:0:0:0:
168,153,178120,6,0,P|244:204|308:137,1,200,0|0,3:0|2:0,2:0:0:0:
150,42,178620,2,0,P|100:47|51:36,1,100,0|0,3:0|2:0,2:0:0:0:
238,131,178953,1,0,2:0:0:0:
29,235,179120,5,0,3:0:0:0:
232,215,179286,1,0,2:0:0:0:
51,36,179453,1,0,2:0:0:0:
31,209,179620,5,0,3:0:0:0:
168,153,179786,1,0,2:0:0:0:
51,36,179953,1,0,2:0:0:0:
255,118,180120,6,0,P|298:148|283:304,1,200,0|0,3:0|2:0,2:0:0:0:
29,235,180620,2,0,P|44:188|79:151,1,100,0|0,3:0|2:0,2:0:0:0:
175,264,180953,1,0,2:0:0:0:
255,118,181120,5,0,3:0:0:0:
179,173,181286,1,0,2:0:0:0:
175,264,181453,1,0,2:0:0:0:
174,304,181620,5,0,2:0:0:0:
142,167,181786,1,0,2:0:0:0:
235,80,181953,1,0,2:0:0:0:
93,340,182120,6,0,P|137:379|260:320,1,200,0|0,3:0|2:0,2:0:0:0:
142,167,182620,2,0,P|112:127|66:112,1,100,0|0,3:0|2:0,2:0:0:0:
174,304,182953,1,0,2:0:0:0:
307,190,183120,5,0,3:0:0:0:
219,204,183286,1,0,2:0:0:0:
142,167,183453,1,0,2:0:0:0:
106,146,183620,5,0,2:0:0:0:
215,242,183786,1,0,2:0:0:0:
345,171,183953,1,0,3:0:0:0:
62,70,184120,6,0,P|19:155|81:235,1,200,0|0,3:0|2:0,2:0:0:0:
345,171,184620,2,0,P|303:143|254:139,1,100,0|0,3:0|2:0,2:0:0:0:
106,146,184953,1,0,0:0:0:0:
345,171,185120,5,0,3:0:0:0:
106,146,185286,1,0,2:0:0:0:
260,38,185453,1,0,2:0:0:0:
271,226,185620,5,0,3:0:0:0:
379,82,185786,1,0,2:0:0:0:
392,328,185953,1,0,2:0:0:0:
345,171,186120,6,0,P|377:124|370:53,1,100,0|0,3:0|2:0,2:0:0:0:
187,35,186453,1,0,2:0:0:0:
176,202,186620,2,0,P|272:229|353:142,1,200,0|0,3:0|2:0,2:0:0:0:
187,35,187120,6,0,P|137:31|88:43,1,100,0|0,3:0|2:0,2:0:0:0:
252,142,187453,1,0,2:0:0:0:
283,13,187620,1,0,3:0:0:0:
344,170,187786,2,0,P|312:250|312:298,1,100,0|0,2:0|2:0,2:0:0:0:
176,202,188120,6,0,P|127:194|80:211,1,100,0|0,3:0|2:0,2:0:0:0:
142,326,188453,1,0,2:0:0:0:
259,187,188620,2,0,P|234:144|192:117,1,100,0|0,3:0|2:0,2:0:0:0:
80,211,188953,5,0,0:0:0:0:
335,221,189120,2,0,P|340:171|322:125,1,100,0|0,3:0|2:0,2:0:0:0:
192,117,189453,1,0,2:0:0:0:
369,296,189620,6,0,P|403:260|417:212,1,100,0|0,3:0|2:0,2:0:0:0:
322,125,189953,1,0,0:0:0:0:
289,303,190120,2,0,P|295:329|369:375,1,100,0|0,3:0|2:0,2:0:0:0:
322,125,190453,5,0,2:0:0:0:
289,303,190620,2,0,P|179:309|125:204,1,200,0|0,3:0|2:0,2:0:0:0:
226,226,191120,5,0,3:0:0:0:
289,303,191286,1,0,2:0:0:0:
378,249,191453,1,0,2:0:0:0:
413,228,191620,5,0,3:0:0:0:
226,226,191786,1,0,2:0:0:0:
118,111,191953,1,0,2:0:0:0:
128,245,192120,5,0,3:0:0:0:
289,303,192286,1,0,2:0:0:0:
301,156,192453,1,0,2:0:0:0:
185,335,192620,5,0,2:0:0:0:
368,236,192786,1,0,2:0:0:0:
194,162,192953,1,0,2:0:0:0:
289,303,193120,5,0,2:0:0:0:
301,156,193286,1,0,2:0:0:0:
128,245,193453,1,0,2:0:0:0:
368,236,193620,5,0,3:0:0:0:
194,162,193786,1,0,2:0:0:0:
185,335,193953,1,0,2:0:0:0:
368,236,194120,5,0,1:0:0:0:
333,99,194286,1,0,2:0:0:0:
194,162,194453,1,0,1:0:0:0:
368,236,194620,5,0,3:0:0:0:
283,154,194786,1,0,1:0:0:0:
259,261,194953,1,0,2:0:0:0:
368,236,195120,5,0,1:0:0:0:
305,216,195286,1,0,2:0:0:0:
323,280,195453,1,0,2:0:0:0:
432,34,195620,5,4,3:0:0:0:
131,53,196120,6,0,B|238:54|235:155|235:155|348:120|369:237|369:237|464:194|480:114|430:29,1,600,0|0,1:0|1:0,2:0:0:0:
432,34,199120,5,0,1:0:0:0:
432,34,200120,6,0,B|395:86|385:148|385:148|376:73|285:57|285:57|264:108|193:142|193:142|245:115|304:147|304:147|235:197|235:197|277:178|401:157|432:407|262:399|186:370|145:308|174:248|174:248|99:224|97:125,1,1200,0|0,1:0|1:0,2:0:0:0:
256,192,204370,12,0,205870,2:0:0:0:
65,290,206120,6,0,B|117:268|151:219|151:219|151:286|126:347|126:347|167:326|220:342,1,300,0|0,1:0|1:0,2:0:0:0:
446,248,208120,6,0,B|461:186|373:152|373:152|326:169|290:140|290:140|301:221|363:242|363:242|320:277|334:335|334:335|220:277|175:340,1,600,0|0,1:0|1:0,2:0:0:0:
256,192,210370,12,0,211870,2:0:0:0:
206,43,212120,6,0,B|144:87|134:165|134:165|291:230|329:94|329:94|338:187|443:177|443:177|434:212|461:237,1,600,0|0,1:0|1:0,2:0:0:0:
449,222,215120,5,0,1:0:0:0:
449,222,216120,6,0,B|387:220|351:170|351:170|321:229|350:280|350:280|314:212|262:191|262:191|275:100|350:89|350:89|288:81|247:41|247:41|192:96|172:187|193:232|193:232|91:173|91:173|87:256|87:256|113:283|171:310|221:343|266:258,1,1200,0|0,1:0|1:0,2:0:0:0:
256,192,220370,12,0,221870,2:0:0:0:
153,48,222120,6,0,B|155:106|107:155|107:155|175:138|216:148|216:148|188:177|183:220,2,300,0|0|0,1:0|1:0|1:0,2:0:0:0:
256,192,224370,12,0,225870,2:0:0:0:
150,215,226120,6,0,B|234:166|323:216|323:216|257:283|257:283|194:272|194:272|137:310|59:280|41:190|107:143|147:142,1,600,0|0,1:0|1:0,2:0:0:0:
102,145,252120,6,0,B|152:147|188:107|188:107|249:186|249:186|227:100|334:29|410:33|507:182|363:249,1,600,0|0,1:0|1:0,2:0:0:0:
342,161,255120,5,0,1:0:0:0:
342,161,256120,6,0,B|313:73|313:73|265:163|265:163|294:238|294:238|243:311|243:311|183:157|183:157|234:70,1,600,0|0,1:0|1:0,2:0:0:0:
256,192,260119,12,0,266120,2:0:0:0:
263,129,268120,5,0,3:0:0:0:
190,341,268286,1,0,2:0:0:0:
334,290,268453,1,0,2:0:0:0:
90,178,268620,1,0,3:0:0:0:
195,262,268786,1,0,2:0:0:0:
327,217,268953,1,0,2:0:0:0:
205,61,269120,5,0,3:0:0:0:
195,262,269286,1,0,2:0:0:0:
327,217,269453,1,0,2:0:0:0:
90,178,269620,1,0,3:0:0:0:
280,129,269786,1,0,2:0:0:0:
66,189,269953,1,0,2:0:0:0:
312,117,270120,5,0,3:0:0:0:
195,262,270286,1,0,2:0:0:0:
426,189,270453,1,0,2:0:0:0:
230,119,270620,1,0,3:0:0:0:
453,196,270786,1,0,2:0:0:0:
206,110,270953,1,0,2:0:0:0:
344,264,271120,5,0,3:0:0:0:
315,125,271286,1,0,2:0:0:0:
174,213,271453,1,0,2:0:0:0:
427,282,271620,1,0,3:0:0:0:
300,99,271786,1,0,2:0:0:0:
443,302,271953,1,0,2:0:0:0:
231,121,272120,5,0,3:0:0:0:
341,294,272286,1,0,2:0:0:0:
359,128,272453,1,0,2:0:0:0:
189,248,272620,1,0,3:0:0:0:
443,302,272786,1,0,2:0:0:0:
163,238,272953,1,0,2:0:0:0:
458,232,273120,5,0,3:0:0:0:
163,238,273286,1,0,2:0:0:0:
224,92,273453,1,0,2:0:0:0:
368,327,273620,1,0,3:0:0:0:
419,133,273786,1,0,2:0:0:0:
142,253,273953,1,0,2:0:0:0:
383,349,274120,5,0,3:0:0:0:
254,134,274286,1,0,2:0:0:0:
259,314,274453,1,0,2:0:0:0:
445,118,274620,1,0,3:0:0:0:
154,153,274786,1,0,2:0:0:0:
273,340,274953,1,0,2:0:0:0:
356,96,275120,5,0,3:0:0:0:
177,54,275286,1,0,2:0:0:0:
165,247,275453,1,0,2:0:0:0:
296,0,275620,1,0,3:0:0:0:
177,226,275786,1,0,2:0:0:0:
287,30,275953,1,0,2:0:0:0:
315,257,276120,5,0,3:0:0:0:
54,140,276286,1,0,2:0:0:0:
180,300,276453,1,0,2:0:0:0:
287,30,276620,1,0,3:0:0:0:
66,161,276786,1,0,2:0:0:0:
164,277,276953,1,0,2:0:0:0:
282,57,277120,5,0,3:0:0:0:
115,220,277286,1,0,2:0:0:0:
271,333,277453,1,0,2:0:0:0:
210,86,277620,1,0,3:0:0:0:
362,219,277786,1,0,2:0:0:0:
115,220,277953,1,0,2:0:0:0:
370,96,278120,5,0,3:0:0:0:
271,333,278286,1,0,2:0:0:0:
181,161,278453,1,0,2:0:0:0:
451,235,278620,1,0,3:0:0:0:
160,312,278786,1,0,2:0:0:0:
186,133,278953,1,0,2:0:0:0:
271,333,279120,5,0,3:0:0:0:
325,139,279286,1,0,2:0:0:0:
138,212,279453,1,0,2:0:0:0:
414,310,279620,1,0,3:0:0:0:
289,208,279786,1,0,2:0:0:0:
392,93,279953,1,0,2:0:0:0:
420,339,280120,5,0,3:0:0:0:
214,253,280286,1,0,2:0:0:0:
337,130,280453,1,0,2:0:0:0:
271,333,280620,1,0,3:0:0:0:
443,228,280786,1,0,2:0:0:0:
183,146,280953,1,0,2:0:0:0:
470,233,281120,5,0,3:0:0:0:
214,253,281286,1,0,2:0:0:0:
502,247,281453,1,0,2:0:0:0:
363,100,281620,1,0,3:0:0:0:
404,333,281786,1,0,2:0:0:0:
366,124,281953,1,0,2:0:0:0:
409,360,282120,5,0,3:0:0:0:
253,109,282286,1,0,2:0:0:0:
469,271,282453,1,0,2:0:0:0:
165,209,282620,1,0,3:0:0:0:
434,141,282786,1,0,2:0:0:0:
168,317,282953,1,0,2:0:0:0:
440,266,283120,5,0,3:0:0:0:
165,209,283286,1,0,2:0:0:0:
384,64,283453,1,0,2:0:0:0:
144,226,283620,1,0,3:0:0:0:
408,43,283786,1,0,2:0:0:0:
349,275,283953,1,0,2:0:0:0:
232,70,284120,5,0,3:0:0:0:
439,189,284286,1,0,2:0:0:0:
254,344,284453,1,0,2:0:0:0:
312,95,284620,1,0,3:0:0:0:
349,275,284786,1,0,2:0:0:0:
142,145,284953,1,0,2:0:0:0:
374,289,285120,5,0,3:0:0:0:
421,56,285286,1,0,2:0:0:0:
213,264,285453,1,0,2:0:0:0:
485,193,285620,1,0,3:0:0:0:
190,275,285786,1,0,2:0:0:0:
265,10,285953,1,0,2:0:0:0:
288,351,286120,5,0,3:0:0:0:
485,193,286286,1,0,2:0:0:0:
206,108,286453,1,0,2:0:0:0:
299,373,286620,1,0,3:0:0:0:
415,86,286786,1,0,2:0:0:0:
177,110,286953,1,0,2:0:0:0:
422,319,287120,5,0,3:0:0:0:
324,86,287286,1,0,2:0:0:0:
190,275,287453,1,0,2:0:0:0:
455,254,287620,1,0,3:0:0:0:
283,69,287786,1,0,2:0:0:0:
202,296,287953,1,0,2:0:0:0:
483,144,288120,5,0,3:0:0:0:
162,83,288286,1,0,2:0:0:0:
305,313,288453,1,0,2:0:0:0:
283,69,288620,1,0,3:0:0:0:
29,275,288786,1,0,2:0:0:0:
334,314,288953,1,0,2:0:0:0:
110,109,289120,5,0,3:0:0:0:
365,318,289286,1,0,2:0:0:0:
390,67,289453,1,0,2:0:0:0:
169,275,289620,1,0,3:0:0:0:
437,183,289786,1,0,2:0:0:0:
82,101,289953,1,0,2:0:0:0:
338,276,290120,5,0,3:0:0:0:
202,65,290286,1,0,2:0:0:0:
246,354,290453,1,0,2:0:0:0:
361,65,290620,1,0,3:0:0:0:
169,275,290786,1,0,2:0:0:0:
382,43,290953,1,0,2:0:0:0:
136,167,291120,5,0,3:0:0:0:
479,168,291286,1,0,2:0:0:0:
257,36,291453,1,0,2:0:0:0:
377,309,291620,1,0,3:0:0:0:
111,153,291786,1,0,2:0:0:0:
512,173,291953,1,0,2:0:0:0:
201,252,292120,5,0,3:0:0:0:
392,67,292286,1,0,2:0:0:0:
181,277,292453,1,0,2:0:0:0:
419,40,292620,1,0,3:0:0:0:
377,309,292786,1,0,2:0:0:0:
184,47,292953,1,0,2:0:0:0:
467,186,293120,5,0,3:0:0:0:
102,138,293286,1,0,2:0:0:0:
254,345,293453,1,0,2:0:0:0:
497,171,293620,1,0,3:0:0:0:
71,129,293786,1,0,2:0:0:0:
274,366,293953,1,0,2:0:0:0:
322,0,294120,5,0,3:0:0:0:
104,206,294286,1,0,2:0:0:0:
375,111,294453,1,0,2:0:0:0:
274,366,294620,1,0,3:0:0:0:
104,206,294786,1,0,2:0:0:0:
375,111,294953,1,0,2:0:0:0:
274,366,295120,5,0,3:0:0:0:
457,186,295286,1,0,2:0:0:0:
254,38,295453,1,0,2:0:0:0:
395,307,295620,1,0,3:0:0:0:
402,53,295786,1,0,2:0:0:0:
181,284,295953,1,0,2:0:0:0:
100,36,296120,5,0,3:0:0:0:
189,313,296286,1,0,2:0:0:0:
254,38,296453,1,0,2:0:0:0:
45,200,296620,1,0,3:0:0:0:
393,237,296786,1,0,2:0:0:0:
237,14,296953,1,0,2:0:0:0:
181,284,297120,5,0,3:0:0:0:
467,64,297286,1,0,2:0:0:0:
159,307,297453,1,0,2:0:0:0:
494,45,297620,1,0,3:0:0:0:
390,235,297786,1,0,2:0:0:0:
242,44,297953,1,0,2:0:0:0:
281,295,298120,6,0,P|393:341|368:224,1,269.999991760254,0|0,3:0|2:0,2:0:0:0:
349,289,299120,5,0,2:0:0:0:
192,119,299620,5,0,3:0:0:0:
349,289,299786,1,0,3:0:0:0:
187,114,299953,1,0,3:0:0:0:
356,293,300120,5,0,3:0:0:0:
386,32,300286,1,0,2:0:0:0:
356,293,300453,1,0,2:0:0:0:
124,165,300620,1,0,3:0:0:0:
384,138,300786,1,0,2:0:0:0:
242,359,300953,1,0,2:0:0:0:
237,96,301120,1,0,3:0:0:0:
451,245,301286,1,0,2:0:0:0:
188,265,301453,1,0,2:0:0:0:
314,34,301620,5,0,3:0:0:0:
356,293,301786,1,0,2:0:0:0:
126,156,301953,1,0,2:0:0:0:
397,97,302120,1,0,3:0:0:0:
228,333,302286,1,0,2:0:0:0:
207,55,302453,1,0,2:0:0:0:
232,357,302620,1,0,3:0:0:0:
203,29,302786,1,0,2:0:0:0:
368,206,302953,1,0,2:0:0:0:
38,144,303120,5,0,3:0:0:0:
314,308,303286,1,0,2:0:0:0:
416,42,303453,1,0,2:0:0:0:
300,336,303620,1,0,3:0:0:0:
429,17,303786,1,0,2:0:0:0:
430,276,303953,1,0,2:0:0:0:
158,115,304120,1,0,3:0:0:0:
457,291,304286,1,0,2:0:0:0:
130,98,304453,1,0,2:0:0:0:
455,6,304620,5,0,3:0:0:0:
257,311,304786,1,0,2:0:0:0:
351,46,304953,1,0,2:0:0:0:
152,363,305120,1,0,3:0:0:0:
257,87,305286,1,0,2:0:0:0:
48,251,305453,1,0,2:0:0:0:
400,209,305620,1,0,3:0:0:0:
37,93,305786,1,0,2:0:0:0:
257,311,305953,1,0,2:0:0:0:
258,64,306120,5,0,3:0:0:0:
82,360,306286,1,0,2:0:0:0:
419,139,306453,1,0,2:0:0:0:
7,91,306620,1,0,3:0:0:0:
455,192,306786,1,0,2:0:0:0:
40,244,306953,1,0,2:0:0:0:
258,64,307120,1,0,3:0:0:0:
82,360,307286,1,0,2:0:0:0:
482,265,307453,1,0,2:0:0:0:
149,17,307620,5,0,3:0:0:0:
316,346,307786,1,0,2:0:0:0:
149,17,307953,1,0,2:0:0:0:
80,288,308120,1,0,3:0:0:0:
381,122,308286,1,0,2:0:0:0:
42,187,308453,1,0,2:0:0:0:
386,34,308620,1,0,3:0:0:0:
55,87,308786,1,0,2:0:0:0:
316,346,308953,1,0,2:0:0:0:
149,17,309120,5,0,3:0:0:0:
164,323,309286,1,0,2:0:0:0:
426,123,309453,1,0,2:0:0:0:
55,87,309620,1,0,3:0:0:0:
407,307,309786,1,0,2:0:0:0:
78,5,309953,1,0,2:0:0:0:
427,324,310120,1,0,3:0:0:0:
363,34,310286,1,0,2:0:0:0:
164,323,310453,1,0,2:0:0:0:
78,5,310620,5,0,3:0:0:0:
348,258,310786,1,0,2:0:0:0:
30,164,310953,1,0,2:0:0:0:
462,46,311120,1,0,3:0:0:0:
148,344,311286,1,0,2:0:0:0:
170,14,311453,1,0,2:0:0:0:
366,275,311620,1,0,3:0:0:0:
0,161,311786,1,0,2:0:0:0:
357,53,311953,1,0,2:0:0:0:
162,323,312120,5,0,3:0:0:0:
470,47,312286,1,0,2:0:0:0:
64,317,312453,1,0,2:0:0:0:
475,147,312620,1,0,3:0:0:0:
64,232,312786,1,0,2:0:0:0:
512,225,312953,1,0,2:0:0:0:
162,323,313120,1,0,3:0:0:0:
470,47,313286,1,0,2:0:0:0:
64,317,313453,1,0,2:0:0:0:
475,147,313620,5,0,3:0:0:0:
63,88,313786,1,0,2:0:0:0:
393,318,313953,1,0,2:0:0:0:
272,53,314120,1,0,3:0:0:0:
64,317,314286,1,0,2:0:0:0:
470,47,314453,1,0,2:0:0:0:
256,351,314620,1,0,3:0:0:0:
152,22,314786,1,0,2:0:0:0:
393,318,314953,1,0,2:0:0:0:
37,76,315120,5,0,3:0:0:0:
403,53,315286,1,0,2:0:0:0:
105,348,315453,1,0,2:0:0:0:
423,306,315620,1,0,3:0:0:0:
255,0,315786,1,0,2:0:0:0:
256,351,315953,1,0,2:0:0:0:
503,195,316120,1,0,3:0:0:0:
103,79,316286,1,0,2:0:0:0:
256,351,316453,1,0,2:0:0:0:
417,0,316620,5,0,3:0:0:0:
90,278,316786,1,0,2:0:0:0:
464,300,316953,1,0,2:0:0:0:
98,76,317120,1,0,3:0:0:0:
152,369,317286,1,0,2:0:0:0:
492,156,317453,1,0,2:0:0:0:
57,162,317620,1,0,3:0:0:0:
276,370,317786,1,0,2:0:0:0:
417,0,317953,1,0,2:0:0:0:
57,162,318120,5,0,3:0:0:0:
276,370,318286,1,0,2:0:0:0:
274,27,318453,1,0,2:0:0:0:
56,316,318620,1,0,3:0:0:0:
434,238,318786,1,0,2:0:0:0:
92,50,318953,1,0,2:0:0:0:
429,40,319120,1,0,3:0:0:0:
261,325,319286,1,0,2:0:0:0:
417,63,319453,1,0,2:0:0:0:
245,349,319620,5,0,3:0:0:0:
471,194,319786,1,0,2:0:0:0:
92,50,319953,1,0,2:0:0:0:
417,63,320120,1,0,3:0:0:0:
60,270,320286,1,0,2:0:0:0:
260,0,320453,1,0,2:0:0:0:
261,325,320620,1,0,3:0:0:0:
39,121,320786,1,0,2:0:0:0:
487,122,320953,1,0,2:0:0:0:
87,272,321120,5,0,3:0:0:0:
467,272,321286,1,0,2:0:0:0:
110,28,321453,1,0,2:0:0:0:
363,320,321620,1,0,3:0:0:0:
195,1,321786,1,0,2:0:0:0:
262,328,321953,1,0,2:0:0:0:
38,85,322120,1,0,3:0:0:0:
445,79,322286,1,0,2:0:0:0:
87,272,322453,1,0,2:0:0:0:
195,1,322620,5,0,3:0:0:0:
363,320,322786,1,0,2:0:0:0:
110,28,322953,1,0,2:0:0:0:
426,178,323120,1,0,3:0:0:0:
6,179,323286,1,0,2:0:0:0:
454,299,323453,1,0,2:0:0:0:
195,1,323620,1,0,3:0:0:0:
186,332,323786,1,0,2:0:0:0:
51,98,323953,1,0,2:0:0:0:
426,178,324120,5,0,3:0:0:0:
186,332,324286,1,0,2:0:0:0:
195,1,324453,1,0,2:0:0:0:
0,321,324620,1,0,3:0:0:0:
34,22,324786,1,0,2:0:0:0:
361,310,324953,1,0,2:0:0:0:
0,169,325120,1,0,3:0:0:0:
399,78,325286,1,0,2:0:0:0:
34,22,325453,1,0,2:0:0:0:
340,293,325620,5,0,3:0:0:0:
50,42,325786,1,0,2:0:0:0:
399,78,325953,1,0,2:0:0:0:
208,384,326120,1,0,3:0:0:0:
18,166,326286,1,0,2:0:0:0:
399,78,326453,1,0,2:0:0:0:
407,350,326620,1,0,3:0:0:0:
78,74,326786,1,0,2:0:0:0:
458,189,326953,1,0,2:0:0:0:
256,0,327120,5,0,3:0:0:0:
95,343,327286,1,0,2:0:0:0:
443,57,327453,1,0,2:0:0:0:
91,225,327620,1,0,3:0:0:0:
464,34,327786,1,0,2:0:0:0:
222,349,327953,1,0,2:0:0:0:
488,13,328120,1,0,3:0:0:0:
145,298,328286,1,0,2:0:0:0:
512,0,328453,1,0,2:0:0:0:
200,257,328620,5,0,3:0:0:0:
59,56,328786,1,0,2:0:0:0:
451,338,328953,1,0,2:0:0:0:
40,38,329120,1,0,2:0:0:0:
471,356,329286,1,0,3:0:0:0:
31,358,329453,1,0,2:0:0:0:
470,39,329620,1,0,3:0:0:0:
27,272,329786,1,0,2:0:0:0:
500,116,329953,1,0,2:0:0:0:
0,0,330120,5,0,3:0:0:0:
256,384,330620,5,0,3:0:0:0:
512,0,331120,5,0,3:0:0:0:
