osu file format v14

[General]
AudioFilename: audio.mp3
AudioLeadIn: 0
PreviewTime: -1
Countdown: 0
SampleSet: Normal
StackLeniency: 0.7
Mode: 2
LetterboxInBreaks: 0
WidescreenStoryboard: 0

[Editor]
Bookmarks: 19913,29810,39707,42181,52078,61975,71872,81769,101563,111460,121357,131254,141150,151047,160944,170841
DistanceSpacing: 1.3
BeatDivisor: 4
GridSize: 16
TimelineZoom: 3.699998

[Metadata]
Title:Dessert (VEGA Remix)
TitleUnicode:Dessert (VEGA Remix)
Artist:Dawin
ArtistUnicode:Dawin
Creator:Pohm
Version:TwerkDose
Source:
Tags:
BeatmapID:1549264
BeatmapSetID:734237

[Difficulty]
HPDrainRate:4
CircleSize:4
OverallDifficulty:9.2
ApproachRate:9.2
SliderMultiplier:1.4
SliderTickRate:1

[Events]
//Background and Video events
0,0,"67203908_p0.jpg",0,0
//Break Periods
//Storyboard Layer 0 (Background)
//Storyboard Layer 1 (Fail)
//Storyboard Layer 2 (Pass)
//Storyboard Layer 3 (Foreground)
//Storyboard Sound Samples

[TimingPoints]
120,309.278350515464,4,1,0,100,1,0
38625,-66.6666666666667,4,1,0,100,0,0
39089,-100,4,1,0,100,0,0
42800,-66.6666666666667,4,1,0,100,0,0
44656,-100,4,1,0,100,0,0
45274,-66.6666666666667,4,1,0,100,0,0
47130,-100,4,1,0,100,0,0
47748,-66.6666666666667,4,1,0,100,0,0
61975,-100,4,1,0,100,0,0
62594,-66.6666666666667,4,1,0,100,0,0
64449,-100,4,1,0,100,0,0
65068,-66.6666666666667,4,1,0,100,0,0
66924,-100,4,1,0,100,0,0
67542,-66.6666666666667,4,1,0,100,0,0
111464,-50,4,1,0,100,0,0
162336,-100,4,1,0,100,0,0
162800,-66.6666666666667,4,1,0,100,0,0
163418,-50,4,1,0,100,0,0
170841,-100,4,1,0,100,0,0

[HitObjects]
64,192,19913,5,0,0:0:0:0:
124,192,20068,1,0,0:0:0:0:
186,193,20223,1,0,0:0:0:0:
244,192,20377,1,0,0:0:0:0:
338,192,20532,1,0,0:0:0:0:
384,192,20687,1,0,0:0:0:0:
423,191,20841,1,0,0:0:0:0:
384,192,20996,1,0,0:0:0:0:
320,192,21150,1,0,0:0:0:0:
80,192,21305,5,0,0:0:0:0:
135,188,21460,1,0,0:0:0:0:
183,193,21614,1,0,0:0:0:0:
272,192,21769,1,0,0:0:0:0:
213,199,21924,1,0,0:0:0:0:
144,192,22078,1,0,0:0:0:0:
208,192,22233,1,0,0:0:0:0:
400,192,22388,1,0,0:0:0:0:
128,192,22542,1,0,0:0:0:0:
107,194,22697,1,0,0:0:0:0:
192,192,22851,1,0,0:0:0:0:
256,192,23006,1,0,0:0:0:0:
320,192,23161,1,0,0:0:0:0:
384,192,23315,1,0,0:0:0:0:
436,194,23470,1,0,0:0:0:0:
384,192,23625,5,0,0:0:0:0:
16,192,23779,1,0,0:0:0:0:
65,191,23934,1,0,0:0:0:0:
127,191,24089,1,0,0:0:0:0:
187,187,24243,1,0,0:0:0:0:
248,186,24398,1,0,0:0:0:0:
80,192,24552,1,0,0:0:0:0:
400,192,24707,1,0,0:0:0:0:
28,194,24862,5,0,0:0:0:0:
80,192,25016,1,0,0:0:0:0:
136,192,25171,1,0,0:0:0:0:
205,192,25326,1,0,0:0:0:0:
280,189,25480,1,0,0:0:0:0:
331,188,25635,1,0,0:0:0:0:
385,189,25790,1,0,0:0:0:0:
452,183,25944,1,0,0:0:0:0:
400,188,26099,1,0,0:0:0:0:
164,192,26254,1,0,0:0:0:0:
236,196,26408,1,0,0:0:0:0:
286,198,26563,1,0,0:0:0:0:
219,194,26717,1,0,0:0:0:0:
402,202,26872,1,0,0:0:0:0:
89,192,27027,1,0,0:0:0:0:
356,191,27181,1,0,0:0:0:0:
89,192,27336,5,0,0:0:0:0:
368,192,27491,1,0,0:0:0:0:
378,145,27568,1,0,0:0:0:0:
363,94,27645,1,0,0:0:0:0:
144,192,27800,1,0,0:0:0:0:
208,192,27955,1,0,0:0:0:0:
272,192,28109,1,0,0:0:0:0:
336,192,28264,1,0,0:0:0:0:
272,192,28418,1,0,0:0:0:0:
208,192,28496,1,0,0:0:0:0:
80,32,28573,1,0,0:0:0:0:
144,80,28676,1,0,0:0:0:0:
208,128,28779,1,0,0:0:0:0:
272,176,28882,1,0,0:0:0:0:
336,224,28985,1,0,0:0:0:0:
400,272,29089,1,0,0:0:0:0:
336,224,29192,1,0,0:0:0:0:
272,176,29295,1,0,0:0:0:0:
208,128,29398,1,0,0:0:0:0:
144,80,29501,1,0,0:0:0:0:
80,32,29604,1,0,0:0:0:0:
144,80,29707,1,0,0:0:0:0:
80,32,29810,5,0,0:0:0:0:
448,192,30120,1,0,0:0:0:0:
128,192,30429,1,0,0:0:0:0:
384,192,30739,1,0,0:0:0:0:
96,192,31047,1,0,0:0:0:0:
416,192,31357,1,0,0:0:0:0:
96,192,31666,1,0,0:0:0:0:
416,192,31976,1,0,0:0:0:0:
128,192,32284,5,0,0:0:0:0:
384,192,32594,1,0,0:0:0:0:
160,192,32903,1,0,0:0:0:0:
352,192,33213,1,0,0:0:0:0:
128,192,33521,1,0,0:0:0:0:
384,192,33831,1,0,0:0:0:0:
128,192,34140,1,0,0:0:0:0:
384,192,34449,1,0,0:0:0:0:
384,192,34759,5,0,0:0:0:0:
256,96,34913,1,0,0:0:0:0:
384,192,35068,1,0,0:0:0:0:
128,192,35223,1,0,0:0:0:0:
256,96,35377,1,0,0:0:0:0:
128,192,35532,1,0,0:0:0:0:
384,192,35687,1,0,0:0:0:0:
256,96,35841,1,0,0:0:0:0:
384,192,35996,1,0,0:0:0:0:
128,192,36150,1,0,0:0:0:0:
256,96,36304,1,0,0:0:0:0:
128,192,36459,1,0,0:0:0:0:
384,192,36614,1,0,0:0:0:0:
256,96,36768,1,0,0:0:0:0:
384,192,36923,1,0,0:0:0:0:
128,192,37077,1,0,0:0:0:0:
192,128,37156,1,0,0:0:0:0:
256,96,37231,1,0,0:0:0:0:
128,192,37386,1,0,0:0:0:0:
384,192,37542,1,0,0:0:0:0:
256,96,37696,1,0,0:0:0:0:
384,192,37851,1,0,0:0:0:0:
320,128,37929,1,0,0:0:0:0:
128,64,38005,1,0,0:0:0:0:
256,96,38159,1,0,0:0:0:0:
128,192,38315,1,0,0:0:0:0:
256,96,38470,1,0,0:0:0:0:
224,192,38625,6,0,L|32:64,1,210.000008010865
256,192,39089,2,0,P|288:128|224:64,1,140
160,160,39552,1,0,0:0:0:0:
256,192,39630,1,0,0:0:0:0:
352,224,39707,1,0,0:0:0:0:
256,192,39862,5,0,0:0:0:0:
384,192,40016,1,0,0:0:0:0:
256,192,40326,1,0,0:0:0:0:
384,192,40480,1,0,0:0:0:0:
256,192,40635,1,0,0:0:0:0:
160,192,40944,1,0,0:0:0:0:
256,192,41099,1,0,0:0:0:0:
416,192,41254,1,0,0:0:0:0:
224,192,41408,1,0,0:0:0:0:
64,192,41563,1,0,0:0:0:0:
288,192,42181,6,0,P|416:160|480:96,1,210
64,128,42800,2,0,P|256:224|448:128,2,420.000016021729
352,160,44346,1,0,0:0:0:0:
64,192,44656,6,0,L|256:96,1,210
32,160,45274,2,0,P|224:256|416:160,2,420.000016021729
192,192,46821,1,0,0:0:0:0:
320,192,47130,6,0,P|448:160|512:96,1,210
96,128,47749,2,0,P|288:224|480:128,2,420.000016021729
416,160,49295,1,0,0:0:0:0:
128,192,49604,5,0,0:0:0:0:
288,192,49759,1,0,0:0:0:0:
480,192,49913,1,0,0:0:0:0:
352,160,50223,1,0,0:0:0:0:
128,160,50377,1,0,0:0:0:0:
384,160,50532,1,0,0:0:0:0:
96,128,50841,1,0,0:0:0:0:
288,128,51150,1,0,0:0:0:0:
192,160,51460,1,0,0:0:0:0:
480,96,51769,1,0,0:0:0:0:
320,192,52078,6,0,B|64:128|64:128|160:96,1,315.000012016297
256,64,52697,1,0,0:0:0:0:
416,128,52851,2,0,B|480:192|480:192|256:192,1,315.000012016297
352,192,53470,1,0,0:0:0:0:
256,192,53625,2,0,B|32:128|32:128|128:96,1,315.000012016297
192,128,54243,1,0,0:0:0:0:
352,128,54398,6,0,L|480:192,1,105.000004005432
160,128,54707,2,0,L|32:192,1,105.000004005432
399,254,55016,2,0,L|371:200,3,52.5000020027161
128,192,55326,2,0,L|103:146,3,52.5000020027161
256,64,55635,1,0,0:0:0:0:
384,128,55789,2,0,B|448:192|448:192|224:224,1,315.000012016297
416,192,56408,1,0,0:0:0:0:
128,192,56563,1,0,0:0:0:0:
384,192,56717,2,0,P|256:128|160:64,1,210.000008010865
320,160,57181,5,0,0:0:0:0:
192,160,57336,2,0,B|64:192|416:256,1,315.000012016297
128,192,57955,1,0,0:0:0:0:
256,192,58109,2,0,L|352:128,1,105.000004005432
128,160,58418,1,0,0:0:0:0:
320,192,58573,2,0,L|416:128,1,105.000004005432
128,128,58882,1,0,0:0:0:0:
352,192,59037,2,0,L|448:128,1,105.000004005432
128,96,59346,1,0,0:0:0:0:
416,128,59501,5,0,0:0:0:0:
288,160,59656,1,0,0:0:0:0:
96,192,59810,2,0,L|320:128,1,210.000008010865
416,128,60275,1,0,0:0:0:0:
192,160,60429,2,0,B|64:64|128:128,1,105.000004005432
331,90,60738,1,0,0:0:0:0:
385,102,60815,1,0,0:0:0:0:
434,137,60893,1,0,0:0:0:0:
401,180,60970,1,0,0:0:0:0:
358,206,61047,1,0,0:0:0:0:
319,227,61125,1,0,0:0:0:0:
171,269,61202,1,0,0:0:0:0:
125,231,61279,1,0,0:0:0:0:
83,181,61357,1,0,0:0:0:0:
55,119,61460,1,0,0:0:0:0:
185,82,61563,1,0,0:0:0:0:
320,37,61666,1,0,0:0:0:0:
222,157,61769,1,0,0:0:0:0:
361,111,61872,1,0,0:0:0:0:
471,108,61975,6,0,P|390:173|288:192,1,210
64,128,62594,2,0,P|256:224|448:128,2,420.000016021729
192,160,63985,1,0,0:0:0:0:
352,160,64140,1,0,0:0:0:0:
192,160,64295,1,0,0:0:0:0:
64,192,64450,6,0,L|256:96,1,210
32,160,65068,2,0,P|224:256|416:160,2,420.000016021729
192,192,66615,1,0,0:0:0:0:
320,192,66924,6,0,P|448:160|512:96,1,210
96,128,67543,2,0,P|288:224|480:128,2,420.000016021729
224,160,68934,1,0,0:0:0:0:
416,160,69089,1,0,0:0:0:0:
224,160,69243,1,0,0:0:0:0:
384,160,69398,5,0,0:0:0:0:
128,160,69553,1,0,0:0:0:0:
352,160,69707,1,0,0:0:0:0:
480,192,70017,1,0,0:0:0:0:
288,192,70171,1,0,0:0:0:0:
128,192,70326,1,0,0:0:0:0:
288,128,70635,1,0,0:0:0:0:
96,128,70944,1,0,0:0:0:0:
480,96,71254,1,0,0:0:0:0:
192,160,71563,1,0,0:0:0:0:
320,192,71872,6,0,B|64:128|64:128|160:96,1,315.000012016297
256,64,72491,1,0,0:0:0:0:
256,192,72645,2,0,L|128:160,3,105.000004005432
352,192,73264,1,0,0:0:0:0:
256,192,73419,2,0,B|32:128|32:128|128:96,1,315.000012016297
192,128,74037,1,0,0:0:0:0:
352,128,74192,6,0,L|480:192,1,105.000004005432
160,128,74501,2,0,L|32:192,1,105.000004005432
448,192,74810,2,0,L|320:160,3,105.000004005432
256,64,75429,1,0,0:0:0:0:
416,96,75583,2,0,B|480:160|480:160|256:192,1,315.000012016297
416,192,76202,1,0,0:0:0:0:
128,192,76357,1,0,0:0:0:0:
384,192,76511,2,0,P|256:128|160:64,1,210.000008010865
320,160,76975,5,0,0:0:0:0:
96,160,77130,2,0,B|-32:192|320:256,1,315.000012016297
256,192,77748,2,0,L|128:160,3,105.000004005432
352,192,78367,2,0,L|448:128,1,105.000004005432
128,128,78676,1,0,0:0:0:0:
347,150,78831,2,0,L|371:104,3,52.5000020027161
128,96,79140,1,0,0:0:0:0:
416,128,79295,5,0,0:0:0:0:
288,160,79450,1,0,0:0:0:0:
96,192,79604,2,0,L|320:128,1,210.000008010865
416,128,80069,1,0,0:0:0:0:
192,160,80223,2,0,B|64:64|128:128,1,105.000004005432
384,192,80532,1,0,0:0:0:0:
384,128,80609,1,0,0:0:0:0:
384,64,80687,1,0,0:0:0:0:
96,192,80841,1,0,0:0:0:0:
96,128,80918,1,0,0:0:0:0:
96,64,80996,1,0,0:0:0:0:
480,192,81150,1,0,0:0:0:0:
480,128,81227,1,0,0:0:0:0:
480,64,81305,1,0,0:0:0:0:
64,192,81460,1,0,0:0:0:0:
64,128,81537,1,0,0:0:0:0:
64,64,81615,1,0,0:0:0:0:
352,192,81769,5,0,0:0:0:0:
416,128,81924,1,0,0:0:0:0:
192,192,82078,1,0,0:0:0:0:
128,128,82233,1,0,0:0:0:0:
256,192,82388,1,0,0:0:0:0:
416,96,82542,1,0,0:0:0:0:
160,96,82697,1,0,0:0:0:0:
288,96,82851,1,0,0:0:0:0:
192,192,83006,2,0,L|320:192,1,105.000004005432
96,128,83315,1,0,0:0:0:0:
288,128,83470,1,0,0:0:0:0:
192,192,83625,2,0,L|320:192,1,105.000004005432
160,192,83934,1,0,0:0:0:0:
352,192,84089,1,0,0:0:0:0:
256,192,84243,6,0,L|160:96,1,105.000004005432
384,96,84552,1,0,0:0:0:0:
160,96,84707,1,0,0:0:0:0:
256,128,84862,1,0,0:0:0:0:
256,64,84939,1,0,0:0:0:0:
288,32,85016,1,0,0:0:0:0:
192,96,85171,1,0,0:0:0:0:
160,160,85326,1,0,0:0:0:0:
352,224,85480,2,0,L|480:192,1,105.000004005432
256,192,85790,1,0,0:0:0:0:
128,160,85944,1,0,0:0:0:0:
288,160,86099,2,0,L|160:128,1,105.000004005432
320,192,86408,1,0,0:0:0:0:
192,192,86563,1,0,0:0:0:0:
128,160,86717,6,0,L|256:96,1,105.000004005432
256,224,87027,1,0,0:0:0:0:
352,160,87181,1,0,0:0:0:0:
224,128,87336,1,0,0:0:0:0:
224,64,87413,1,0,0:0:0:0:
192,32,87491,1,0,0:0:0:0:
96,96,87645,1,0,0:0:0:0:
192,96,87800,1,0,0:0:0:0:
416,64,87955,2,0,L|288:128,1,105.000004005432
224,64,88264,1,0,0:0:0:0:
128,160,88418,1,0,0:0:0:0:
192,288,88573,2,0,L|320:288,3,105.000004005432
64,192,89192,6,0,L|96:64,1,105.000004005432
192,160,89501,1,0,0:0:0:0:
352,128,89656,1,0,0:0:0:0:
96,128,89810,2,0,L|224:96,1,105.000004005432
320,160,90120,2,0,L|448:128,1,105.000004005432
160,160,90429,2,0,L|96:80,1,70.0000026702882
384,160,90635,2,0,L|416:80,1,70.0000026702882
144,160,90841,2,0,L|80:80,1,70.0000026702882
400,160,91047,2,0,L|432:80,1,70.0000026702882
448,96,91254,1,0,0:0:0:0:
112,208,91357,1,0,0:0:0:0:
80,176,91434,1,0,0:0:0:0:
48,128,91511,1,0,0:0:0:0:
64,96,91589,1,0,0:0:0:0:
96,80,91666,5,0,0:0:0:0:
352,160,91821,1,0,0:0:0:0:
96,160,91975,1,0,0:0:0:0:
96,192,92130,1,0,0:0:0:0:
288,192,92284,1,0,0:0:0:0:
288,160,92439,1,0,0:0:0:0:
160,160,92594,1,0,0:0:0:0:
144,192,92748,1,0,0:0:0:0:
384,192,92902,1,0,0:0:0:0:
432,160,93058,1,0,0:0:0:0:
128,160,93212,1,0,0:0:0:0:
128,192,93367,1,0,0:0:0:0:
384,160,93521,1,0,0:0:0:0:
384,128,93676,1,0,0:0:0:0:
96,96,93830,1,0,0:0:0:0:
96,128,93985,1,0,0:0:0:0:
352,192,94139,5,0,0:0:0:0:
416,160,94296,1,0,0:0:0:0:
192,160,94450,1,0,0:0:0:0:
192,192,94605,1,0,0:0:0:0:
288,192,94759,1,0,0:0:0:0:
352,160,94913,1,0,0:0:0:0:
192,160,95067,1,0,0:0:0:0:
128,96,95222,1,0,0:0:0:0:
288,192,95376,1,0,0:0:0:0:
416,160,95532,1,0,0:0:0:0:
128,160,95686,1,0,0:0:0:0:
128,192,95841,1,0,0:0:0:0:
416,224,95995,1,0,0:0:0:0:
416,160,96150,1,0,0:0:0:0:
96,160,96304,1,0,0:0:0:0:
64,192,96459,1,0,0:0:0:0:
160,96,96614,6,0,L|113:119,1,52.5000020027161
384,96,96769,2,0,L|421:133,1,52.5000020027161
206,104,96924,2,0,L|160:128,1,52.5000020027161
410,90,97079,2,0,L|448:128,1,52.5000020027161
160,96,97233,2,0,L|113:119,1,52.5000020027161
384,96,97388,2,0,L|421:133,1,52.5000020027161
78,104,97542,2,0,L|32:128,1,52.5000020027161
282,90,97697,2,0,L|320:128,1,52.5000020027161
160,96,97851,2,0,L|113:119,1,52.5000020027161
384,96,98006,2,0,L|421:133,1,52.5000020027161
174,104,98160,2,0,L|128:128,1,52.5000020027161
378,90,98315,2,0,L|416:128,1,52.5000020027161
110,104,98470,2,0,L|64:128,1,52.5000020027161
378,90,98625,2,0,L|416:128,1,52.5000020027161
78,104,98779,2,0,L|32:128,1,52.5000020027161
384,224,98934,5,0,0:0:0:0:
416,192,98985,1,0,0:0:0:0:
448,160,99037,1,0,0:0:0:0:
416,112,99089,1,0,0:0:0:0:
160,208,99166,1,0,0:0:0:0:
128,192,99217,1,0,0:0:0:0:
96,160,99269,1,0,0:0:0:0:
112,112,99321,1,0,0:0:0:0:
368,208,99398,1,0,0:0:0:0:
416,192,99449,1,0,0:0:0:0:
448,160,99501,1,0,0:0:0:0:
448,112,99552,1,0,0:0:0:0:
160,208,99630,1,0,0:0:0:0:
112,192,99681,1,0,0:0:0:0:
96,160,99733,1,0,0:0:0:0:
96,128,99784,1,0,0:0:0:0:
384,208,99862,1,0,0:0:0:0:
400,192,99913,1,0,0:0:0:0:
448,160,99965,1,0,0:0:0:0:
464,112,100016,1,0,0:0:0:0:
160,208,100094,1,0,0:0:0:0:
128,176,100145,1,0,0:0:0:0:
128,144,100197,1,0,0:0:0:0:
160,112,100248,1,0,0:0:0:0:
352,208,100326,1,0,0:0:0:0:
416,176,100429,1,0,0:0:0:0:
464,128,100532,1,0,0:0:0:0:
416,176,100635,1,0,0:0:0:0:
292,159,100738,1,0,0:0:0:0:
344,121,100841,1,0,0:0:0:0:
400,82,100944,1,0,0:0:0:0:
191,153,101047,1,0,0:0:0:0:
137,108,101150,1,0,0:0:0:0:
80,65,101254,1,0,0:0:0:0:
208,144,101357,1,0,0:0:0:0:
288,112,101460,1,0,0:0:0:0:
400,48,101563,1,0,0:0:0:0:
256,192,101666,8,0,106511,0:0:0:0:
384,192,107748,5,0,0:0:0:0:
384,128,107825,1,0,0:0:0:0:
384,64,107903,1,0,0:0:0:0:
96,192,108057,1,0,0:0:0:0:
96,128,108134,1,0,0:0:0:0:
96,64,108212,1,0,0:0:0:0:
480,192,108366,1,0,0:0:0:0:
480,128,108443,1,0,0:0:0:0:
480,64,108521,1,0,0:0:0:0:
64,192,108676,1,0,0:0:0:0:
64,128,108753,1,0,0:0:0:0:
64,64,108831,1,0,0:0:0:0:
128,192,108985,2,0,L|368:160,1,210.000008010865
128,192,109449,1,0,0:0:0:0:
384,224,109604,2,0,P|160:192|48:128,1,315.000012016297
432,112,110223,2,0,L|224:160,1,210.000008010865
336,160,110687,1,0,0:0:0:0:
96,192,110841,1,0,0:0:0:0:
112,160,110918,1,0,0:0:0:0:
128,128,110996,1,0,0:0:0:0:
224,96,111073,1,0,0:0:0:0:
256,80,111150,1,0,0:0:0:0:
288,64,111228,1,0,0:0:0:0:
320,48,111305,1,0,0:0:0:0:
352,32,111382,1,0,0:0:0:0:
16,96,111460,6,0,P|256:176|432:208,1,420.000016021729
48,112,112233,1,0,0:0:0:0:
272,176,112388,1,0,0:0:0:0:
160,144,112542,1,0,0:0:0:0:
512,0,112697,2,0,L|0:304,1,560
336,192,113470,1,0,0:0:0:0:
112,192,113625,1,0,0:0:0:0:
432,192,113779,1,0,0:0:0:0:
16,16,113934,6,0,B|208:256|448:272|448:80,2,560
192,272,115326,1,0,0:0:0:0:
368,240,115480,1,0,0:0:0:0:
96,144,115635,1,0,0:0:0:0:
336,96,115790,1,0,0:0:0:0:
224,112,115944,2,0,L|368:240,1,140
96,144,116254,1,0,0:0:0:0:
512,0,116408,6,0,L|0:352,4,560
256,112,119037,1,0,0:0:0:0:
96,176,119192,2,0,L|256:112,1,140
432,192,119501,1,0,0:0:0:0:
288,256,119656,2,0,P|160:224|32:64,1,280
464,144,120120,1,0,0:0:0:0:
224,160,120429,1,0,0:0:0:0:
0,384,120738,2,0,L|512:208,1,490
32,208,121357,6,0,B|400:128|400:128|304:96,1,420
128,64,121976,1,0,0:0:0:0:
416,128,122130,2,0,B|480:192|480:192|128:240,1,420
256,192,122749,1,0,0:0:0:0:
416,240,122904,2,0,B|80:144|80:144|176:112,1,420
272,96,123522,1,0,0:0:0:0:
336,112,123677,6,0,L|464:240,1,140
224,112,123986,2,0,L|80:224,1,140
400,256,124295,2,0,L|368:176,3,70
112,224,124605,2,0,L|80:144,3,70
256,64,124914,1,0,0:0:0:0:
416,128,125068,2,0,B|480:192|480:192|96:256,1,420
416,192,125687,1,0,0:0:0:0:
128,192,125842,1,0,0:0:0:0:
464,224,125996,2,0,P|256:128|160:64,1,280
320,160,126460,5,0,0:0:0:0:
144,160,126615,2,0,B|16:192|512:272,1,420
128,192,127234,1,0,0:0:0:0:
192,224,127388,2,0,L|352:128,1,140
128,160,127697,1,0,0:0:0:0:
272,224,127852,2,0,L|416:128,1,140
128,128,128161,1,0,0:0:0:0:
320,224,128316,2,0,L|464:112,1,140
128,96,128625,1,0,0:0:0:0:
416,128,128780,1,0,0:0:0:0:
288,160,128935,1,0,0:0:0:0:
48,240,129089,2,0,L|336:144,1,280
416,128,129554,1,0,0:0:0:0:
256,192,129708,2,0,B|64:64|128:128,1,140
331,90,130017,1,0,0:0:0:0:
368,96,130094,1,0,0:0:0:0:
400,112,130172,1,0,0:0:0:0:
384,144,130249,1,0,0:0:0:0:
352,176,130326,1,0,0:0:0:0:
320,192,130404,1,0,0:0:0:0:
128,320,130480,1,0,0:0:0:0:
82,298,130558,1,0,0:0:0:0:
256,272,130635,1,0,0:0:0:0:
208,240,130739,1,0,0:0:0:0:
384,224,130842,1,0,0:0:0:0:
448,176,130945,1,0,0:0:0:0:
256,128,131048,1,0,0:0:0:0:
32,64,131151,1,0,0:0:0:0:
496,96,131254,6,0,P|256:176|80:208,1,420.000016021729
464,112,132027,1,0,0:0:0:0:
240,176,132182,1,0,0:0:0:0:
352,144,132336,1,0,0:0:0:0:
0,0,132491,2,0,L|512:304,1,560
176,192,133264,1,0,0:0:0:0:
400,192,133419,1,0,0:0:0:0:
80,192,133573,1,0,0:0:0:0:
496,16,133728,6,0,B|304:256|64:272|64:80,2,560
320,272,135120,1,0,0:0:0:0:
144,240,135274,1,0,0:0:0:0:
416,144,135429,1,0,0:0:0:0:
176,96,135584,1,0,0:0:0:0:
224,112,135738,2,0,L|368:240,1,140
96,144,136048,1,0,0:0:0:0:
384,48,136202,6,0,L|128:240,1,280
96,96,136666,2,0,P|176:160|272:160,1,140
480,48,136975,2,0,L|96:256,1,420
336,112,137594,2,0,L|464:176,1,140
80,96,137903,2,0,L|224:208,4,140
96,192,138676,5,0,0:0:0:0:
128,192,138754,1,0,0:0:0:0:
176,192,138831,1,0,0:0:0:0:
224,192,138908,1,0,0:0:0:0:
176,128,138985,1,0,0:0:0:0:
224,128,139063,1,0,0:0:0:0:
272,128,139140,1,0,0:0:0:0:
320,128,139217,1,0,0:0:0:0:
288,192,139295,1,0,0:0:0:0:
256,192,139373,1,0,0:0:0:0:
208,192,139450,1,0,0:0:0:0:
160,192,139527,1,0,0:0:0:0:
208,128,139604,1,0,0:0:0:0:
256,128,139682,1,0,0:0:0:0:
304,128,139759,1,0,0:0:0:0:
352,128,139836,1,0,0:0:0:0:
48,128,139913,1,0,0:0:0:0:
464,128,140223,1,0,0:0:0:0:
48,128,140532,1,0,0:0:0:0:
464,128,140842,1,0,0:0:0:0:
80,208,141150,6,0,B|448:128|448:128|352:96,1,420
256,64,141769,1,0,0:0:0:0:
96,128,141923,2,0,B|32:192|32:192|384:240,1,420
160,192,142542,1,0,0:0:0:0:
144,224,142697,2,0,B|480:128|480:128|384:96,1,420
320,128,143315,1,0,0:0:0:0:
176,112,143470,6,0,L|48:240,1,140
288,112,143779,2,0,L|432:224,1,140
112,256,144088,2,0,L|224:96,1,186.666666666667
352,224,144398,2,0,L|448:64,1,186.666666666667
256,64,144707,1,0,0:0:0:0:
96,128,144861,2,0,B|32:192|32:192|416:256,1,420
96,192,145480,1,0,0:0:0:0:
384,192,145635,1,0,0:0:0:0:
48,224,145789,6,0,P|256:128|352:64,1,280
192,160,146253,1,0,0:0:0:0:
368,160,146408,2,0,B|496:192|0:272,1,420
384,192,147027,1,0,0:0:0:0:
320,224,147181,2,0,L|160:128,1,140
384,160,147490,1,0,0:0:0:0:
240,224,147645,2,0,L|96:128,1,140
384,128,147954,1,0,0:0:0:0:
192,224,148109,2,0,L|48:112,1,140
384,96,148418,1,0,0:0:0:0:
96,128,148573,5,0,0:0:0:0:
224,160,148728,1,0,0:0:0:0:
464,240,148882,2,0,L|176:144,1,280
96,128,149347,1,0,0:0:0:0:
464,240,149501,2,0,L|176:144,1,280
400,304,149965,1,0,0:0:0:0:
80,240,150120,1,0,0:0:0:0:
224,176,150274,1,0,0:0:0:0:
480,80,150429,1,0,0:0:0:0:
96,112,151047,6,0,P|336:192|512:224,1,420.000016021729
336,240,151821,1,0,0:0:0:0:
256,208,151975,1,0,0:0:0:0:
176,160,152129,1,0,0:0:0:0:
448,0,152284,2,0,L|112:400,1,560
336,192,153057,1,0,0:0:0:0:
208,176,153212,1,0,0:0:0:0:
432,192,153366,1,0,0:0:0:0:
128,0,153521,6,0,B|240:304|480:320|480:128,2,560
192,272,154913,1,0,0:0:0:0:
368,240,155067,1,0,0:0:0:0:
288,112,155223,2,0,L|144:240,3,140
416,144,155841,1,0,0:0:0:0:
128,48,155995,6,0,L|384:240,1,280
416,96,156459,2,0,P|336:160|240:160,1,140
80,64,156768,2,0,L|464:272,1,420
240,112,157387,2,0,L|112:176,1,140
432,96,157696,2,0,L|288:208,4,140
384,48,158470,6,0,L|128:240,1,280
96,96,158934,2,0,P|176:160|272:160,1,140
80,64,159243,2,0,L|464:272,1,420
80,96,159862,2,0,L|288:96,6,140
416,80,160944,6,0,L|144:240,1,280
416,176,161408,1,0,0:0:0:0:
240,224,161563,1,0,0:0:0:0:
336,208,161717,1,0,0:0:0:0:
32,272,161872,2,0,L|320:128,1,280
352,112,162336,2,0,L|432:96,2,70
160,208,162800,2,0,L|304:160,3,105.000004005432
448,64,163418,6,0,L|176:224,1,280
368,128,163882,1,0,0:0:0:0:
192,176,164037,1,0,0:0:0:0:
256,128,164192,1,0,0:0:0:0:
192,64,164346,1,0,0:0:0:0:
416,192,164501,1,0,0:0:0:0:
256,128,164656,1,0,0:0:0:0:
416,80,164810,1,0,0:0:0:0:
240,96,164965,1,0,0:0:0:0:
208,128,165016,1,0,0:0:0:0:
176,160,165068,1,0,0:0:0:0:
160,192,165120,1,0,0:0:0:0:
144,224,165171,1,0,0:0:0:0:
112,256,165223,1,0,0:0:0:0:
96,288,165274,1,0,0:0:0:0:
128,304,165326,1,0,0:0:0:0:
160,320,165377,1,0,0:0:0:0:
192,320,165429,1,0,0:0:0:0:
224,320,165480,1,0,0:0:0:0:
256,320,165532,1,0,0:0:0:0:
288,304,165583,1,0,0:0:0:0:
320,288,165635,1,0,0:0:0:0:
352,256,165687,1,0,0:0:0:0:
368,224,165738,6,0,L|208:176,1,140
368,144,166047,1,0,0:0:0:0:
208,144,166202,1,0,0:0:0:0:
64,96,166357,2,0,B|176:208|320:240|448:112,2,420
288,112,167439,1,0,0:0:0:0:
160,144,167594,1,0,0:0:0:0:
320,176,167748,2,0,L|128:240,2,140
96,240,168212,1,0,0:0:0:0:
272,64,168367,6,0,L|16:208,1,280
192,160,168831,1,0,0:0:0:0:
384,96,168985,2,0,L|128:240,1,280
256,144,169449,1,0,0:0:0:0:
448,128,169604,2,0,L|192:272,2,280
352,160,170377,1,0,0:0:0:0:
192,208,170532,1,0,0:0:0:0:
288,96,170687,1,0,0:0:0:0:
16,96,170841,6,0,L|16:176,1,70
496,96,171150,2,0,L|496:176,1,70
16,96,171460,2,0,L|16:176,1,70
496,96,171769,2,0,L|496:176,1,70
16,96,172078,2,0,L|16:176,1,70
496,96,172387,2,0,L|496:176,1,70
16,96,172697,2,0,L|16:176,1,70
416,96,173006,2,0,L|416:176,1,70
128,96,173315,6,0,L|128:176,1,70
448,96,173625,2,0,L|448:176,1,70
96,96,173934,2,0,L|96:176,1,70
464,96,174243,2,0,L|432:176,1,70
32,96,174552,2,0,L|64:176,1,70
400,96,174862,2,0,L|320:144,1,70
112,96,175171,2,0,L|192:144,1,70
448,96,175480,2,0,L|368:144,1,70
80,96,175789,6,0,L|160:144,1,70
448,96,176099,2,0,L|352:96,1,70
160,96,176408,2,0,L|240:96,1,70
368,96,176717,2,0,L|272:96,1,70
160,96,177026,2,0,L|240:96,1,70
368,96,177336,2,0,L|272:96,1,70
80,96,177645,2,0,L|160:96,1,70
448,96,177955,2,0,L|352:96,1,70
160,96,178264,6,0,L|240:96,1,70
352,96,178573,2,0,L|256:96,1,70
160,96,178882,2,0,L|240:96,1,70
224,160,179192,2,0,P|272:192|288:176,4,70
336,160,179965,1,0,0:0:0:0:
304,176,180120,2,0,P|352:208|368:192,3,70
