osu file format v14

[General]
AudioFilename: audio.mp3
AudioLeadIn: 0
PreviewTime: 164030
Countdown: 0
SampleSet: Soft
StackLeniency: 0.5
Mode: 0
LetterboxInBreaks: 0
WidescreenStoryboard: 0

[Editor]
Bookmarks: 615,5186,9757,14329,18900,23472,28043,32614,37186,46329,73757,82900,92043,101186,110329,119472,127186,127472,127757,128043,128329,128614,133186,137757,142329,146900,151472,156043,160614,164457,164599,164742,164885,165028,169742,174314,178885,183472,188028,192599,197171,200885,206329,224614,240599,240885,241171,241457,241742,242028,242314,242599,242885,247457,252028,256599,261171,265742,270314,274885,279457
DistanceSpacing: 2.2
BeatDivisor: 8
GridSize: 16
TimelineZoom: 1.7

[Metadata]
Title:Little Stranger
TitleUnicode:Little Stranger
Artist:Dawid Podsiadlo
ArtistUnicode:Dawid Podsiadło
Creator:elicz1
Version:Liar
Source:Cyberpunk: Edgerunners
Tags:nieznajomy cyber punk rock cyberpunk edgerunners 2077 anime english indie alternative pop CD Projekt Red Video
BeatmapID:4065815
BeatmapSetID:1961781

[Difficulty]
HPDrainRate:5
CircleSize:4.8
OverallDifficulty:7.4
ApproachRate:8.6
SliderMultiplier:1.4
SliderTickRate:1

[Events]
//Background and Video events
0,0,"2xdavidlucy.jpg",0,0
//Break Periods
2,56060,59390
2,60619,63974
2,65204,68545
2,69775,71688
2,202891,205370
2,284029,287958
//Storyboard Layer 0 (Background)
//Storyboard Layer 1 (Fail)
//Storyboard Layer 2 (Pass)
//Storyboard Layer 3 (Foreground)
//Storyboard Layer 4 (Overlay)
//Storyboard Sound Samples

[TimingPoints]
615,571.428571428571,4,2,0,30,1,0
615,-500,4,2,0,30,0,0
1043,-500,4,2,0,5,0,0
1186,-100,4,2,0,30,0,0
2614,-200,4,2,0,30,0,0
3186,-500,4,2,0,5,0,0
3472,-200,4,2,0,30,0,0
5186,-500,4,2,0,30,0,0
5614,-500,4,2,0,5,0,0
5757,-100,4,2,0,30,0,0
7186,-200,4,2,0,30,0,0
7757,-500,4,2,0,5,0,0
8043,-200,4,2,0,30,0,0
9757,-500,4,2,0,30,0,0
10186,-500,4,2,0,5,0,0
10329,-100,4,2,0,30,0,0
10900,-83.3333333333333,4,2,0,30,0,0
11757,-200,4,2,0,30,0,0
12614,-200,4,2,0,35,0,0
13757,-71.4285714285714,4,2,0,32,0,0
14329,-500,4,2,0,30,0,0
14757,-500,4,2,0,5,0,0
14900,-100,4,2,0,30,0,0
16329,-125,4,2,0,30,0,0
16900,-500,4,2,0,5,0,0
17186,-500,4,2,0,30,0,0
17472,-166.666666666667,4,2,0,32,0,0
18329,-166.666666666667,4,2,0,35,0,0
18900,-125,4,2,0,35,0,0
22472,-500,4,2,0,5,0,0
22614,-125,4,2,0,35,0,0
22900,550.45871559633,4,2,0,35,1,0
23450,591.133004926108,4,2,0,35,1,0
23450,-125,4,2,0,35,0,0
24632,545.454545454546,4,2,0,35,1,0
25177,574.162679425837,4,2,0,35,1,0
25464,-100,4,2,0,35,0,0
26038,-500,4,2,0,5,0,0
26325,563.380281690141,4,2,0,30,1,0
26325,-500,4,2,0,35,0,0
26888,574.162679425837,4,2,0,35,1,0
28036,571.428571428571,4,2,0,35,1,0
28036,-100,4,2,0,35,0,0
28893,-90.9090909090909,4,2,0,35,0,0
30036,-200,4,2,0,35,0,0
32035,606.060606060606,4,2,0,35,1,0
32641,540.540540540541,4,2,0,35,1,0
32641,-100,4,2,0,35,0,0
33181,571.428571428571,4,2,0,35,1,0
33466,-100,4,2,0,35,0,0
33895,-500,4,2,0,5,0,0
34038,-100,4,2,0,35,0,0
35752,-166.666666666667,4,2,0,35,0,0
36181,-500,4,2,0,5,0,0
36323,-166.666666666667,4,2,0,35,0,0
36609,571.428571428571,4,2,0,35,1,0
36894,-125,4,2,0,35,0,0
37159,674.157303370786,4,2,0,30,1,0
37496,588.235294117647,4,2,0,30,1,0
37496,-83.3333333333333,4,2,0,45,0,0
37937,-500,4,2,0,5,0,0
38084,571.428571428571,4,2,0,30,1,0
38084,-83.3333333333333,4,2,0,40,0,0
38369,-83.3333333333333,4,2,0,5,0,0
38889,574.162679425837,4,2,0,30,1,0
39463,576.923076923077,4,2,0,30,1,0
39463,-83.3333333333333,4,2,0,40,0,0
39607,-500,4,2,0,5,0,0
39751,-125,4,2,0,40,0,0
40184,-500,4,2,0,5,0,0
40328,-90.9090909090909,4,2,0,45,0,0
40761,-500,4,2,0,5,0,0
40905,-142.857142857143,4,2,0,43,0,0
41338,-500,4,2,0,5,0,0
41482,-142.857142857143,4,2,0,45,0,0
41770,566.037735849056,4,2,0,30,1,0
41770,-76.9230769230769,4,2,0,48,0,0
42619,-200,4,2,0,25,0,0
44034,582.52427184466,4,2,0,30,1,0
44616,560.747663551401,4,2,0,30,1,0
45457,-200,4,2,0,40,0,0
45737,618.556701030927,4,2,0,35,1,0
46355,540.54054054054,4,2,0,30,1,0
46355,-142.857142857143,4,2,0,45,0,0
46895,576.923076923076,4,2,0,40,1,0
47183,-142.857142857143,4,2,0,40,0,0
48337,-125,4,2,0,43,0,0
48625,563.38028169014,4,2,0,30,1,0
48625,-125,4,2,0,43,0,0
49461,558.13953488372,4,2,0,30,1,0
49461,-83.3333333333333,4,2,0,48,0,0
50298,582.52427184466,4,2,0,30,1,0
50298,-83.3333333333333,4,2,0,45,0,0
50443,-83.3333333333333,4,2,0,43,0,0
50589,-83.3333333333333,4,2,0,40,0,0
50880,579.710144927534,4,2,0,30,1,0
50880,-142.857142857143,4,2,0,36,0,0
51749,-333.333333333334,4,2,0,32,0,0
52329,-500,4,2,0,5,0,0
52619,731.70731707317,4,2,0,30,1,0
52619,-500,4,2,0,22,0,0
54034,571.428571428571,4,2,0,30,1,0
54034,-500,4,2,0,23,0,0
54605,-500,4,2,0,33,0,0
54891,-500,4,2,0,43,0,0
55176,631.57894736842,4,2,0,30,1,0
55176,-133.333333333333,4,2,0,38,0,0
55491,569.80056980057,4,2,0,30,1,0
55491,-500,4,2,0,35,0,0
64633,571.428571428571,4,2,0,35,1,0
72347,-500,4,2,0,35,0,0
73775,606.060606060605,4,2,0,30,1,0
73775,-100,4,2,0,35,0,0
73926,550.45871559633,4,2,0,30,1,0
73926,-100,4,2,0,5,0,0
74063,-100,4,2,0,35,0,0
74334,582.52427184466,4,2,0,35,1,0
74625,540.540540540541,4,2,0,30,1,0
74895,555.555555555556,4,2,0,30,1,0
75450,588.235294117647,4,2,0,30,1,0
75744,609.137055837563,4,2,0,30,1,0
75744,-83.3333333333333,4,2,0,35,0,0
76353,540.540540540541,4,2,0,30,1,0
76893,571.428571428571,4,2,0,30,1,0
76893,-83.3333333333333,4,2,0,35,0,0
77750,-66.6666666666667,4,2,0,35,0,0
78035,-100,4,2,0,35,0,0
78321,571.428571428571,4,2,0,35,1,0
78892,582.52427184466,4,2,0,35,1,0
79183,-66.6666666666667,4,2,0,35,0,0
79328,560.747663551402,4,2,0,30,1,0
79328,-66.6666666666667,4,2,0,35,0,0
80028,588.235294117646,4,2,0,30,1,0
80028,-100,4,2,0,35,0,0
80616,571.428571428571,4,2,0,35,1,0
81473,-133.333333333333,4,2,0,35,0,0
82616,-50,4,2,0,35,0,0
82901,560.747663551402,4,2,0,30,1,0
82901,-83.3333333333333,4,2,0,35,0,0
83321,600,4,2,0,35,1,0
83471,582.52427184466,4,2,0,35,1,0
83471,-76.9230769230769,4,2,0,35,0,0
84053,-55.5555555555556,4,2,0,35,0,0
84344,560.747663551402,4,2,0,35,1,0
84624,545.454545454546,4,2,0,35,1,0
84896,571.428571428571,4,2,0,30,1,0
84896,-71.4285714285714,4,2,0,35,0,0
85324,-71.4285714285714,4,2,0,5,0,0
85467,576.923076923077,4,2,0,30,1,0
85467,-111.111111111111,4,2,0,35,0,0
85755,-66.6666666666667,4,2,0,35,0,0
86043,560.747663551402,4,2,0,35,1,0
86603,574.162679425837,4,2,0,35,1,0
86890,-66.6666666666667,4,2,0,35,0,0
87177,-111.111111111111,4,2,0,35,0,0
87464,600,4,2,0,35,1,0
87764,571.428571428571,4,2,0,35,1,0
88478,-71.4285714285714,4,2,0,35,0,0
88764,-71.4285714285714,4,2,0,5,0,0
88906,560.747663551402,4,2,0,30,1,0
88906,-52.6315789473684,4,2,0,35,0,0
89046,-52.6315789473684,4,2,0,5,0,0
89186,-83.3333333333333,4,2,0,35,0,0
89466,-250,4,2,0,35,0,0
89747,571.428571428571,4,2,0,35,1,0
90604,588.235294117647,4,2,0,30,1,0
90604,-100,4,2,0,35,0,0
91045,-100,4,2,0,5,0,0
91192,560.747663551402,4,2,0,30,1,0
91192,-43.4782608695652,4,2,0,35,0,0
91472,-66.6666666666667,4,2,0,35,0,0
91752,588.235294117647,4,2,0,30,1,0
91752,-55.5555555555556,4,2,0,35,0,0
92046,576.923076923077,4,2,0,30,1,0
92046,-125,4,2,0,35,0,0
92911,-333.333333333334,4,2,0,35,0,0
94353,558.139534883721,4,2,0,30,1,0
94353,-333.333333333333,4,2,0,35,0,0
94911,-333.333333333334,4,2,0,5,0,0
95190,-142.857142857143,4,2,0,35,0,0
95748,-142.857142857143,4,2,0,5,0,0
96027,582.52427184466,4,2,0,30,1,0
96027,-100,4,2,0,35,0,0
96318,571.428571428571,4,2,0,35,1,0
96603,571.428571428571,4,2,0,30,1,0
96603,-66.6666666666667,4,2,0,35,0,0
97460,-200,4,2,0,35,0,0
99765,571.428571428571,4,2,0,30,1,0
99765,-111.111111111111,4,2,0,35,0,0
100193,-111.111111111111,4,2,0,5,0,0
100336,566.037735849057,4,2,0,30,1,0
100336,-111.111111111111,4,2,0,35,0,0
100902,594.059405940594,4,2,0,30,1,0
100902,-50,4,2,0,35,0,0
101199,560.747663551402,4,2,0,30,1,0
101199,-125,4,2,0,35,0,0
102040,-166.666666666667,4,2,0,35,0,0
102600,566.037735849057,4,2,0,30,1,0
102600,-333.333333333333,4,2,0,35,0,0
103449,571.428571428571,4,2,0,30,1,0
103449,-200,4,2,0,35,0,0
104020,-200,4,2,0,5,0,0
104306,-111.111111111111,4,2,0,35,0,0
104877,-111.111111111111,4,2,0,5,0,0
105163,-100,4,2,0,35,0,0
105449,606.060606060606,4,2,0,30,1,0
105449,-62.5,4,2,0,35,0,0
105752,576.923076923077,4,2,0,35,1,0
105752,-62.5,4,2,0,35,0,0
106617,-200,4,2,0,35,0,0
108035,560.747663551402,4,2,0,35,1,0
108595,588.235294117647,4,2,0,35,1,0
108595,-76.9230769230769,4,2,0,35,0,0
109477,571.428571428571,4,2,0,35,1,0
109477,-58.8235294117647,4,2,0,35,0,0
109762,-83.3333333333333,4,2,0,35,0,0
110334,576.923076923077,4,2,0,35,1,0
110334,-100,4,2,0,35,0,0
111199,568.720379146919,4,2,0,30,1,0
111199,-250.000000000001,4,2,0,35,0,0
112336,560.747663551402,4,2,0,35,1,0
112616,571.428571428571,4,2,0,35,1,0
112616,-250,4,2,0,35,0,0
113187,-250.000000000001,4,2,0,5,0,0
113473,-125,4,2,0,35,0,0
114044,-125,4,2,0,5,0,0
114330,-100,4,2,0,35,0,0
114901,564.440263405456,4,2,0,35,1,0
114901,-62.5,4,2,0,35,0,0
115747,-200,4,2,0,35,0,0
117742,594.059405940594,4,2,0,35,1,0
118039,571.428571428571,4,2,0,35,1,0
118039,-200,4,2,0,30,0,0
118610,576.923076923077,4,2,0,35,1,0
118898,555.555555555556,4,2,0,35,1,0
118898,-100,4,2,0,35,0,0
119175,594.059405940594,4,2,0,30,1,0
119175,-66.6666666666667,4,2,0,35,0,0
119472,571.428571428571,4,2,0,30,1,0
119472,-83.3333333333333,4,2,0,35,0,0
120329,-100,4,2,0,35,0,0
120900,550.45871559633,4,2,0,35,1,0
121175,600,4,2,0,35,1,0
121175,-66.6666666666667,4,2,0,35,0,0
121775,574.162679425837,4,2,0,35,1,0
121775,-133.333333333333,4,2,0,35,0,0
122923,535.714285714286,4,2,0,35,1,0
122923,-133.333333333333,4,2,0,35,0,0
123457,-66.6666666666667,4,2,0,35,0,0
123458,576.923076923077,4,2,0,35,1,0
123458,-66.6666666666667,4,2,0,30,0,0
124034,582.52427184466,4,2,0,35,1,0
124034,-133.333333333333,4,2,0,35,0,0
124616,594.059405940594,4,2,0,35,1,0
124913,560.747663551402,4,2,0,35,1,0
125754,618.556701030928,4,2,0,35,1,0
126063,555.555555555556,4,2,0,35,1,0
126340,560.747663551402,4,2,0,30,1,0
126340,-200,4,2,0,35,0,0
127181,571.428571428571,4,2,0,35,1,0
127466,-200,4,2,0,40,0,0
127752,-200,4,2,0,43,0,0
128038,-200,4,2,0,46,0,0
128323,-200,4,2,0,48,0,0
128609,576.923076923077,4,2,0,50,1,0
128609,-50,4,2,0,50,0,1
129185,-50,4,2,0,50,0,0
129474,-43.4782608695652,4,2,0,50,0,0
129762,566.037735849057,4,2,0,50,1,0
130045,-43.4782608695652,4,2,0,50,0,0
130328,-58.8235294117647,4,2,0,50,0,0
130611,-76.9230769230769,4,2,0,50,0,0
130894,576.923076923077,4,2,0,50,1,0
130894,-111.111111111111,4,2,0,50,0,0
131470,-55.5555555555556,4,2,0,50,0,0
132047,571.428571428571,4,2,0,50,1,0
132047,-40,4,2,0,50,0,0
132332,-45.4545454545455,4,2,0,50,0,0
133189,571.428571428571,4,2,0,50,1,0
133189,-45.4545454545455,4,2,0,50,0,1
133760,-45.4545454545455,4,2,0,50,0,0
134046,-76.9230769230769,4,2,0,50,0,0
134903,-125,4,2,0,50,0,0
135474,-166.666666666667,4,2,0,50,0,0
136047,588.235294117647,4,2,0,50,1,0
136341,571.428571428571,4,2,0,50,1,0
136341,-166.666666666667,4,2,0,50,0,0
136912,560.747663551402,4,2,0,50,1,0
136912,-43.4782608695652,4,2,0,50,0,0
137192,-58.8235294117647,4,2,0,50,0,0
137472,-90.9090909090909,4,2,0,50,0,0
137753,576.923076923077,4,2,0,50,1,0
137753,-38.4615384615385,4,2,0,50,0,1
138041,-55.5555555555556,4,2,0,50,0,1
138329,-71.4285714285714,4,2,0,50,0,0
138618,566.037735849057,4,2,0,50,1,0
138618,-71.4285714285714,4,2,0,50,0,0
139184,-47.6190476190476,4,2,0,50,0,0
139467,-62.5,4,2,0,50,0,0
139750,-333.333333333333,4,2,0,50,0,0
140316,571.428571428571,4,2,0,50,1,0
140316,-66.6666666666667,4,2,0,50,0,0
141601,-43.4782608695652,4,2,0,50,0,0
142316,576.923076923077,4,2,0,50,1,0
142316,-38.4615384615385,4,2,0,50,0,1
142532,-38.4615384615385,4,2,0,5,0,1
142604,-38.4615384615385,4,2,0,50,0,1
142892,-50,4,2,0,50,0,0
143109,-50,4,2,0,5,0,0
143181,-50,4,2,0,50,0,0
143758,571.428571428571,4,2,0,50,1,0
143758,-50,4,2,0,50,0,0
144615,576.923076923077,4,2,0,50,1,0
145191,540.540540540541,4,2,0,50,1,0
145461,571.428571428571,4,2,0,50,1,0
145461,-125,4,2,0,50,0,0
146032,576.923076923077,4,2,0,50,1,0
146032,-125,4,2,0,50,0,0
146320,-66.6666666666667,4,2,0,50,0,0
146608,-45.4545454545455,4,2,0,50,0,0
146897,571.428571428571,4,2,0,50,1,0
146897,-40,4,2,0,50,0,1
147468,-41.6666666666667,4,2,0,50,0,0
147754,575.263662511985,4,2,0,50,1,0
147754,-62.5,4,2,0,50,0,0
148329,-40,4,2,0,50,0,0
148616,-52.6315789473684,4,2,0,50,0,0
148904,-71.4285714285714,4,2,0,50,0,0
149192,545.454545454546,4,2,0,50,1,0
149192,-100,4,2,0,50,0,0
149601,571.428571428571,4,2,0,50,1,0
149743,-76.9230769230769,4,2,0,50,0,0
150028,-50,4,2,0,50,0,0
150029,582.52427184466,4,2,0,50,1,0
150029,-50,4,2,0,50,0,0
150611,566.037735849057,4,2,0,50,1,0
150611,-55.5555555555556,4,2,0,50,0,0
151177,600,4,2,0,50,1,0
151477,559.179869524697,4,2,0,50,1,0
151477,-40,4,2,0,50,0,1
151686,-40,4,2,0,5,0,1
151756,-40,4,2,0,50,0,1
152036,576.923076923077,4,2,0,50,1,0
152036,-55.5555555555556,4,2,0,50,0,0
152252,-55.5555555555556,4,2,0,5,0,0
152324,-55.5555555555556,4,2,0,50,0,0
153189,555.555555555556,4,2,0,50,1,0
153189,-55.5555555555556,4,2,0,50,0,0
153744,576.923076923077,4,2,0,50,1,0
154609,571.428571428571,4,2,0,50,1,0
154609,-142.857142857143,4,2,0,50,0,0
155180,580.27079303675,4,2,0,50,1,0
155180,-142.857142857143,4,2,0,50,0,0
155470,-76.9230769230769,4,2,0,50,0,0
155760,535.714285714286,4,2,0,50,1,0
155760,-50,4,2,0,50,0,0
156027,588.235294117647,4,2,0,50,1,0
156027,-43.4782608695652,4,2,0,50,0,1
156615,560.747663551402,4,2,0,50,1,0
156615,-62.5,4,2,0,50,0,0
156895,571.428571428571,4,2,0,50,1,0
156895,-62.5,4,2,0,50,0,0
158037,-45.4545454545455,4,2,0,50,0,0
158895,545.454545454546,4,2,0,50,1,0
159167,582.52427184466,4,2,0,50,1,0
159167,-66.6666666666667,4,2,0,50,0,0
159749,566.037735849057,4,2,0,50,1,0
159749,-55.5555555555556,4,2,0,50,0,0
160315,588.235294117647,4,2,0,50,1,0
160315,-55.5555555555556,4,2,0,50,0,0
160609,582.52427184466,4,2,0,50,1,0
160754,560.747663551402,4,2,0,50,1,0
160754,-43.4782608695652,4,2,0,50,0,1
161174,576.923076923077,4,2,0,50,1,0
161174,-62.5,4,2,0,50,0,0
161462,-52.6315789473684,4,2,0,50,0,0
162039,-45.4545454545455,4,2,0,50,0,0
162327,-58.8235294117647,4,2,0,50,0,0
162616,-83.3333333333333,4,2,0,50,0,0
162904,566.037735849057,4,2,0,50,1,0
163470,550.45871559633,4,2,0,50,1,0
163470,-83.3333333333333,4,2,0,50,0,0
163745,571.428571428571,4,2,0,50,1,0
165173,576.923076923076,4,2,0,65,1,1
165173,-33.3333333333333,4,2,0,65,0,1
165749,571.428571428571,4,2,0,65,1,1
165749,-41.6666666666667,4,2,0,65,0,1
166034,-58.8235294117647,4,2,0,65,0,1
166320,-66.6666666666667,4,2,0,65,0,1
166606,-31.25,4,2,0,65,0,1
166891,-41.6666666666667,4,2,0,65,0,1
168320,-52.6315789473684,4,2,0,65,0,1
168606,-33.3333333333333,4,2,0,65,0,1
168891,-40,4,2,0,65,0,1
169177,-50,4,2,0,65,0,1
169749,571.428571428571,4,2,0,65,1,1
169749,-33.3333333333333,4,2,0,65,0,1
170106,-33.3333333333333,4,2,0,5,0,1
170177,-38.4615384615385,4,2,0,65,0,1
170606,-47.6190476190476,4,2,0,65,0,1
171177,-38.4615384615385,4,2,0,65,0,1
171391,-38.4615384615385,4,2,0,5,0,1
171463,-38.4615384615385,4,2,0,65,0,1
172034,-32.258064516129,4,2,0,65,0,1
172891,-43.4782608695652,4,2,0,65,0,1
173463,-33.3333333333333,4,2,0,65,0,1
173749,-41.6666666666667,4,2,0,65,0,1
174034,-55.5555555555556,4,2,0,65,0,1
174320,568.720379146919,4,2,0,65,1,1
174320,-33.3333333333333,4,2,0,65,0,1
174888,-38.4615384615385,4,2,0,65,0,1
175457,-43.4782608695652,4,2,0,65,0,1
176026,-55.5555555555556,4,2,0,65,0,1
176594,571.428571428572,4,2,0,65,1,1
176594,-47.6190476190476,4,2,0,65,0,1
177165,-40,4,2,0,65,0,1
178022,576.923076923077,4,2,0,65,1,1
178892,571.428571428571,4,2,0,65,1,1
178892,-33.3333333333333,4,2,0,65,0,1
179749,-37.037037037037,4,2,0,65,0,1
180320,-40,4,2,0,65,0,1
180606,-100,4,2,0,65,0,1
180892,-71.4285714285714,4,2,0,65,0,1
181177,-52.6315789473684,4,2,0,65,0,1
181463,-41.6666666666667,4,2,0,65,0,1
181749,-37.037037037037,4,2,0,65,0,1
182034,-33.3333333333333,4,2,0,65,0,1
182320,-29.4117647058824,4,2,0,65,0,1
183463,571.428571428571,4,2,0,65,1,1
183463,-33.3333333333334,4,2,0,65,0,1
184320,-40.0000000000002,4,2,0,65,0,1
184605,-47.6190476190478,4,2,0,65,0,1
184891,-47.6190476190478,4,2,0,65,0,1
185748,-40.0000000000002,4,2,0,65,0,1
185963,-40.0000000000002,4,2,0,5,0,1
186034,-50.0000000000002,4,2,0,65,0,1
186320,-71.4285714285719,4,2,0,65,0,1
186605,-47.6190476190478,4,2,0,65,0,1
187177,-31.2500000000001,4,2,0,65,0,1
187463,-40.0000000000002,4,2,0,65,0,1
187748,-55.5555555555559,4,2,0,65,0,1
188034,-33.3333333333333,4,2,0,65,0,1
188248,-33.3333333333333,4,2,0,5,0,1
188320,-33.3333333333333,4,2,0,65,0,1
188605,-45.4545454545455,4,2,0,65,0,1
188820,-45.4545454545455,4,2,0,5,0,1
188891,-38.4615384615385,4,2,0,65,0,1
189177,-47.6190476190476,4,2,0,65,0,1
189677,-47.6190476190476,4,2,0,5,0,1
189748,-33.3333333333333,4,2,0,65,0,1
190320,-43.4782608695652,4,2,0,65,0,1
191742,-38.4615384615385,4,2,0,65,0,1
192034,-45.4545454545455,4,2,0,65,0,1
192320,-55.5555555555556,4,2,0,65,0,1
192605,-33.3333333333333,4,2,0,65,0,1
193177,-41.6666666666667,4,2,0,65,0,1
193463,-47.6190476190476,4,2,0,65,0,1
194605,-38.4615384615385,4,2,0,65,0,1
195748,-50,4,2,0,65,0,1
196034,-40,4,2,0,65,0,1
196248,-40,4,2,0,5,0,1
196320,-35.7142857142857,4,2,0,65,0,1
196605,-47.6190476190476,4,2,0,65,0,1
196891,-62.5,4,2,0,65,0,1
197177,-35.7142857142857,4,2,0,65,0,1
198320,-38.4615384615385,4,2,0,65,0,1
199463,-100,4,2,0,65,0,1
199748,-66.6666666666667,4,2,0,65,0,1
200034,-52.6315789473684,4,2,0,65,0,1
200320,-43.4782608695652,4,2,0,65,0,1
200605,-35.7142857142857,4,2,0,65,0,1
200891,-33.3333333333333,4,2,0,65,0,1
201177,-43.4782608695652,4,2,0,65,0,1
201463,-58.8235294117647,4,2,0,65,0,1
201748,-40,4,2,0,50,0,0
206029,606.060606060605,4,2,0,30,1,0
206029,-40,4,2,0,30,0,0
206332,571.428571428571,4,2,0,30,1,0
206332,-100,4,2,0,30,0,0
206903,-100,4,2,0,5,0,0
209760,-100,4,2,0,30,0,0
210046,-100,4,2,0,5,0,0
210189,612.244897959184,4,2,0,30,1,0
210189,-100,4,2,0,30,0,0
210495,-100,4,2,0,5,0,0
210648,571.428571428571,4,2,0,30,1,0
210648,-100,4,2,0,30,0,0
210933,-68.9655172413793,4,2,0,30,0,0
211505,-68.9655172413793,4,2,0,5,0,0
211790,618.556701030928,4,2,0,30,1,0
211790,-68.9655172413793,4,2,0,30,0,0
212099,618.556701030928,4,2,0,30,1,0
212099,-133.333333333333,4,2,0,30,0,0
212717,-133.333333333333,4,2,0,5,0,0
214315,571.428571428571,4,2,0,30,1,0
214315,-133.333333333333,4,2,0,30,0,0
215029,-133.333333333333,4,2,0,5,0,0
215172,594.059405940594,4,2,0,30,1,0
215172,-133.333333333333,4,2,0,30,0,0
215469,594.059405940594,4,2,0,30,1,0
215469,-133.333333333333,4,2,0,30,0,0
216063,-133.333333333333,4,2,0,5,0,0
218887,571.428571428571,4,2,0,30,1,0
218887,-222.222222222221,4,2,0,30,0,0
219458,-222.222222222221,4,2,0,5,0,0
220029,-222.222222222221,4,2,0,30,0,0
220172,-66.6666666666667,4,2,0,30,0,0
220315,-66.6666666666667,4,2,0,5,0,0
222029,-66.6666666666667,4,2,0,20,0,0
224315,600,4,2,0,30,1,0
224315,-66.6666666666667,4,2,0,30,0,0
224615,571.428571428571,4,2,0,30,1,0
224615,-100,4,2,0,35,0,0
225186,-100,4,2,0,5,0,0
228043,-90.9090909090909,4,2,0,35,0,0
228615,-100,4,2,0,5,0,0
229186,-100,4,2,0,35,0,0
229472,-125,4,2,0,35,0,0
230043,-125,4,2,0,5,0,0
231186,-125,4,2,0,35,0,0
231472,-125,4,2,0,35,0,0
231757,-125,4,2,0,5,0,0
231900,-125,4,2,0,35,0,0
232472,-125,4,2,0,5,0,0
234043,588.235294117647,4,2,0,30,1,0
234043,-100,4,2,0,35,0,0
234190,-100,4,2,0,5,0,0
234337,560.747663551402,4,2,0,30,1,0
234337,-100,4,2,0,45,0,0
234757,-100,4,2,0,5,0,0
234897,-76.9230769230769,4,2,0,35,0,0
235037,-76.9230769230769,4,2,0,5,0,0
235178,-76.9230769230769,4,2,0,45,0,0
235598,-76.9230769230769,4,2,0,5,0,0
235738,582.52427184466,4,2,0,30,1,0
235738,-76.9230769230769,4,2,0,45,0,0
236029,-76.9230769230769,4,2,0,50,0,0
236320,-76.9230769230769,4,2,0,5,0,0
236466,-62.5,4,2,0,40,0,0
236611,-62.5,4,2,0,5,0,0
236757,-100,4,2,0,30,0,0
236903,-100,4,2,0,5,0,0
238028,-100,4,2,0,30,0,0
238030,571.428571428571,4,2,0,30,1,0
238315,571.428571428571,4,2,0,40,1,0
239742,-100,4,2,0,35,0,0
240314,-100,4,2,0,40,0,0
240600,-100,4,2,0,40,0,0
240886,-83.3333333333333,4,2,0,43,0,0
241172,-66.6666666666667,4,2,0,46,0,0
241457,-52.6315789473684,4,2,0,49,0,0
241743,-43.4782608695652,4,2,0,52,0,0
242029,-37.037037037037,4,2,0,55,0,0
242315,-32.258064516129,4,2,0,70,0,0
242887,571.428571428571,4,2,0,30,1,1
242887,-32.258064516129,4,2,0,70,0,1
243242,-32.258064516129,4,2,0,5,0,1
243314,-32.258064516129,4,2,0,70,0,1
243457,-29.4117647058824,4,2,0,70,0,1
243742,-40,4,2,0,70,0,1
244314,-35.7142857142857,4,2,0,70,0,1
244599,-47.6190476190476,4,2,0,70,0,1
244885,-39.2156862745098,4,2,0,70,0,1
245385,-39.2156862745098,4,2,0,5,0,1
245457,-39.2156862745098,4,2,0,70,0,1
246242,-39.2156862745098,4,2,0,5,0,1
246315,-50,4,2,0,70,0,1
246599,-34.4827586206897,4,2,0,70,0,1
246885,-43.4782608695652,4,2,0,70,0,1
247171,-55.5555555555556,4,2,0,70,0,1
247457,-33.3333333333333,4,2,0,70,0,1
247671,-33.3333333333333,4,2,0,5,0,1
247742,-40,4,2,0,70,0,1
248028,-50,4,2,0,70,0,1
248315,-55.5555555555556,4,2,0,70,0,1
248599,-33.3333333333333,4,2,0,70,0,1
248814,-33.3333333333333,4,2,0,5,0,1
248885,-33.3333333333333,4,2,0,70,0,1
249171,-41.6666666666667,4,2,0,70,0,1
250528,-41.6666666666667,4,2,0,5,0,1
250599,-41.6666666666667,4,2,0,70,0,1
251171,-37.037037037037,4,2,0,70,0,1
251457,-45.4545454545455,4,2,0,70,0,1
251742,-62.5,4,2,0,70,0,1
252028,-33.3333333333333,4,2,0,70,0,1
252244,-33.3333333333333,4,2,0,5,0,1
252315,-33.3333333333333,4,2,0,70,0,1
253101,-33.3333333333333,4,2,0,5,0,1
253171,-43.4782608695652,4,2,0,70,0,1
254028,-47.6190476190476,4,2,0,70,0,1
254244,-47.6190476190476,4,2,0,5,0,1
254315,-47.6190476190476,4,2,0,70,0,1
254599,-37.037037037037,4,2,0,70,0,1
254815,-37.037037037037,4,2,0,5,0,1
254887,-37.037037037037,4,2,0,70,0,1
256601,-33.3333333333333,4,2,0,70,0,1
256814,-33.3333333333333,4,2,0,5,0,1
256887,-37.037037037037,4,2,0,70,0,1
257171,-47.6190476190476,4,2,0,70,0,1
257457,-66.6666666666667,4,2,0,70,0,1
257744,-43.4782608695652,4,2,0,70,0,1
258314,-34.4827586206897,4,2,0,70,0,1
259171,-71.4285714285714,4,2,0,70,0,1
259457,-55.5555555555556,4,2,0,70,0,1
259744,-45.4545454545455,4,2,0,70,0,1
260028,-33.3333333333333,4,2,0,70,0,1
260314,-41.6666666666667,4,2,0,70,0,1
260599,-50,4,2,0,70,0,1
260885,-66.6666666666667,4,2,0,70,0,1
261171,-40,4,2,0,70,0,1
261528,-40,4,2,0,5,0,1
261601,-40,4,2,0,70,0,1
262028,-50,4,2,0,70,0,1
262314,-66.6666666666667,4,2,0,70,0,1
262885,-41.6666666666667,4,2,0,70,0,1
263099,-41.6666666666667,4,2,0,5,0,1
263171,-41.6666666666667,4,2,0,70,0,1
263457,-50,4,2,0,70,0,1
264028,-40,4,2,0,70,0,1
264242,-40,4,2,0,5,0,1
264314,-40,4,2,0,70,0,1
265742,-33.3333333333333,4,2,0,70,0,1
265957,-33.3333333333333,4,2,0,5,0,1
266029,-38.4615384615385,4,2,0,70,0,1
266315,-47.6190476190476,4,2,0,70,0,1
266599,-62.5,4,2,0,70,0,1
266887,-33.3333333333333,4,2,0,70,0,1
267387,-33.3333333333333,4,2,0,5,0,1
267458,-38.4615384615385,4,2,0,70,0,1
268028,-41.6666666666667,4,2,0,70,0,1
268601,-40,4,2,0,70,0,1
268887,-55.5555555555556,4,2,0,70,0,1
269457,-35.7142857142857,4,2,0,70,0,1
269744,-43.4782608695652,4,2,0,70,0,1
270028,-58.8235294117647,4,2,0,70,0,1
270314,-33.3333333333333,4,2,0,70,0,1
270457,-33.3333333333333,4,2,0,5,0,1
270744,-33.3333333333333,4,2,0,70,0,1
271099,-33.3333333333333,4,2,0,5,0,1
271172,-33.3333333333333,4,2,0,70,0,1
271458,-43.4782608695652,4,2,0,70,0,1
272029,-37.037037037037,4,2,0,70,0,1
272242,-37.037037037037,4,2,0,5,0,1
272315,-37.037037037037,4,2,0,70,0,1
273172,-40,4,2,0,70,0,1
273742,-50,4,2,0,70,0,1
274029,-40,4,2,0,70,0,1
274599,-50,4,2,0,70,0,1
274885,-33.3333333333333,4,2,0,70,0,1
275101,-33.3333333333333,4,2,0,5,0,1
275172,-30.3030303030303,4,2,0,70,0,1
275458,-38.4615384615385,4,2,0,70,0,1
276601,-37.037037037037,4,2,0,70,0,1
278601,-35.7142857142857,4,2,0,70,0,1
278887,-45.4545454545455,4,2,0,70,0,1
279171,-58.8235294117647,4,2,0,70,0,1
279458,-32.258064516129,4,2,0,50,0,0
288617,582.52427184466,4,2,0,30,1,0
288617,-32.258064516129,4,2,0,33,0,0
289782,-32.258064516129,4,2,0,38,0,0
290709,571.428571428571,4,2,0,30,1,0
290709,-250,4,2,0,25,0,0
291280,-250,4,2,0,5,0,0

[Colours]
Combo1 : 155,200,197
Combo2 : 233,236,96
Combo3 : 89,244,105
Combo4 : 250,154,242
Combo5 : 106,227,249
Combo6 : 199,194,152
Combo7 : 148,192,150
Combo8 : 215,187,217

[HitObjects]
280,378,615,102,0,L|259:382,1,21,0|0,2:2|2:2,2:2:0:0:
350,359,1186,2,0,L|419:343,1,70,2|0,2:2|2:2,2:2:0:0:
351,360,1757,2,0,P|395:292|402:226,1,140,0|2,2:2|2:2,2:2:0:0:
345,180,2614,2,0,P|319:216|331:251,1,70,2|0,2:2|2:2,2:2:0:0:
401,233,3472,1,2,2:2:0:0:
401,233,4614,1,2,2:2:0:0:
232,282,5186,86,0,L|253:287,1,21,0|0,2:2|2:2,2:2:0:0:
158,262,5757,2,0,L|90:246,1,70,2|0,2:2|2:2,2:2:0:0:
180,338,6329,1,0,2:2:0:0:
180,338,6614,1,0,2:2:0:0:
139,185,6900,5,2,2:2:0:0:
5,144,7186,2,0,L|28:216,1,70,0|0,2:2|2:2,2:2:0:0:
90,249,8043,1,2,2:2:0:0:
90,249,9186,1,2,2:2:0:0:
280,186,9757,22,0,L|258:191,1,21,0|0,2:2|2:2,2:2:0:0:
350,167,10329,2,0,L|419:151,1,70,2|0,2:2|2:2,2:2:0:0:
351,167,10900,2,0,P|358:121|378:58,1,83.9999974365235,0|0,2:2|2:2,2:2:0:0:
441,69,11472,1,2,2:2:0:0:
324,24,11757,2,0,P|341:58|352:105,1,70,0|0,2:2|2:2,2:2:0:0:
472,274,12614,101,2,2:2:0:0:
472,274,12757,1,2,2:2:0:0:
415,223,12900,2,0,P|389:270|399:286,1,70,2|0,2:2|2:2,2:2:0:0:
486,126,13757,2,0,P|450:122|429:64,1,97.9999970092774,2|0,2:2|2:2,2:2:0:0:
232,90,14329,86,0,L|253:95,1,21,0|0,2:2|2:2,2:2:0:0:
161,71,14900,2,0,L|93:55,1,70,2|0,2:2|2:2,2:2:0:0:
161,71,15472,2,0,L|26:107,1,140,0|2,2:2|2:2,2:2:0:0:
63,190,16329,2,0,B|85:140|85:140|24:113,1,112,2|0,2:2|2:2,2:2:0:0:
0,229,17186,5,2,2:2:0:0:
166,280,17472,2,0,L|191:364,1,83.9999974365235,2|0,2:2|2:2,2:2:0:0:
66,312,18329,101,2,2:2:0:0:
66,312,18614,1,0,2:2:0:0:
352,203,18900,37,2,2:2:0:0:
431,249,19186,2,0,P|421:300|369:304,1,112,2|0,2:2|2:2,2:2:0:0:
289,376,20329,101,2,2:2:0:0:
369,304,20614,1,0,2:2:0:0:
490,318,20900,2,0,P|460:281|431:201,1,112,2|0,2:2|2:2,2:2:0:0:
469,104,21757,5,0,2:2:0:0:
354,224,22043,2,0,P|340:182|309:134,1,84,2|0,2:2|2:2,2:2:0:0:
274,200,22614,1,2,2:2:0:0:
367,61,22900,101,2,2:2:0:0:
398,131,23175,1,0,2:2:0:0:
199,233,23450,102,0,B|144:219|144:219|171:169,1,112,2|0,2:2|2:2,2:2:0:0:
249,176,24336,1,2,2:2:0:0:
103,282,24632,1,2,2:2:0:0:
209,239,25177,101,0,2:2:0:0:
144,191,25464,2,0,L|108:53,1,140,2|0,2:2|2:2,2:2:0:0:
59,165,26325,5,2,2:2:0:0:
194,74,26606,1,0,2:2:0:0:
53,0,27175,101,0,2:2:0:0:
126,17,27462,1,2,2:2:0:0:
108,91,27749,1,0,2:2:0:0:
314,160,28036,22,0,P|359:134|349:95,1,93.3333333333333,2|0,2:2|2:2,2:2:0:0:
279,91,28607,1,2,2:2:0:0:
419,175,28893,2,0,P|332:199|293:262,1,154.000004699707,2|0,2:2|2:2,2:2:0:0:
427,104,29750,5,0,2:2:0:0:
447,247,30036,2,0,P|463:276|497:284,1,70,2|0,2:2|2:2,2:2:0:0:
280,141,30893,101,2,2:2:0:0:
307,241,31178,1,0,2:2:0:0:
494,353,31750,5,0,2:2:0:0:
421,335,32035,1,2,2:2:0:0:
438,262,32338,1,0,2:2:0:0:
160,217,32641,70,0,L|175:157,2,46.6666666666667,2|2|2,0:0|0:0|0:0,0:0:0:0:
170,286,33181,1,2,2:2:0:0:
65,203,33466,2,0,L|89:95,1,105,2|0,2:2|2:2,2:2:0:0:
9,126,34038,5,2,2:2:0:0:
161,89,34323,1,2,2:2:0:0:
161,89,34466,1,2,2:2:0:0:
245,206,34752,1,2,2:2:0:0:
157,373,35466,101,2,2:2:0:0:
157,373,35752,2,0,L|177:309,1,62.9999980773926,0|0,2:2|2:2,2:2:0:0:
134,241,36323,5,2,2:2:0:0:
73,59,36609,1,2,2:2:0:0:
120,126,36894,102,0,L|108:164,1,37.3333333333333,2|0,0:0|0:0,0:0:0:0:
301,223,37496,22,0,P|367:258|440:275,1,125.999996154785,2|0,2:2|2:2,2:2:0:0:
445,338,38084,2,0,P|405:313|413:274,1,83.9999974365235,2|0,2:2|2:2,2:2:0:0:
487,272,38889,1,0,2:2:0:0:
341,42,39176,5,2,2:2:0:0:
316,68,39319,1,2,2:2:0:0:
325,105,39463,2,0,P|345:115|378:142,1,41.9999987182618,2|0,2:2|2:2,2:2:0:0:
419,24,39751,2,0,P|431:69|434:116,1,84,2|0,2:2|2:2,2:2:0:0:
393,191,40328,102,0,P|338:204|289:235,1,115.50000352478,2|0,2:2|2:2,2:2:0:0:
435,260,40905,2,0,P|470:271|501:291,1,73.4999977569581,2|0,2:2|2:2,2:2:0:0:
507,304,41482,5,2,2:2:0:0:
280,67,41770,2,0,P|349:87|360:-18,1,181.999991668702,2|0,2:2|2:2,2:2:0:0:
461,31,42619,102,0,P|461:25|463:19,1,11.6666666666667,2|0,2:3|2:2,2:2:0:0:
352,139,45457,5,2,2:2:0:0:
374,72,45737,101,2,2:2:0:0:
401,194,45943,1,2,2:2:0:0:
279,154,46149,1,2,2:2:0:0:
135,225,46355,86,0,B|87:217|87:217|79:158,1,97.9999970092774,2|0,2:2|2:2,2:2:0:0:
200,271,47183,2,0,L|217:335,2,48.9999985046387,2|0|0,2:2|2:2|2:2,2:2:0:0:
154,368,48048,1,2,2:2:0:0:
54,169,48337,6,0,L|70:213,1,28,2|0,2:2|2:2,2:2:0:0:
130,162,48625,2,0,L|87:58,1,112,2|0,2:2|2:2,2:2:0:0:
243,147,49461,2,0,B|230:125|230:125|6:87,1,251.999992309571,2|2,2:2|2:2,2:2:0:0:
40,23,50443,1,2,2:2:0:0:
40,23,50589,1,2,2:2:0:0:
197,202,50880,102,0,L|98:241,1,97.9999970092774,0|0,2:2|2:2,2:2:0:0:
147,335,51749,2,0,L|106:316,1,41.9999987182618,0|0,2:2|2:2,2:2:0:0:
58,384,52619,2,0,L|53:370,1,14,0|0,2:2|2:2,2:2:0:0:
53,370,54034,5,2,2:2:0:0:
96,225,54605,1,2,2:2:0:0:
139,80,54891,1,2,2:2:0:0:
70,116,55176,102,0,L|79:148,1,26.2500010013581,2|0,0:0|0:0,0:0:0:0:
125,332,55491,1,4,3:3:0:0:
125,332,60049,5,4,3:3:0:0:
125,332,64633,101,4,3:3:0:0:
125,332,69204,5,4,3:3:0:0:
125,332,72347,102,0,L|118:302,1,28,2|0,3:2|0:0,0:0:0:0:
46,301,73204,5,2,3:2:0:0:
198,349,73490,1,2,0:0:0:0:
349,82,73775,22,0,P|353:104|369:126,1,35,6|0,3:3|0:0,0:0:0:0:
430,152,74063,1,2,3:2:0:0:
430,152,74201,1,2,3:2:0:0:
473,89,74334,2,0,P|466:50|444:11,1,70,2|0,3:2|3:2,0:0:0:0:
310,218,75033,101,2,0:0:0:0:
269,221,75172,2,0,P|280:211|318:201,1,35,2|0,0:0|0:0,0:0:0:0:
337,141,75450,1,2,3:3:0:0:
306,295,75744,2,0,P|318:229|355:134,1,167.999994873047,2|0,0:0|0:0,0:0:0:0:
508,299,76623,5,2,0:0:0:0:
476,369,76893,2,0,P|419:358|425:288,1,125.999996154785,2|0,3:0|3:0,0:0:0:0:
428,294,77464,1,2,3:2:0:0:
496,127,77750,102,0,P|479:149|467:205,1,52.5000020027161,2|0,3:2|0:0,0:0:0:0:
379,109,78035,2,0,P|387:132|383:152,1,35,8|0,3:3|0:0,0:0:0:0:
450,60,78321,5,6,3:3:0:0:
401,219,78511,1,2,0:0:0:0:
309,264,78701,1,2,0:0:0:0:
306,344,78892,1,2,0:0:0:0:
512,114,79183,101,2,3:3:0:0:
480,187,79328,2,0,P|435:180|418:104,1,105.000004005432,2|0,3:2|0:0,0:0:0:0:
419,121,79748,1,2,0:0:0:0:
351,78,80028,2,0,P|355:53|401:28,1,70,2|0,3:2|0:0,0:0:0:0:
407,32,80469,1,0,3:0:0:0:
418,43,80616,1,8,3:0:0:0:
496,297,81044,5,8,3:3:0:0:
488,285,81187,1,2,3:2:0:0:
435,341,81473,2,0,B|379:336|405:302|334:296,1,105.000004005432,6|0,3:3|0:0,0:0:0:0:
512,378,82330,101,2,3:2:0:0:
311,222,82616,2,0,P|320:202|328:169,2,46.6666666666667,8|8|8,3:0|3:0|3:0,0:0:0:0:
178,325,82901,102,0,B|149:314|149:314|121:205,1,125.999996154785,6|2,3:3|0:0,0:0:0:0:
198,122,83471,2,0,L|185:172,1,45.4999979171754,2|0,3:2|0:0,0:0:0:0:
231,231,83762,1,2,3:2:0:0:
39,122,84053,102,0,B|53:82|53:82|145:53,1,125.999996154785,2|2,0:0|0:0,0:0:0:0:
143,38,84484,1,2,0:0:0:0:
155,19,84624,1,2,3:2:0:0:
0,11,84896,2,0,B|40:31|40:31|57:134,1,146.999995513916,2|0,3:3|0:0,0:0:0:0:
210,165,85467,6,0,L|157:150,1,31.4999990386963,2|0,3:2|0:0,0:0:0:0:
114,260,85755,2,0,L|104:204,1,52.5000020027161,2|0,3:2|0:0,0:0:0:0:
200,246,86043,1,2,3:3:0:0:
188,71,86463,101,0,3:0:0:0:
200,64,86603,1,0,3:2:0:0:
104,208,86890,2,0,L|114:260,1,52.5000020027161,2|0,3:2|0:0,0:0:0:0:
179,156,87177,2,0,L|210:165,1,31.4999990386963,8|0,0:3|0:0,0:0:0:0:
48,372,87464,5,6,3:3:0:0:
200,246,87764,1,2,0:0:0:0:
15,178,88049,1,2,0:0:0:0:
92,273,88335,101,8,3:0:0:0:
106,266,88478,2,0,L|143:147,1,97.9999970092774,2|0,3:2|0:0,0:0:0:0:
212,146,88906,2,0,L|235:67,1,66.4999982242585,2|0,0:0|0:0,0:0:0:0:
135,32,89186,6,0,L|157:102,1,41.9999987182618,2|0,3:3|0:0,0:0:0:0:
201,223,89466,2,0,L|214:260,1,28,2|8,0:0|3:3,0:0:0:0:
44,383,90175,101,8,3:3:0:0:
37,368,90318,1,2,3:2:0:0:
112,347,90604,2,0,B|128:311|128:311|114:281|114:281|134:236,1,105,6|0,3:3|0:0,0:0:0:0:
89,69,91192,6,0,B|65:105|65:105|96:152,1,80.5000015354157,2|0,0:0|0:0,0:0:0:0:
235,79,91472,2,0,B|227:53|227:53|183:36,1,52.5000020027161,2|0,0:0|0:0,0:0:0:0:
163,117,91752,102,0,L|177:167,2,41.9999987182618,8|8|8,3:0|3:0|3:0,0:0:0:0:
367,6,92046,22,0,P|403:22|411:62,1,84,6|0,3:3|0:0,0:0:0:0:
398,70,92622,1,0,3:0:0:0:
322,98,92911,2,0,P|303:76|306:57,1,41.9999987182618,2|0,3:3|0:0,0:0:0:0:
465,129,93776,1,0,3:0:0:0:
465,129,94065,1,0,0:0:0:0:
311,384,94353,6,0,P|330:368|362:353,1,52.4999983978272,6|0,3:3|3:0,0:0:0:0:
258,224,95190,2,0,P|324:237|388:272,1,122.499996261597,10|0,3:3|0:0,0:0:0:0:
373,270,96027,2,0,P|355:265|330:250,1,35,2|0,0:0|0:0,0:0:0:0:
360,29,96318,1,10,3:3:0:0:
366,15,96413,1,8,3:3:0:0:
378,5,96508,1,8,3:3:0:0:
392,0,96603,2,0,P|449:75|488:196,1,210.000008010865,6|0,3:3|0:0,0:0:0:0:
398,152,97460,102,0,P|391:138|385:122,1,17.5,2|0,3:3|0:0,0:0:0:0:
390,136,99765,2,0,P|353:133|332:85,1,94.499997116089,2|0,0:0|0:0,0:0:0:0:
342,75,100336,1,2,3:2:0:0:
474,24,100619,5,2,3:2:0:0:
424,203,100902,2,0,P|447:200|463:169,2,46.6666666666667,10|8|8,3:0|3:0|3:0,0:0:0:0:
200,181,101199,86,0,L|175:90,1,84,6|0,3:3|0:0,0:0:0:0:
185,89,101759,1,0,3:0:0:0:
83,161,102040,2,0,L|104:115,1,41.9999987182618,2|0,3:3|0:0,0:0:0:0:
21,78,102600,2,0,L|47:65,1,20.9999993591309,2|0,0:0|3:0,0:0:0:0:
99,344,103166,101,8,3:0:0:0:
91,342,103260,1,8,3:0:0:0:
83,341,103354,1,8,3:0:0:0:
75,340,103449,2,0,B|37:316|37:316|55:270,1,87.5,10|0,3:0|0:0,0:0:0:0:
200,177,104306,2,0,B|250:237|250:237|190:294,1,157.499995193482,10|0,3:3|0:0,0:0:0:0:
180,291,105163,2,0,L|162:232,1,35,2|0,0:0|0:0,0:0:0:0:
0,132,105449,1,10,3:0:0:0:
14,128,105550,1,8,3:0:0:0:
29,124,105651,1,8,3:0:0:0:
43,121,105752,2,0,B|86:14|86:14|221:52,1,224,6|0,3:0|0:0,0:0:0:0:
235,114,106617,6,0,L|211:106,1,17.5,2|0,3:0|0:0,0:0:0:0:
11,349,108035,101,2,0:0:0:0:
40,325,108221,1,2,0:0:0:0:
46,362,108408,1,2,0:0:0:0:
33,344,108595,6,0,B|128:315,1,90.9999958343508,2|8,0:0|3:3,0:0:0:0:
120,317,109477,2,0,L|135:250,1,59.5000011348725,2|0,0:0|0:0,0:0:0:0:
200,283,109762,2,0,L|187:340,1,41.9999987182618,2|0,3:3|0:0,0:0:0:0:
120,245,110048,102,0,L|108:196,2,27.9999991455078,8|8|8,3:0|3:0|3:0,0:0:0:0:
319,338,110334,22,0,P|355:314|418:291,1,105,6|0,3:0|0:0,0:0:0:0:
416,301,110910,1,0,3:0:0:0:
351,187,111199,2,0,P|385:195|433:221,1,84,2|0,3:3|3:0,0:0:0:0:
501,197,112336,1,2,0:0:0:0:
347,13,112616,6,0,P|314:24|303:65,1,70,6|0,3:3|0:0,0:0:0:0:
491,157,113473,2,0,P|475:93|410:82,1,140,10|0,3:3|0:0,0:0:0:0:
403,94,114330,2,0,P|398:113|410:126,1,35,2|0,0:0|0:0,0:0:0:0:
365,340,114616,1,10,3:3:0:0:
357,355,114711,1,8,3:3:0:0:
359,369,114806,1,8,3:3:0:0:
369,378,114901,2,0,P|453:371|435:242,1,224,6|0,3:0|0:0,0:0:0:0:
366,257,115747,102,0,P|378:263|395:266,1,17.5,2|0,3:0|0:0,0:0:0:0:
382,264,117742,1,2,0:0:0:0:
339,210,118039,2,0,P|365:180|384:142,1,70,2|0,3:0|0:0,0:0:0:0:
387,30,118898,6,0,P|371:15|372:-9,1,35,0|0,3:0|0:0,0:0:0:0:
481,32,119175,2,0,P|469:59|429:69,1,52.5000020027161,2|0,3:2|0:0,0:0:0:0:
208,99,119472,86,0,L|121:132,1,83.9999974365235,6|0,3:3|0:0,0:0:0:0:
74,84,119900,1,0,3:0:0:0:
117,27,120043,2,0,L|164:11,1,41.9999987182618,2|0,3:2|0:0,0:0:0:0:
74,184,120329,102,0,B|19:255|19:255|36:287,1,105,2|0,3:2|0:0,0:0:0:0:
29,281,120900,2,0,L|83:302,1,35,0|0,3:2|0:0,0:0:0:0:
15,139,121175,2,0,L|-1:87,1,52.5000020027161,2|0,3:3|0:0,0:0:0:0:
115,22,121475,5,10,3:0:0:0:
129,26,121575,1,8,3:0:0:0:
143,30,121675,1,8,3:0:0:0:
157,34,121775,2,0,B|186:138|186:138|147:174,1,157.500006008148,2|0,3:2|3:2,0:0:0:0:
235,365,122923,102,0,L|249:323,1,26.2500010013581,2|0,3:2|0:0,0:0:0:0:
215,275,123190,1,0,3:0:0:0:
215,275,123324,1,0,3:0:0:0:
145,300,123458,2,0,L|119:369,1,52.5000020027161,2|0,3:3|0:0,0:0:0:0:
22,261,123746,5,8,3:0:0:0:
39,255,123842,1,8,3:0:0:0:
56,249,123938,1,8,3:0:0:0:
73,243,124034,2,0,B|43:194|43:194|56:159,1,78.7500030040742,6|0,3:0|3:0,0:0:0:0:
118,134,124616,101,0,3:0:0:0:
23,332,124913,1,8,3:0:0:0:
197,347,125333,5,8,3:3:0:0:
197,347,125473,1,2,3:2:0:0:
124,364,125754,1,6,3:3:0:0:
95,299,126063,1,8,3:0:0:0:
91,291,126155,1,8,3:0:0:0:
87,282,126248,1,8,3:0:0:0:
83,273,126340,2,0,L|64:329,1,52.5,2|0,3:2|0:0,0:0:0:0:
256,383,126900,101,2,3:2:0:0:
285,320,127181,37,2,3:2:0:0:
222,262,127466,85,2,0:2:0:0:
305,209,127752,5,2,0:2:0:0:
174,150,128038,85,2,3:2:0:0:
346,69,128323,37,2,0:2:0:0:
148,28,128609,6,0,L|-1:85,1,140,4|2,1:0|0:0,0:0:0:0:
0,11,129041,1,2,3:2:0:0:
157,41,129185,2,0,L|134:128,1,70,10|0,3:2|0:2,0:2:0:0:
220,264,129474,2,0,B|245:240|245:240|209:119,1,161.000003070831,2|0,3:2|3:2,0:2:0:0:
0,279,130045,70,0,L|29:184,1,80.5000015354157,10|0,3:2|0:2,0:2:0:0:
88,227,130328,2,0,L|146:197,1,59.5000011348725,10|0,0:3|0:2,0:2:0:0:
166,264,130611,2,0,L|209:276,1,45.4999979171754,4|0,0:3|0:2,0:2:0:0:
183,340,130894,2,0,L|204:376,1,31.4999990386963,2|0,3:2|0:2,0:2:0:0:
157,65,131326,101,2,2:2:0:0:
157,65,131470,2,0,B|156:31|156:31|211:18,1,62.9999980773926,2|0,3:2|0:2,0:2:0:0:
232,85,131759,1,2,1:2:0:0:
232,85,131903,1,2,0:2:0:0:
93,111,132047,2,0,B|52:94|52:94|21:136,1,87.5,2|0,0:2|0:2,0:2:0:0:
70,270,132332,2,0,B|145:252|145:252|155:171,1,154.000004699707,10|8,3:2|3:3,0:2:0:0:
81,188,132761,1,8,3:3:0:0:
81,188,132904,1,4,3:3:0:0:
436,19,133189,86,0,P|336:133|298:310,1,308.000009399414,6|8,1:2|0:2,0:2:0:0:
347,341,134046,2,0,P|408:349|414:272,1,136.499993751526,8|0,1:3|0:2,0:2:0:0:
331,145,134617,70,0,P|333:163|354:206,1,45.4999979171754,8|0,3:2|0:2,0:2:0:0:
392,100,134903,2,0,P|387:78|375:50,1,28,2|0,3:2|0:2,0:2:0:0:
262,115,135189,101,2,0:2:0:0:
262,115,135331,1,2,0:2:0:0:
413,222,135474,2,0,B|375:195|371:226|321:194,1,83.9999974365235,2|0,3:2|3:2,0:1:0:0:
289,2,136341,6,0,B|310:22|294:39|317:60,1,62.9999980773926,2|0,1:2|0:2,0:2:0:0:
509,142,136912,102,0,P|472:134|453:187,1,80.5000015354157,8|0,3:2|0:2,0:2:0:0:
378,179,137192,2,0,P|369:213|399:234,1,59.5000011348725,8|0,3:3|0:2,0:2:0:0:
390,301,137472,2,0,P|408:313|431:294,1,38.5000011749268,4|0,3:3|0:2,0:2:0:0:
138,174,137753,38,0,L|16:214,1,90.9999958343508,4|0,1:0|0:0,0:0:0:0:
23,79,138041,2,0,B|54:85|54:85|66:113,1,62.9999980773926,2|0,3:0|0:0,0:0:0:0:
153,286,138329,2,0,B|128:281|128:281|118:258,1,48.9999985046387,10|0,3:2|0:0,0:0:0:0:
221,78,138618,38,0,B|192:90|192:90|179:171|179:171|132:194,1,146.999995513916,2|0,1:2|0:0,0:0:0:0:
2,338,139184,2,0,B|20:288|20:288|49:275,1,73.4999977569581,10|0,3:2|0:0,0:0:0:0:
87,338,139467,1,8,3:3:0:0:
87,338,139608,1,8,3:0:0:0:
29,204,139750,6,0,L|17:174,1,31.4999990386963,6|0,2:3|3:0,0:0:0:0:
154,34,140316,2,0,L|100:237,1,210.000008010865,2|0,3:2|1:0,0:0:0:0:
222,287,141173,102,0,B|214:273|214:273|161:258,1,52.5000020027161,2|0,3:2|0:0,0:0:0:0:
187,189,141458,1,10,3:3:0:0:
133,384,141601,2,0,B|117:371|117:371|101:306,1,80.5000015354157,10|0,3:3|0:0,0:0:0:0:
221,374,141887,1,4,3:0:0:0:
221,374,142030,1,6,3:3:0:0:
403,169,142316,102,0,P|418:103|469:38,1,136.499993751526,6|0,1:2|0:0,0:0:0:0:
465,55,142604,2,0,P|503:76|496:119,1,90.9999958343508,2|0,0:0|0:0,0:0:0:0:
335,202,142892,38,0,P|346:252|385:303,1,105,10|0,3:2|0:0,0:0:0:0:
387,289,143181,2,0,P|417:275|416:242,1,70,2|0,1:2|0:0,0:0:0:0:
269,231,143469,5,0,3:0:0:0:
269,231,143614,1,0,3:0:0:0:
333,128,143758,2,0,P|323:88|286:45,1,70,10|0,3:2|0:0,0:0:0:0:
509,215,144043,102,0,P|506:169|423:207,1,140,2|0,3:0|1:0,0:0:0:0:
350,370,144615,5,2,3:0:0:0:
350,370,145191,1,2,3:2:0:0:
285,342,145461,2,0,P|302:300|343:305,1,84,2|2,1:2|0:0,0:0:0:0:
503,337,146032,102,0,P|498:350|496:364,1,28,10|0,3:2|0:0,0:0:0:0:
408,256,146320,2,0,P|422:271|432:308,1,52.5000020027161,10|0,3:3|0:0,0:0:0:0:
493,134,146608,2,0,P|476:173|475:225,1,77.0000023498536,6|0,3:0|0:0,0:0:0:0:
212,287,146897,38,0,B|171:306|171:306|102:183,1,175,4|0,1:1|0:0,0:0:0:0:
37,177,147325,1,2,0:0:0:0:
219,273,147468,2,0,B|240:221|240:221|213:208,1,83.9999974365235,10|0,3:2|0:0,0:0:0:0:
68,269,147754,2,0,L|24:403,1,112,0|0,1:0|0:0,0:0:0:0:
11,106,148329,38,0,B|29:61|29:61|81:66,1,87.5,10|0,3:2|0:0,0:0:0:0:
106,5,148616,2,0,B|139:12|139:12|149:45,1,66.4999982242585,10|0,3:0|0:0,0:0:0:0:
213,75,148904,2,0,B|215:99|215:99|192:118,1,48.9999985046387,4|0,3:0|0:0,0:0:0:0:
191,184,149192,2,0,B|174:192|174:192|155:179,1,35,2|0,3:2|0:0,0:0:0:0:
92,384,149601,5,2,0:0:0:0:
92,384,149743,2,0,L|116:318,1,45.4999979171754,2|0,3:2|0:0,0:0:0:0:
201,254,150029,2,0,L|172:334,1,70,2|0,1:2|0:0,0:0:0:0:
234,369,150320,1,0,3:0:0:0:
234,369,150465,1,0,3:0:0:0:
142,209,150611,2,0,L|-2:264,1,125.999996154785,10|8,3:2|3:0,0:0:0:0:
0,184,151035,1,8,3:0:0:0:
0,184,151177,1,6,3:0:0:0:
304,115,151477,70,0,B|345:114|360:153|339:162|355:197|403:196,1,131.25,6|0,1:2|0:0,0:0:0:0:
467,157,151756,2,0,P|437:149|403:193,1,87.5,2|0,3:2|0:0,0:0:0:0:
291,360,152036,70,0,B|294:332|322:320|323:332|347:317|352:286,1,94.499997116089,10|0,3:2|0:0,0:0:0:0:
317,238,152324,2,0,P|313:264|349:291,1,62.9999980773926,2|0,1:2|0:0,0:0:0:0:
467,231,152612,101,0,3:0:0:0:
467,231,152757,1,0,3:0:0:0:
418,83,152901,2,0,P|435:58|448:19,1,62.9999980773926,8|0,3:2|0:0,0:0:0:0:
273,134,153189,6,0,P|334:146|413:181,1,125.999996154785,8|4,3:0|3:0,0:0:0:0:
462,151,153744,1,2,3:0:0:0:
462,151,154320,1,2,3:2:0:0:
423,298,154609,102,0,P|448:323|469:361,1,73.4999977569581,0|0,1:0|3:0,0:0:0:0:
327,249,155180,6,0,P|328:236|343:213,1,24.4999992523194,10|0,3:2|0:0,0:0:0:0:
307,155,155470,2,0,P|327:135|354:129,1,45.4999979171754,10|0,3:3|0:0,0:0:0:0:
402,75,155760,2,0,P|443:84|472:123,1,70,6|0,3:0|0:0,0:0:0:0:
208,247,156027,6,0,L|163:161,1,80.5000015354157,4|0,1:0|0:0,0:0:0:0:
177,106,156321,1,2,3:2:0:0:
177,106,156468,1,0,3:2:0:0:
135,273,156615,2,0,L|116:351,1,56,10|0,3:2|0:0,0:0:0:0:
23,311,156895,2,0,B|49:286|49:286|260:335,1,224,2|8,1:2|0:0,0:0:0:0:
18,149,157752,70,0,B|-7:132|-7:132|7:84,1,56,8|0,3:0|0:0,0:0:0:0:
123,52,158037,2,0,B|155:74|155:74|137:137,1,77.0000023498536,6|0,3:0|0:0,0:0:0:0:
72,103,158323,1,2,3:0:0:0:
72,103,158895,1,2,3:2:0:0:
194,330,159167,102,0,L|169:254,1,52.5000020027161,2|0,1:2|0:0,0:0:0:0:
155,211,159458,1,2,3:0:0:0:
155,211,159603,1,0,3:0:0:0:
127,365,159749,2,0,B|135:329|135:329|239:265|239:265|247:223,1,188.999994232178,10|0,3:2|0:0,0:0:0:0:
65,182,160315,2,0,L|88:248,1,62.9999980773926,8|0,3:3|0:0,0:0:0:0:
362,293,160609,85,6,1:2:0:0:
297,352,160754,2,0,P|325:321|391:318,1,80.5000015354157,2|0,0:0|0:0,0:0:0:0:
499,253,161034,69,2,0:0:0:0:
432,237,161174,2,0,P|468:249|488:281,1,56,10|0,3:0|0:0,0:0:0:0:
441,371,161462,102,0,P|408:297|383:156,1,199.499994672775,0|0,1:0|3:0,0:0:0:0:
503,0,162039,6,0,P|517:21|489:65,1,77.0000023498536,8|0,3:2|0:0,0:0:0:0:
462,121,162327,2,0,P|424:123|403:91,1,59.5000011348725,8|0,3:0|0:0,0:0:0:0:
342,120,162616,2,0,P|327:92|344:67,1,41.9999987182618,4|0,3:0|0:0,0:0:0:0:
396,20,162904,101,2,3:0:0:0:
396,20,163470,2,0,P|417:59|418:112,1,83.9999974365235,2|0,3:2|1:0,0:0:0:0:
484,133,164030,1,2,3:0:0:0:
319,4,164316,5,10,3:2:0:0:
193,83,164459,85,10,3:2:0:0:
292,147,164602,5,10,3:0:0:0:
220,196,164745,85,8,3:0:0:0:
272,240,164887,37,6,3:0:0:0:
243,273,165030,85,4,3:0:0:0:
256,384,165173,38,0,B|244:348|244:348|65:278,1,210.000008010865,4|0,1:0|2:0,2:0:0:0:
51,220,165605,1,0,3:0:0:0:
4,384,165749,6,0,L|103:357,1,83.9999974365235,10|0,3:2|0:0,0:0:0:0:
220,227,166034,2,0,L|144:247,1,59.5000011348725,0|0,3:0|0:0,0:0:0:0:
125,302,166320,1,2,3:0:0:0:
190,0,166606,102,0,B|236:38|236:38|212:89,1,112,10|0,3:2|0:0,2:0:0:0:
82,108,166891,2,0,B|48:79|48:79|66:41,1,83.9999974365235,2|0,3:2|0:0,2:0:0:0:
143,65,167177,1,2,1:2:0:0:
143,65,167320,1,0,3:0:0:0:
1,194,167463,6,0,L|185:249,1,167.999994873047,6|0,1:2|3:0,2:1:0:0:
224,201,167891,1,0,3:0:0:0:
74,289,168034,102,0,L|109:367,1,83.9999974365235,10|0,3:2|0:0,0:0:0:0:
194,130,168320,2,0,L|227:55,1,66.4999982242585,2|0,1:2|0:0,2:0:0:0:
0,0,168606,6,0,B|21:7|21:7|28:71|28:71|55:81,1,105.000004005432,6|0,3:2|0:0,2:0:0:0:
3,205,168891,2,0,B|15:193|15:193|61:213|61:213|78:199,1,87.5,8|0,3:2|0:0,0:0:0:0:
165,260,169177,2,0,B|162:246|162:246|194:222|194:222|191:204,1,70,2|0,3:2|0:0,0:0:0:0:
135,163,169463,1,10,3:3:0:0:
135,163,169606,1,4,3:3:0:0:
303,267,169749,6,0,P|352:179|498:132,1,262.500010013581,4|0,1:1|0:0,2:1:0:0:
505,143,170177,1,2,0:0:0:0:
415,217,170320,2,0,P|407:197|349:131,1,90.9999958343508,10|0,3:2|0:0,2:1:0:0:
478,0,170606,6,0,P|507:32|488:67,1,73.4999977569581,0|0,1:0|0:0,0:0:0:0:
423,49,170891,1,0,3:0:0:0:
423,49,171034,1,0,3:0:0:0:
496,216,171177,102,0,B|428:243|475:277|395:314,1,136.499993751526,8|0,3:2|0:0,0:0:0:0:
387,305,171463,2,0,P|365:289|387:237,1,90.9999958343508,2|0,0:0|0:0,0:0:0:0:
512,302,171749,1,0,1:0:0:0:
345,384,172034,6,0,P|390:231|436:161,1,217.000001655579,2|0,1:3|3:0,0:0:0:0:
483,219,172463,1,0,3:0:0:0:
345,154,172606,2,0,P|312:103|347:74,1,108.500000827789,12|0,3:2|0:0,0:0:0:0:
493,52,172891,2,0,P|469:91|432:81,1,80.5000015354157,0|0,1:0|0:0,0:0:0:0:
392,28,173177,1,0,3:0:0:0:
397,380,173463,102,0,P|437:383|469:326,1,105.000004005432,14|0,3:2|0:0,0:0:0:0:
510,237,173749,2,0,P|501:206|432:207,1,83.9999974365235,10|0,1:3|0:0,0:0:0:0:
381,162,174034,2,0,P|353:167|340:215,1,62.9999980773926,6|0,1:3|0:0,0:0:0:0:
155,306,174320,102,0,B|128:300|128:300|50:99,1,210.000008010865,4|2,1:0|0:0,2:0:0:0:
114,78,174746,1,0,3:0:0:0:
31,246,174888,2,0,B|18:314|18:314|0:324,1,90.9999958343508,8|0,3:2|0:0,2:0:0:0:
85,359,175173,1,0,1:0:0:0:
85,359,175315,1,0,3:0:0:0:
3,169,175457,1,2,3:0:0:0:
85,359,175741,102,0,L|169:323,1,80.5000015354157,10|0,3:2|0:0,2:0:0:0:
144,132,176026,2,0,L|121:224,1,62.9999980773926,2|0,3:2|0:0,2:0:0:0:
181,254,176310,1,2,1:2:0:0:
181,254,176452,1,0,3:0:0:0:
78,89,176594,6,0,B|62:17|62:17|146:-4,1,146.999995513916,2|2,1:2|3:2,2:0:0:0:
183,51,177022,1,0,3:0:0:0:
27,143,177165,2,0,B|12:182|12:182|65:205,1,87.5,10|0,3:2|0:0,0:0:0:0:
3,73,177451,1,0,1:0:0:0:
3,73,177594,1,0,3:0:0:0:
193,201,177736,102,0,B|184:165|184:165|101:224|101:224|54:208,1,175,6|8,3:2|3:2,2:0:0:0:
25,326,178166,1,8,3:2:0:0:
101,323,178310,1,8,1:3:0:0:
136,372,178454,1,8,3:3:0:0:
177,358,178598,1,4,1:3:0:0:
196,368,178743,1,4,3:3:0:0:
339,292,178892,38,0,P|360:152|450:3,1,315.000012016297,4|0,1:0|3:0,2:0:0:0:
512,47,179463,1,10,3:2:0:0:
268,242,179749,102,0,P|375:179|425:89,1,189.000000720978,2|0,1:2|3:0,2:0:0:0:
392,53,180177,1,0,3:0:0:0:
394,205,180320,6,0,P|364:187|280:192,1,87.5,8|0,3:2|0:0,0:0:0:0:
502,351,180606,102,0,P|485:357|488:371,1,35,2|0,0:0|0:0,0:0:0:0:
431,300,180892,6,0,P|410:306|404:337,1,48.9999985046387,0|0,1:0|0:0,0:0:0:0:
400,212,181177,102,0,P|364:197|332:233,1,66.4999982242585,4|0,1:2|0:0,0:0:0:0:
451,129,181463,6,0,P|434:88|378:78,1,83.9999974365235,2|0,0:0|0:0,0:0:0:0:
272,343,181749,102,0,P|309:328|330:258,1,94.5000003604889,10|0,3:2|0:0,0:0:0:0:
451,262,182034,6,0,P|437:218|347:173,1,105.000004005432,2|0,1:2|0:0,0:0:0:0:
308,37,182320,102,0,P|278:97|280:160,1,119.000002269745,6|0,3:2|0:0,0:0:0:0:
356,336,182606,5,10,1:2:0:0:
425,366,182749,1,8,3:3:0:0:
482,322,182892,1,10,1:3:0:0:
478,280,183034,1,8,3:3:0:0:
464,263,183177,1,6,1:3:0:0:
0,293,183463,86,0,B|94:258|94:258|142:129,1,210.000008010865,4|0,1:0|3:0,2:0:0:0:
79,107,183891,1,0,3:0:0:0:
183,238,184034,1,8,3:2:0:0:
183,238,184177,1,0,3:0:0:0:
209,164,184320,2,0,B|216:122|216:122|168:77,1,87.5,2|0,3:0|0:0,0:0:0:0:
157,306,184605,2,0,B|150:343|150:343|193:383,1,73.4999977569581,2|0,3:3|0:0,0:0:0:0:
21,218,184891,102,0,L|249:302,1,220.499993270874,10|0,3:2|3:0,0:0:0:0:
247,361,185463,1,2,1:2:0:0:
91,155,185748,6,0,L|225:119,1,131.25,6|0,1:2|0:0,2:0:0:0:
228,130,186034,2,0,L|203:201,1,70,2|0,3:2|0:0,2:0:0:0:
20,89,186320,2,0,L|43:25,1,48.9999985046387,8|0,3:2|0:0,0:0:0:0:
151,297,186605,102,0,B|98:59,1,220.499993270874,2|0,1:2|3:0,2:0:0:0:
239,16,187177,6,0,B|186:2|186:2|165:77,1,112,10|0,3:2|0:0,0:0:0:0:
18,50,187463,2,0,B|-6:85|-6:85|43:121,1,87.5,8|0,3:0|0:0,0:0:0:0:
10,211,187748,2,0,B|28:237|28:237|67:211,1,62.9999980773926,6|0,3:0|0:0,0:0:0:0:
295,73,188034,6,0,P|361:86|468:128,1,157.500006008148,4|0,1:0|0:0,0:0:0:0:
458,109,188320,2,0,P|462:48|422:41,1,105.000004005432,2|0,3:2|0:0,0:0:0:0:
400,222,188605,6,0,P|430:264|455:326,1,115.50000352478,10|0,3:2|0:0,0:0:0:0:
464,331,188891,2,0,P|510:318|507:272,1,90.9999958343508,2|0,0:0|0:0,0:0:0:0:
337,315,189177,102,0,P|326:355|307:394,1,73.4999977569581,0|0,3:0|0:0,0:0:0:0:
434,160,189463,2,0,P|410:125|388:44,1,110.249996635437,10|0,3:2|0:0,0:0:0:0:
401,65,189748,2,0,B|357:92|398:104|331:143,1,105.000004005432,2|0,3:0|0:0,0:0:0:0:
308,54,190034,5,0,1:0:0:0:
308,54,190177,1,0,3:0:0:0:
512,190,190320,2,0,B|515:101|463:137|490:22,1,161.000003070831,2|0,1:3|3:0,0:0:0:0:
427,0,190748,1,0,3:0:0:0:
453,227,190891,102,0,P|408:244|409:294,1,80.5000015354157,10|0,3:2|0:0,0:0:0:0:
512,302,191177,2,0,P|503:238|301:166,1,241.500004606247,2|0,1:2|0:0,0:0:0:0:
300,378,191748,6,0,P|373:345|405:340,1,90.9999958343508,2|0,1:2|0:0,0:0:0:0:
354,157,192034,2,0,P|338:204|318:231,1,77.0000023498536,10|0,3:0|0:0,0:0:0:0:
496,276,192320,2,0,P|466:271|418:248,1,62.9999980773926,4|0,3:0|0:0,0:0:0:0:
182,104,192605,70,0,B|153:118|153:118|109:260|109:260|69:281,1,210.000008010865,4|0,1:0|3:0,2:0:0:0:
29,232,193034,1,0,3:0:0:0:
181,287,193177,6,0,B|199:345|199:345|230:360,1,83.9999974365235,10|0,3:2|0:0,0:0:0:0:
65,169,193463,2,0,B|30:58|30:58|-28:30,1,146.999995513916,2|2,1:2|3:0,0:0:0:0:
243,4,194034,101,8,3:2:0:0:
243,4,194177,1,0,3:0:0:0:
188,128,194320,2,0,B|210:122|210:122|235:75,1,73.4999977569581,2|0,1:2|0:0,0:0:0:0:
165,0,194605,2,0,B|108:33|108:33|101:60,1,90.9999958343508,2|0,1:2|0:0,0:0:0:0:
43,246,194891,6,0,L|220:285,1,181.999991668702,2|0,1:2|3:0,2:0:0:0:
248,220,195320,1,0,3:0:0:0:
196,373,195463,102,0,B|150:384|150:384|136:339,1,90.9999958343508,10|0,3:2|0:0,0:0:0:0:
59,145,195748,2,0,B|95:136|95:136|107:186,1,70,2|0,1:2|0:0,0:0:0:0:
0,367,196034,6,0,B|25:356|25:356|55:246,1,131.25,2|0,3:2|0:0,2:0:0:0:
41,257,196320,2,0,L|75:360,1,97.9999970092774,8|0,3:2|0:0,2:0:0:0:
125,98,196605,2,0,L|94:193,1,73.4999977569581,10|0,3:0|0:0,0:0:0:0:
250,42,196891,2,0,L|189:81,1,56,6|0,3:0|0:0,0:0:0:0:
446,272,197177,6,0,P|325:242|354:92,1,293.999991027832,4|0,1:0|3:0,2:0:0:0:
469,44,197748,2,0,P|472:84|421:108,1,97.9999970092774,10|0,3:2|0:0,0:0:0:0:
393,42,198034,1,0,1:0:0:0:
393,42,198177,1,0,3:0:0:0:
486,173,198320,6,0,P|419:261|393:374,1,181.999991668702,2|8,3:0|3:2,0:0:0:0:
455,371,198748,1,0,3:0:0:0:
353,228,198891,102,0,P|338:183|309:135,1,90.9999958343508,2|0,1:2|0:0,0:0:0:0:
264,194,199177,1,0,1:0:0:0:
280,384,199463,6,0,P|300:371|311:386,1,35,2|0,1:2|0:0,0:0:0:0:
353,313,199748,102,0,P|385:315|390:339,1,52.5000020027161,2|0,3:2|0:0,0:0:0:0:
283,116,200034,6,0,P|292:86|335:87,1,66.4999982242585,10|0,3:2|0:0,0:0:0:0:
406,25,200320,102,0,P|440:39|425:95,1,80.5000015354157,2|0,1:2|0:0,0:0:0:0:
497,208,200605,6,0,P|474:253|432:255,1,97.9999970092774,2|0,3:2|0:0,0:0:0:0:
203,71,200891,70,0,B|196:43|196:43|106:-19,1,105.000004005432,10|0,3:2|0:0,0:0:0:0:
75,168,201177,6,0,B|55:160|55:160|-22:188,1,80.5000015354157,10|0,3:0|0:0,0:0:0:0:
46,292,201463,102,0,B|32:303|32:303|19:372,1,59.5000011348725,6|0,3:0|0:0,0:0:0:0:
93,380,201748,5,4,3:2:0:0:
103,357,206029,37,2,0:0:0:0:
121,313,206180,1,2,0:0:0:0:
194,320,206332,2,0,B|225:285|225:285|192:252|192:252|165:173|165:173|131:150,1,210,6|0,0:0|0:0,0:0:0:0:
137,154,209760,6,0,B|147:184|147:184|118:230,1,70,2|0,0:0|0:0,0:0:0:0:
62,255,210189,2,0,B|63:271|63:271|117:300,1,70,2|0,0:0|0:0,0:0:0:0:
161,347,210648,1,2,0:0:0:0:
161,347,210933,2,0,B|125:325|125:325|120:268|120:268|57:173,1,203.000006195069,2|0,0:0|0:0,0:0:0:0:
211,11,211790,101,2,0:0:0:0:
148,47,211944,1,2,0:0:0:0:
145,93,212099,2,0,B|160:124|160:124|123:190|123:190|92:165|92:165|56:183,1,183.750007009506,2|0,0:0|0:0,0:0:0:0:
62,181,214315,6,0,L|71:220,1,26.2500010013581,2|0,0:0|0:0,0:0:0:0:
20,253,214600,2,0,B|35:240|35:240|55:164,1,78.7500030040742,2|0,0:0|0:0,0:0:0:0:
0,133,215172,1,2,0:0:0:0:
62,325,215469,102,0,B|105:332|105:332|122:284|122:284|207:270|207:270|225:248,1,210.000008010865,2|0,0:0|0:0,0:0:0:0:
225,247,218887,2,0,B|157:230|157:230|143:185,1,110.249996635437,2|0,0:0|0:0,0:0:0:0:
60,64,220029,5,2,0:0:0:0:
95,90,220172,2,0,B|99:106|99:106|79:128|79:128|67:157,1,52.5000020027161,2|0,0:0|0:0,0:0:0:0:
76,133,222029,1,0,0:0:0:0:
455,341,224315,5,2,0:0:0:0:
495,309,224465,1,2,0:0:0:0:
488,242,224615,2,0,B|447:210|406:228|333:240|309:302|357:304,1,210,2|0,0:0|0:0,0:0:0:0:
355,303,228043,2,0,B|425:285|320:227|345:120|477:140|388:212,1,231.000007049561,2|0,0:0|0:0,0:0:0:0:
325,112,229186,5,2,0:0:0:0:
352,43,229329,1,2,0:0:0:0:
398,31,229472,2,0,B|380:107|306:70|268:124|270:193|417:210,1,280,2|0,0:0|0:0,0:0:0:0:
488,376,231186,102,0,P|482:364|492:340,1,28,2|0,0:0|0:0,0:0:0:0:
422,313,231472,2,0,B|428:297|449:298|460:269,1,56,2|0,0:0|0:0,0:0:0:0:
396,230,231900,2,0,B|387:220|321:265|350:332,1,112,2|0,0:0|0:0,0:0:0:0:
299,32,234043,6,0,P|319:46|323:71,1,35,2|0,0:0|0:0,0:0:0:0:
317,128,234337,2,0,B|371:132|347:105|402:107|418:87,1,105,2|0,0:0|0:0,0:0:0:0:
465,236,234897,102,0,P|486:226|498:181,1,45.4999979171754,2|0,0:0|0:0,0:0:0:0:
377,202,235178,2,0,B|396:225|373:248|438:339,1,136.499993751526,2|0,0:0|0:0,0:0:0:0:
498,355,235738,1,2,0:0:0:0:
279,191,236029,6,0,B|259:179|309:111|342:105,1,90.9999958343508,2|0,0:0|0:0,0:0:0:0:
304,49,236466,2,0,B|304:32|362:39|378:57,1,56,2|0,0:0|0:0,0:0:0:0:
415,11,236757,2,0,B|422:6|435:36|431:48,1,35,2|0,0:0|0:0,0:0:0:0:
116,384,238030,69,2,0:0:0:0:
88,322,238172,1,2,0:0:0:0:
19,313,238315,1,2,0:0:0:0:
116,384,239172,5,2,0:0:0:0:
88,322,239315,1,2,0:0:0:0:
19,313,239457,2,0,L|-6:258,1,46.6666666666667,2|2,0:0|0:0,0:0:0:0:
38,212,239743,101,2,0:0:0:0:
42,196,239838,1,2,0:0:0:0:
46,180,239934,1,2,0:0:0:0:
51,165,240029,1,2,0:0:0:0:
55,149,240124,1,2,0:0:0:0:
60,134,240219,1,2,0:0:0:0:
65,118,240315,2,0,L|46:68,1,35,2|2,0:0|0:0,0:0:0:0:
256,0,240600,22,0,P|258:13|263:28,2,17.5,2|0|0,3:2|0:0|0:0,0:0:0:0:
220,68,240886,102,0,B|217:83|217:83|209:105,2,20.9999993591309,2|0|0,0:0|0:0|0:0,0:0:0:0:
295,91,241172,22,0,P|300:110|310:126,2,26.2500010013581,2|0|0,3:2|0:0|0:0,0:0:0:0:
196,160,241457,70,0,B|188:175|188:175|160:202,2,33.2499991121292,2|0|0,0:0|0:0|0:0,0:0:0:0:
323,197,241743,22,0,P|333:214|355:230,2,40.2500007677078,2|0|0,3:2|0:0|0:0,0:0:0:0:
157,269,242029,102,0,B|138:286|138:286|103:301,2,47.2500001802444,2|0|0,3:2|0:0|0:0,0:0:0:0:
358,328,242315,22,0,P|379:345|420:353,2,54.2500004138947,2|0|0,3:2|0:0|0:0,0:0:0:0:
85,364,242600,69,10,3:0:0:0:
85,364,242743,1,4,3:0:0:0:
256,384,242887,86,0,P|296:267|449:169,1,271.250002069473,4|0,1:0|0:0,2:0:0:0:
422,186,243315,1,2,3:3:0:0:
352,312,243458,2,0,P|315:272|305:189,1,119.000002269745,10|0,3:2|0:0,2:0:0:0:
465,120,243744,2,0,P|504:134|511:176,1,87.5,0|0,1:0|0:0,0:0:0:0:
475,244,244029,1,2,3:0:0:0:
475,244,244172,1,0,3:0:0:0:
320,142,244315,6,0,B|295:93|284:116|258:64,1,97.9999970092774,10|0,3:2|0:0,2:0:0:0:
424,4,244601,2,0,B|407:42|395:20|374:61,1,73.4999977569581,2|0,3:2|0:0,2:0:0:0:
264,208,244887,102,0,P|351:87|515:50,1,312.374995829344,2|0,3:2|0:0,2:0:0:0:
508,58,245458,2,0,P|487:109|440:106,1,89.249998808384,2|0,3:2|0:0,2:0:0:0:
307,0,245744,1,8,3:2:0:0:
307,0,245887,1,0,3:0:0:0:
384,198,246029,6,0,P|378:270|415:350,1,133.874998212576,2|0,3:2|0:0,2:0:0:0:
411,327,246315,2,0,P|440:317|433:259,1,70,10|0,3:2|0:0,0:0:0:0:
288,212,246601,102,0,P|270:266|309:305,1,101.500003097534,2|0,1:2|0:0,2:0:0:0:
364,113,246887,2,0,P|342:88|287:104,1,80.5000015354157,8|0,3:2|0:0,0:0:0:0:
475,193,247172,2,0,P|495:171|471:130,1,62.9999980773926,6|0,3:3|0:0,1:0:0:0:
190,47,247458,102,0,L|39:101,1,157.500006008148,4|0,1:0|0:0,2:0:0:0:
31,91,247744,2,0,B|28:60|28:60|69:12,1,87.5,2|0,3:2|0:0,0:0:0:0:
177,173,248029,2,0,B|216:150|216:150|223:125,1,70,14|0,3:2|0:0,0:0:0:0:
49,211,248315,2,0,L|9:287,1,62.9999980773926,0|0,1:0|0:0,0:0:0:0:
175,384,248601,102,0,L|117:216,1,157.500006008148,2|0,3:0|0:0,0:0:0:0:
138,233,248887,2,0,B|120:286|120:286|178:314,1,105.000004005432,12|0,3:2|0:0,0:0:0:0:
226,108,249172,2,0,B|239:67|239:67|195:45,1,83.9999974365235,2|0,3:2|0:0,0:0:0:0:
49,130,249458,5,0,1:0:0:0:
49,130,249601,1,8,3:2:0:0:
233,236,249744,2,0,L|144:-7,1,251.999992309571,4|0,1:2|2:2,2:0:0:0:
75,200,250315,102,0,L|29:340,1,125.999996154785,10|0,3:2|0:0,0:0:0:0:
49,325,250601,2,0,L|16:230,1,83.9999974365235,2|0,1:2|0:0,0:0:0:0:
214,307,250887,1,12,3:2:0:0:
222,0,251172,6,0,B|233:28|233:28|178:101,1,94.5000003604889,2|0,1:2|0:0,0:0:0:0:
15,41,251458,2,0,B|36:32|36:32|91:74,1,77.0000023498536,10|0,3:2|0:0,0:0:0:0:
54,208,251744,2,0,B|48:193|48:193|76:156,1,56,6|0,3:3|0:0,0:0:0:0:
360,22,252029,22,0,P|388:121|428:186,1,157.500006008148,6|0,1:2|0:0,2:0:0:0:
401,168,252315,2,0,B|411:115|441:137|458:69,1,105.000004005432,2|0,3:2|0:0,0:0:0:0:
273,73,252601,2,0,P|447:166|482:354,1,367.500014019013,6|0,1:2|0:0,2:0:0:0:
479,325,253172,2,0,B|438:309|466:289|378:271,1,80.5000015354157,2|0,3:2|0:0,0:0:0:0:
512,131,253458,101,8,3:2:0:0:
512,131,253601,1,2,3:0:0:0:
350,222,253744,2,0,P|319:223|268:245,1,80.5000015354157,2|0,3:2|0:0,2:0:0:0:
369,138,254029,6,0,P|338:93|286:38,1,110.249996635437,2|0,1:2|0:0,2:0:0:0:
288,52,254315,2,0,P|261:86|297:124,1,73.4999977569581,6|0,1:2|0:0,0:0:0:0:
459,134,254601,102,0,P|474:64|501:0,1,141.750000540733,2|0,3:2|0:0,2:0:0:0:
487,0,254887,2,0,P|490:33|527:110,1,94.5000003604889,8|0,0:0|0:0,0:0:0:0:
348,311,255172,5,2,1:2:0:0:
348,311,255315,1,0,3:0:0:0:
469,146,255458,2,0,P|451:190|436:256,1,94.5000003604889,2|0,3:3|0:0,0:0:0:0:
281,380,255744,102,0,P|396:329|496:311,1,189.000000720978,6|0,3:2|3:0,2:0:0:0:
512,373,256172,1,0,3:0:0:0:
512,373,256315,1,6,3:3:0:0:
161,213,256601,86,0,L|106:34,1,157.500006008148,4|0,1:0|0:0,2:0:0:0:
106,73,256887,2,0,L|232:108,1,94.5000003604889,2|0,3:2|0:2,0:2:0:0:
83,312,257172,2,0,L|-4:287,1,73.4999977569581,8|0,3:2|3:2,0:2:0:0:
23,139,257458,2,0,L|41:201,1,52.5000020027161,0|0,1:2|0:2,0:2:0:0:
0,380,257744,5,6,3:2:0:0:
4,384,257887,1,0,3:2:0:0:
196,285,258029,2,0,B|205:261|205:261|160:190,1,80.5000015354157,8|0,3:2|0:2,0:2:0:0:
87,0,258315,2,0,B|69:66|69:66|104:120,1,101.500003097534,2|0,3:2|0:2,0:2:0:0:
135,158,258601,101,0,1:2:0:0:
135,158,258744,1,8,3:2:0:0:
0,21,258887,1,4,1:2:0:0:
40,379,259172,6,0,B|25:358|25:358|-10:363,1,48.9999985046387,2|0,3:2|0:2,0:2:0:0:
87,315,259458,102,0,B|89:285|89:285|52:262,1,62.9999980773926,10|0,3:2|0:2,0:2:0:0:
188,348,259744,6,0,B|223:331|223:331|225:273,1,77.0000023498536,2|0,1:2|0:2,0:2:0:0:
60,0,260029,102,0,B|22:37|22:37|56:99,1,105.000004005432,14|0,0:2|0:2,0:2:0:0:
0,166,260315,6,0,B|25:200|25:200|83:183,1,83.9999974365235,2|0,1:2|0:2,0:2:0:0:
134,248,260601,102,0,B|166:244|166:244|177:199,1,70,6|0,3:2|0:2,0:2:0:0:
234,155,260887,6,0,B|235:130|235:130|203:115,1,52.5000020027161,2|0,1:2|0:2,0:2:0:0:
329,300,261172,22,0,P|385:232|513:184,1,218.75,4|0,1:1|0:2,2:2:0:0:
512,194,261601,1,2,3:2:0:0:
331,173,261744,102,0,P|352:137|354:78,1,87.5,10|0,3:2|0:2,0:2:0:0:
498,264,262029,2,0,P|478:297|475:335,1,70,0|0,1:2|0:2,0:2:0:0:
323,366,262315,2,0,P|341:336|338:285,1,52.5000020027161,2|0,3:3|0:2,0:2:0:0:
282,98,262601,5,10,3:2:0:0:
282,98,262744,1,0,3:2:0:0:
436,189,262887,2,0,B|367:202|403:232|300:259,1,125.999996154785,2|0,3:2|0:2,0:2:0:0:
321,245,263172,2,0,P|307:201|348:170,1,83.9999974365235,2|0,1:2|0:2,2:2:0:0:
508,212,263458,102,0,P|502:246|465:257,1,70,4|0,1:2|0:2,0:2:0:0:
384,130,263744,1,2,3:2:0:0:
384,130,263887,1,0,3:2:0:0:
512,0,264029,2,0,P|485:35|455:125,1,131.25,10|0,3:2|0:2,0:2:0:0:
468,120,264315,2,0,P|460:66|435:14,1,87.5,2|0,1:2|0:2,2:2:0:0:
283,88,264601,1,4,2:0:0:0:
302,344,264887,5,10,3:2:0:0:
370,288,265029,1,8,3:3:0:0:
440,270,265172,1,8,3:3:0:0:
479,268,265315,1,4,3:3:0:0:
499,274,265458,1,6,3:3:0:0:
129,75,265744,70,0,B|95:146|95:146|172:198,1,157.500006008148,4|0,1:1|0:2,0:2:0:0:
153,197,266029,2,0,L|242:157,1,90.9999958343508,2|0,3:2|0:2,0:2:0:0:
237,0,266315,2,0,L|200:82,1,73.4999977569581,8|0,3:2|0:2,0:2:0:0:
219,283,266601,2,0,L|243:233,1,56,0|0,1:2|0:2,0:2:0:0:
31,220,266887,5,2,3:3:0:0:
31,220,267029,1,0,3:2:0:0:
153,369,267172,2,0,B|135:324|135:324|-9:286,1,157.500006008148,12|0,3:2|0:2,0:2:0:0:
30,311,267458,2,0,L|148:283,1,90.9999958343508,0|0,3:2|0:2,0:2:0:0:
235,361,267744,101,0,1:2:0:0:
235,361,267887,1,8,0:2:0:0:
52,384,268029,2,0,B|118:193|118:193|166:178,1,251.999992309571,6|0,1:2|0:2,0:2:0:0:
0,48,268601,6,0,L|42:145,1,87.5,10|0,3:2|3:2,0:2:0:0:
171,67,268887,2,0,L|140:-3,1,62.9999980773926,0|0,1:2|0:2,0:2:0:0:
88,63,269172,1,8,0:2:0:0:
88,63,269315,1,0,3:3:0:0:
244,121,269458,102,0,B|233:169|233:169|176:194,1,97.9999970092774,2|0,1:3|0:2,0:2:0:0:
166,302,269744,2,0,B|125:296|125:296|100:251,1,80.5000015354157,10|0,3:2|0:2,0:2:0:0:
27,255,270029,2,0,B|14:227|14:227|32:191,1,59.5000011348725,2|0,1:2|0:2,0:2:0:0:
311,246,270315,22,0,P|367:267|479:376,1,210.000008010865,6|0,1:2|0:2,0:2:0:0:
276,340,270744,5,2,3:2:0:0:
450,209,270887,2,0,P|488:158|512:40,1,157.500006008148,4|0,1:1|0:2,0:2:0:0:
501,56,271172,2,0,P|463:49|445:118,1,105.000004005432,0|0,1:2|0:2,0:2:0:0:
510,272,271458,101,2,3:3:0:0:
510,272,271601,1,0,3:2:0:0:
341,375,271744,2,0,P|309:364|303:309,1,80.5000015354157,8|0,3:2|0:2,0:2:0:0:
352,159,272029,2,0,P|403:235|421:299,1,141.750000540733,2|0,3:2|0:2,0:2:0:0:
407,285,272315,2,0,P|431:230|427:172,1,94.5000003604889,2|0,1:2|3:2,0:2:0:0:
370,36,272601,6,0,P|322:144|304:235,1,189.000000720978,6|2,1:2|0:2,0:2:0:0:
328,283,273029,1,0,3:2:0:0:
267,82,273172,102,0,B|371:112|329:151|431:176,1,175,10|0,3:2|1:2,0:2:0:0:
454,101,273601,1,0,3:2:0:0:
474,293,273744,6,0,P|499:281|506:223,1,70,6|0,3:2|0:2,0:2:0:0:
319,326,274029,2,0,P|322:357|381:375,1,87.5,10|0,3:2|3:2,0:2:0:0:
508,382,274315,102,0,P|490:341|467:305,1,87.5,2|0,1:2|0:2,0:2:0:0:
329,147,274601,2,0,P|340:181|366:222,1,70,4|0,3:3|0:2,0:2:0:0:
182,313,274887,86,0,L|17:275,1,157.500006008148,4|0,1:0|0:0,0:0:0:0:
21,290,275172,2,0,B|91:265|91:265|114:213,1,115.500001101494,2|0,3:2|0:2,0:2:0:0:
0,67,275458,2,0,L|38:155,1,90.9999958343508,12|0,3:2|0:2,0:2:0:0:
148,362,275744,5,0,1:2:0:0:
148,362,275887,1,0,3:2:0:0:
193,221,276029,2,0,B|178:178|178:178|24:132,1,181.999991668702,2|8,3:3|3:2,0:2:0:0:
0,198,276458,1,0,3:2:0:0:
160,285,276601,102,0,L|213:60,1,189.000000720978,2|0,3:2|1:2,0:2:0:0:
148,55,277029,1,8,0:2:0:0:
292,189,277172,37,6,1:2:0:0:
147,296,277458,85,2,3:2:0:0:
441,222,277744,5,14,3:2:0:0:
194,229,278029,85,2,1:2:0:0:
512,384,278315,37,14,3:2:0:0:
426,11,278601,102,0,P|394:12|355:65,1,97.9999970092774,10|0,1:3|0:2,0:2:0:0:
291,136,278887,2,0,P|291:163|337:197,1,77.0000023498536,8|0,3:3|0:2,0:2:0:0:
371,254,279172,2,0,P|392:253|418:217,1,59.5000011348725,4|0,3:3|0:2,0:2:0:0:
256,0,279458,37,2,0:2:0:0:
256,384,288617,21,2,0:0:0:0:
318,352,289782,1,2,0:0:0:0:
256,384,290709,2,0,P|284:373|310:369,1,56,2|0,0:0|0:0,0:0:0:0:
