osu file format v14

[General]
AudioFilename: 2-01-windmill-hills.mp3
AudioLeadIn: 0
PreviewTime: 16074
Countdown: 0
SampleSet: Normal
StackLeniency: 0.7
Mode: 1
LetterboxInBreaks: 0
WidescreenStoryboard: 0

[Editor]
DistanceSpacing: 0.7
BeatDivisor: 4
GridSize: 32
TimelineZoom: 1

[Metadata]
Title:Windmill Hills
TitleUnicode:Windmill Hills
Artist:David Wise
ArtistUnicode:David Wise
Creator:-Tenshi-
Version:Oni
Source:Donkey Kong Country: Tropical Freeze
Tags:dkc dk wiiu nintendo switch platformer video game instrumental Kazaze
BeatmapID:2407888
BeatmapSetID:1153695

[Difficulty]
HPDrainRate:5
CircleSize:5
OverallDifficulty:5.5
ApproachRate:5
SliderMultiplier:1.4
SliderTickRate:1

[Events]
//Background and Video events
0,0,"BG.jpg",0,0
//Break Periods
//Storyboard Layer 0 (Background)
//Storyboard Layer 1 (Fail)
//Storyboard Layer 2 (Pass)
//Storyboard Layer 3 (Foreground)
//Storyboard Layer 4 (Overlay)
//Storyboard Sound Samples

[TimingPoints]
40,517.241379310345,4,1,0,50,1,0
40,-125,4,1,0,50,0,0
7798,-100,4,1,0,60,0,0
16074,-100,4,1,0,70,0,1
33143,-100,4,1,0,70,0,0
66764,-100,4,1,0,60,0,0
97281,-100,4,1,0,70,0,1
119393,-100,4,1,0,70,0,0
120040,-100,4,1,0,50,0,0

[HitObjects]
256,192,40,5,0,0:0:0:0:
288,192,427,1,8,0:0:0:0:
288,160,815,1,8,0:0:0:0:
288,160,1203,1,0,0:0:0:0:
110,141,1591,1,8,0:0:0:0:
224,192,2108,1,0,0:0:0:0:
192,256,2496,1,8,0:0:0:0:
128,224,2884,1,0,0:0:0:0:
128,224,3272,1,0,0:0:0:0:
160,115,3660,1,8,0:0:0:0:
224,192,4177,1,0,0:0:0:0:
192,160,4565,1,8,0:0:0:0:
192,160,4953,1,8,0:0:0:0:
192,160,5341,1,0,0:0:0:0:
199,108,5729,1,8,0:0:0:0:
320,128,6246,1,0,0:0:0:0:
192,160,6634,1,8,0:0:0:0:
288,128,7022,1,0,0:0:0:0:
288,128,7410,1,0,0:0:0:0:
288,128,7798,1,8,0:0:0:0:
160,192,7927,1,0,0:0:0:0:
160,192,8057,1,8,0:0:0:0:
202,37,8186,1,8,0:0:0:0:
224,192,8315,1,0,0:0:0:0:
224,96,8703,1,8,0:0:0:0:
192,96,9091,1,8,0:0:0:0:
192,96,9479,1,0,0:0:0:0:
224,160,9867,1,8,0:0:0:0:
224,160,9996,1,0,0:0:0:0:
224,160,10126,1,0,0:0:0:0:
194,40,10255,1,8,0:0:0:0:
160,160,10384,1,0,0:0:0:0:
192,96,10772,1,0,0:0:0:0:
192,96,11160,1,8,0:0:0:0:
192,96,11548,1,0,0:0:0:0:
256,128,11936,1,8,0:0:0:0:
256,128,12065,1,0,0:0:0:0:
256,128,12195,1,8,0:0:0:0:
175,64,12324,1,8,0:0:0:0:
320,128,12453,1,0,0:0:0:0:
256,96,12841,1,0,0:0:0:0:
256,96,13229,1,8,0:0:0:0:
256,96,13617,1,8,0:0:0:0:
224,96,14005,1,8,0:0:0:0:
224,96,14134,1,0,0:0:0:0:
224,96,14264,1,0,0:0:0:0:
181,38,14393,1,8,0:0:0:0:
224,96,14522,1,0,0:0:0:0:
224,128,14910,1,8,0:0:0:0:
192,160,15298,1,0,0:0:0:0:
224,96,15557,1,8,0:0:0:0:
224,96,15815,1,8,0:0:0:0:
192,128,16074,1,8,0:0:0:0:
159,157,16203,1,8,0:0:0:0:
181,92,16333,1,0,0:0:0:0:
181,92,16462,1,0,0:0:0:0:
256,128,16591,1,8,0:0:0:0:
192,96,16979,1,0,0:0:0:0:
224,64,17108,1,8,0:0:0:0:
256,32,17367,1,8,0:0:0:0:
256,64,17496,1,0,0:0:0:0:
192,96,17884,1,0,0:0:0:0:
192,96,18143,1,8,0:0:0:0:
160,128,18402,1,0,0:0:0:0:
224,64,18660,1,8,0:0:0:0:
224,64,18919,1,8,0:0:0:0:
160,64,19177,1,0,0:0:0:0:
192,64,19436,1,0,0:0:0:0:
192,64,19565,1,8,0:0:0:0:
160,128,19953,1,0,0:0:0:0:
192,96,20212,1,8,0:0:0:0:
128,96,20471,1,0,0:0:0:0:
128,96,20729,1,8,0:0:0:0:
256,160,21117,1,0,0:0:0:0:
256,224,21246,1,8,0:0:0:0:
224,128,21505,1,8,0:0:0:0:
224,128,21634,1,0,0:0:0:0:
224,96,21893,1,0,0:0:0:0:
256,96,22281,1,8,0:0:0:0:
256,64,22540,1,0,0:0:0:0:
256,96,22669,1,0,0:0:0:0:
161,103,22798,1,8,0:0:0:0:
256,64,23057,1,0,0:0:0:0:
256,64,23315,1,8,0:0:0:0:
256,128,23574,1,0,0:0:0:0:
192,128,23962,1,0,0:0:0:0:
224,96,24350,1,8,0:0:0:0:
160,128,24608,1,0,0:0:0:0:
192,64,24738,1,0,0:0:0:0:
192,96,24867,1,8,0:0:0:0:
224,96,25255,1,8,0:0:0:0:
192,32,25384,1,0,0:0:0:0:
224,128,25643,1,0,0:0:0:0:
224,128,25772,1,8,0:0:0:0:
224,96,26160,1,0,0:0:0:0:
256,128,26419,1,8,0:0:0:0:
256,128,26677,1,0,0:0:0:0:
256,96,26936,1,8,0:0:0:0:
256,96,27195,1,8,0:0:0:0:
224,96,27453,1,0,0:0:0:0:
134,113,27712,1,0,0:0:0:0:
224,96,27841,1,8,0:0:0:0:
150,77,28229,1,0,0:0:0:0:
224,224,28488,1,8,0:0:0:0:
256,192,28746,1,0,0:0:0:0:
256,192,29005,1,8,0:0:0:0:
256,192,29393,1,0,0:0:0:0:
256,192,29522,1,8,0:0:0:0:
128,160,29781,1,8,0:0:0:0:
128,160,29910,1,0,0:0:0:0:
160,192,30169,1,0,0:0:0:0:
224,160,30557,1,8,0:0:0:0:
224,160,30815,1,0,0:0:0:0:
224,160,31074,1,8,0:0:0:0:
224,160,31462,1,0,0:0:0:0:
214,253,31591,1,8,0:0:0:0:
192,160,31850,1,0,0:0:0:0:
192,160,32108,1,8,0:0:0:0:
192,160,32367,1,0,0:0:0:0:
192,160,32626,1,8,0:0:0:0:
192,160,32755,1,8,0:0:0:0:
192,160,32884,1,8,0:0:0:0:
189,56,33014,1,8,0:0:0:0:
224,192,33143,1,0,0:0:0:0:
192,160,33531,1,0,0:0:0:0:
112,174,33660,1,8,0:0:0:0:
192,160,33919,1,8,0:0:0:0:
192,160,34307,1,8,0:0:0:0:
224,192,34695,1,8,0:0:0:0:
224,192,34824,1,0,0:0:0:0:
224,192,34953,1,0,0:0:0:0:
178,114,35083,1,8,0:0:0:0:
232,179,35212,1,0,0:0:0:0:
112,174,35600,1,0,0:0:0:0:
241,218,35729,1,8,0:0:0:0:
248,177,35988,1,8,0:0:0:0:
248,177,36376,1,0,0:0:0:0:
319,226,36764,1,8,0:0:0:0:
319,226,36893,1,0,0:0:0:0:
319,226,37022,1,8,0:0:0:0:
225,114,37152,1,8,0:0:0:0:
319,226,37281,1,0,0:0:0:0:
292,222,37669,1,8,0:0:0:0:
292,222,37798,1,0,0:0:0:0:
232,140,38057,1,0,0:0:0:0:
232,140,38186,1,8,0:0:0:0:
232,140,38445,1,0,0:0:0:0:
159,196,38833,1,8,0:0:0:0:
159,196,38962,1,8,0:0:0:0:
159,196,39091,1,0,0:0:0:0:
168,73,39221,1,8,0:0:0:0:
159,196,39350,1,0,0:0:0:0:
224,192,39738,1,0,0:0:0:0:
224,192,39867,1,8,0:0:0:0:
128,160,40126,1,8,0:0:0:0:
128,160,40255,1,0,0:0:0:0:
288,160,40643,1,0,0:0:0:0:
224,192,40902,1,0,0:0:0:0:
224,192,41031,1,8,0:0:0:0:
224,192,41160,1,0,0:0:0:0:
181,62,41290,1,0,0:0:0:0:
224,224,41419,1,8,0:0:0:0:
192,192,41807,1,0,0:0:0:0:
192,192,41936,1,8,0:0:0:0:
192,192,42195,1,0,0:0:0:0:
192,192,42583,1,0,0:0:0:0:
192,192,42971,1,8,0:0:0:0:
192,192,43100,1,0,0:0:0:0:
192,192,43229,1,0,0:0:0:0:
181,62,43358,1,8,0:0:0:0:
192,192,43488,1,0,0:0:0:0:
192,224,43876,1,0,0:0:0:0:
192,224,44005,1,8,0:0:0:0:
192,224,44264,1,0,0:0:0:0:
192,224,44652,1,8,0:0:0:0:
192,224,45040,1,8,0:0:0:0:
192,224,45169,1,0,0:0:0:0:
192,224,45298,1,8,0:0:0:0:
181,62,45427,1,8,0:0:0:0:
256,192,45557,1,0,0:0:0:0:
256,192,45945,1,0,0:0:0:0:
256,192,46074,1,8,0:0:0:0:
192,0,46333,1,0,0:0:0:0:
256,192,46462,1,8,0:0:0:0:
256,160,46721,1,0,0:0:0:0:
224,224,47108,1,8,0:0:0:0:
288,256,47238,1,8,0:0:0:0:
224,224,47367,1,0,0:0:0:0:
168,60,47496,1,8,0:0:0:0:
288,224,47626,1,0,0:0:0:0:
256,224,48014,1,0,0:0:0:0:
256,224,48143,1,8,0:0:0:0:
256,224,48402,1,0,0:0:0:0:
224,192,48790,1,8,0:0:0:0:
224,192,49177,1,8,0:0:0:0:
224,192,49307,1,0,0:0:0:0:
224,192,49436,1,8,0:0:0:0:
193,75,49565,1,0,0:0:0:0:
224,192,49695,1,8,0:0:0:0:
224,192,50083,1,12,0:0:0:0:
224,192,50471,1,12,0:0:0:0:
192,192,50858,1,4,0:0:0:0:
192,256,51246,1,8,0:0:0:0:
192,224,51376,1,0,0:0:0:0:
192,224,51505,1,0,0:0:0:0:
193,75,51634,1,8,0:0:0:0:
224,192,51764,1,0,0:0:0:0:
192,256,52152,1,12,0:0:0:0:
128,224,52540,1,4,0:0:0:0:
128,224,52927,1,12,0:0:0:0:
160,160,53315,1,8,0:0:0:0:
160,160,53445,1,0,0:0:0:0:
160,160,53574,1,8,0:0:0:0:
211,43,53703,1,8,0:0:0:0:
224,192,53833,1,0,0:0:0:0:
192,160,54221,1,4,0:0:0:0:
192,160,54608,1,12,0:0:0:0:
192,160,54996,1,12,0:0:0:0:
160,160,55384,1,8,0:0:0:0:
160,160,55514,1,8,0:0:0:0:
160,160,55643,1,0,0:0:0:0:
175,86,55772,1,8,0:0:0:0:
320,128,55902,1,0,0:0:0:0:
192,160,56290,1,4,0:0:0:0:
288,128,56677,1,12,0:0:0:0:
288,128,57065,1,4,0:0:0:0:
160,160,57453,1,8,0:0:0:0:
160,160,57583,1,0,0:0:0:0:
160,160,57712,1,8,0:0:0:0:
163,53,57841,1,0,0:0:0:0:
256,192,57971,1,8,0:0:0:0:
224,192,58358,1,12,0:0:0:0:
224,192,58746,1,12,0:0:0:0:
192,192,59134,1,4,0:0:0:0:
192,256,59522,1,8,0:0:0:0:
192,224,59652,1,0,0:0:0:0:
192,224,59781,1,0,0:0:0:0:
201,53,59910,1,8,0:0:0:0:
224,192,60040,1,0,0:0:0:0:
192,256,60427,1,12,0:0:0:0:
128,224,60815,1,4,0:0:0:0:
128,224,61203,1,12,0:0:0:0:
160,160,61591,1,8,0:0:0:0:
160,160,61721,1,0,0:0:0:0:
160,160,61850,1,8,0:0:0:0:
192,97,61979,1,8,0:0:0:0:
224,192,62108,1,0,0:0:0:0:
192,160,62496,1,4,0:0:0:0:
192,160,62884,1,12,0:0:0:0:
192,160,63272,1,12,0:0:0:0:
160,160,63660,1,8,0:0:0:0:
160,160,63790,1,8,0:0:0:0:
160,160,63919,1,0,0:0:0:0:
162,81,64048,1,8,0:0:0:0:
320,128,64177,1,0,0:0:0:0:
224,192,64436,1,0,0:0:0:0:
224,192,64565,1,8,0:0:0:0:
192,192,64695,1,0,0:0:0:0:
143,101,64824,1,0,0:0:0:0:
224,192,64953,1,8,0:0:0:0:
224,192,65212,1,0,0:0:0:0:
224,192,65341,1,8,0:0:0:0:
256,128,65471,1,0,0:0:0:0:
160,160,65729,1,8,0:0:0:0:
160,160,65858,1,0,0:0:0:0:
160,160,65988,1,0,0:0:0:0:
256,192,66246,1,8,0:0:0:0:
256,128,66764,1,8,0:0:0:0:
224,160,67022,1,8,0:0:0:0:
224,160,67152,1,0,0:0:0:0:
192,160,67540,1,0,0:0:0:0:
192,160,67798,1,8,0:0:0:0:
192,160,68057,1,0,0:0:0:0:
192,160,68186,1,0,0:0:0:0:
96,224,68315,1,8,0:0:0:0:
131,116,68574,1,0,0:0:0:0:
192,192,68833,1,8,0:0:0:0:
192,192,69091,1,8,0:0:0:0:
192,192,69221,1,0,0:0:0:0:
256,192,69608,1,8,0:0:0:0:
256,192,69867,1,8,0:0:0:0:
288,96,70126,1,0,0:0:0:0:
224,128,70255,1,0,0:0:0:0:
224,128,70384,1,8,0:0:0:0:
224,128,70772,1,0,0:0:0:0:
224,128,70902,1,8,0:0:0:0:
224,128,71160,1,0,0:0:0:0:
224,128,71548,1,8,0:0:0:0:
128,160,71936,1,0,0:0:0:0:
128,160,72065,1,0,0:0:0:0:
128,160,72195,1,0,0:0:0:0:
128,160,72453,1,8,0:0:0:0:
96,224,72841,1,0,0:0:0:0:
96,224,72971,1,8,0:0:0:0:
96,224,73229,1,0,0:0:0:0:
192,224,73488,1,8,0:0:0:0:
160,64,73746,1,0,0:0:0:0:
160,64,74005,1,8,0:0:0:0:
192,128,74134,1,0,0:0:0:0:
192,128,74264,1,0,0:0:0:0:
99,146,74393,1,0,0:0:0:0:
224,192,74522,1,8,0:0:0:0:
133,62,74781,1,0,0:0:0:0:
256,128,75040,1,8,0:0:0:0:
224,160,75298,1,8,0:0:0:0:
224,160,75427,1,0,0:0:0:0:
192,160,75815,1,0,0:0:0:0:
192,160,76074,1,8,0:0:0:0:
192,160,76333,1,0,0:0:0:0:
192,160,76462,1,0,0:0:0:0:
96,224,76591,1,8,0:0:0:0:
203,88,76979,1,0,0:0:0:0:
192,192,77108,1,8,0:0:0:0:
192,192,77367,1,0,0:0:0:0:
157,151,77755,1,0,0:0:0:0:
256,192,77884,1,8,0:0:0:0:
256,192,78143,1,8,0:0:0:0:
224,128,78402,1,0,0:0:0:0:
224,128,78660,1,8,0:0:0:0:
224,128,79048,1,0,0:0:0:0:
224,128,79177,1,8,0:0:0:0:
224,128,79436,1,0,0:0:0:0:
158,126,79565,1,8,0:0:0:0:
224,128,79953,1,8,0:0:0:0:
128,160,80212,1,8,0:0:0:0:
128,160,80341,1,0,0:0:0:0:
128,160,80471,1,8,0:0:0:0:
174,131,80600,1,8,0:0:0:0:
128,160,80729,1,0,0:0:0:0:
96,224,81117,1,0,0:0:0:0:
96,224,81246,1,8,0:0:0:0:
96,224,81505,1,0,0:0:0:0:
192,224,81764,1,8,0:0:0:0:
160,64,82022,1,0,0:0:0:0:
160,64,82281,1,8,0:0:0:0:
192,128,82540,1,0,0:0:0:0:
192,128,82669,1,0,0:0:0:0:
172,155,82798,1,8,0:0:0:0:
256,192,83186,1,0,0:0:0:0:
256,192,83315,1,8,0:0:0:0:
256,192,83574,1,0,0:0:0:0:
256,192,83962,1,0,0:0:0:0:
128,64,84350,1,8,0:0:0:0:
224,160,84479,1,0,0:0:0:0:
224,160,84608,1,0,0:0:0:0:
320,160,84867,1,8,0:0:0:0:
96,224,85255,1,0,0:0:0:0:
96,224,85384,1,8,0:0:0:0:
96,224,85643,1,0,0:0:0:0:
192,224,85902,1,8,0:0:0:0:
160,64,86160,1,0,0:0:0:0:
160,64,86419,1,8,0:0:0:0:
192,128,86677,1,8,0:0:0:0:
192,128,86807,1,8,0:0:0:0:
150,83,86936,1,0,0:0:0:0:
160,224,87324,1,0,0:0:0:0:
160,224,87453,1,8,0:0:0:0:
160,224,87712,1,0,0:0:0:0:
160,224,88100,1,0,0:0:0:0:
160,224,88488,1,8,0:0:0:0:
192,192,88617,1,0,0:0:0:0:
160,224,88746,1,0,0:0:0:0:
224,192,89005,1,8,0:0:0:0:
256,160,89393,1,0,0:0:0:0:
256,160,89522,1,8,0:0:0:0:
256,160,89781,1,8,0:0:0:0:
256,160,89910,1,0,0:0:0:0:
256,128,90298,1,0,0:0:0:0:
256,128,90557,1,8,0:0:0:0:
192,192,90686,1,0,0:0:0:0:
256,128,90815,1,0,0:0:0:0:
256,128,91074,1,8,0:0:0:0:
192,192,91462,1,0,0:0:0:0:
192,192,91591,1,8,0:0:0:0:
192,192,91850,1,8,0:0:0:0:
192,192,91979,1,0,0:0:0:0:
192,192,92367,1,0,0:0:0:0:
192,192,92626,1,8,0:0:0:0:
192,192,92755,1,0,0:0:0:0:
192,192,92884,1,0,0:0:0:0:
192,192,93143,1,8,0:0:0:0:
192,192,93531,1,0,0:0:0:0:
192,192,93660,1,8,0:0:0:0:
192,192,93790,1,0,0:0:0:0:
192,192,93919,1,0,0:0:0:0:
192,192,94177,1,8,0:0:0:0:
192,192,94436,1,0,0:0:0:0:
192,192,94695,1,8,0:0:0:0:
192,192,94953,1,0,0:0:0:0:
192,192,95083,1,0,0:0:0:0:
157,83,95212,1,8,0:0:0:0:
288,160,95600,1,0,0:0:0:0:
288,160,95729,1,8,0:0:0:0:
256,192,95988,1,0,0:0:0:0:
192,128,96376,1,0,0:0:0:0:
320,192,96764,1,8,0:0:0:0:
320,192,96893,1,0,0:0:0:0:
320,192,97022,1,0,0:0:0:0:
224,224,97281,1,12,0:0:0:0:
224,192,97798,1,8,0:0:0:0:
224,128,98057,1,0,0:0:0:0:
224,128,98315,1,8,0:0:0:0:
224,128,98574,1,0,0:0:0:0:
224,128,98833,1,0,0:0:0:0:
192,192,98962,1,8,0:0:0:0:
192,192,99091,1,0,0:0:0:0:
192,192,99221,1,0,0:0:0:0:
205,192,99350,1,8,0:0:0:0:
112,113,99608,1,0,0:0:0:0:
224,192,99867,1,8,0:0:0:0:
192,160,100126,1,0,0:0:0:0:
192,160,100255,1,8,0:0:0:0:
192,160,100514,1,0,0:0:0:0:
187,43,100772,1,8,0:0:0:0:
192,96,100902,1,8,0:0:0:0:
288,128,101160,1,0,0:0:0:0:
288,128,101290,1,0,0:0:0:0:
256,160,101419,1,8,0:0:0:0:
224,256,101936,1,8,0:0:0:0:
224,256,102195,1,0,0:0:0:0:
192,192,102453,1,0,0:0:0:0:
192,192,102583,1,8,0:0:0:0:
192,192,102712,1,0,0:0:0:0:
192,192,102971,1,8,0:0:0:0:
192,192,103100,1,0,0:0:0:0:
192,192,103229,1,8,0:0:0:0:
224,160,103488,1,8,0:0:0:0:
170,64,103746,1,0,0:0:0:0:
256,160,104005,1,8,0:0:0:0:
256,160,104264,1,0,0:0:0:0:
256,160,104393,1,0,0:0:0:0:
256,160,104522,1,8,0:0:0:0:
224,160,104781,1,8,0:0:0:0:
256,160,105040,1,8,0:0:0:0:
256,160,105169,1,0,0:0:0:0:
256,160,105298,1,0,0:0:0:0:
256,160,105427,1,8,0:0:0:0:
256,160,105557,1,0,0:0:0:0:
224,192,106074,1,8,0:0:0:0:
224,128,106333,1,0,0:0:0:0:
224,128,106591,1,8,0:0:0:0:
224,128,106850,1,0,0:0:0:0:
224,128,107108,1,0,0:0:0:0:
192,192,107238,1,8,0:0:0:0:
192,192,107367,1,0,0:0:0:0:
192,192,107496,1,0,0:0:0:0:
245,160,107626,1,8,0:0:0:0:
182,117,107884,1,0,0:0:0:0:
224,192,108143,1,8,0:0:0:0:
192,160,108402,1,0,0:0:0:0:
192,160,108531,1,8,0:0:0:0:
192,160,108790,1,0,0:0:0:0:
157,95,109048,1,0,0:0:0:0:
192,96,109177,1,8,0:0:0:0:
288,128,109436,1,0,0:0:0:0:
288,128,109565,1,0,0:0:0:0:
256,160,109695,1,8,0:0:0:0:
224,256,110212,1,8,0:0:0:0:
224,256,110471,1,0,0:0:0:0:
192,192,110729,1,0,0:0:0:0:
192,192,110858,1,8,0:0:0:0:
192,192,110988,1,0,0:0:0:0:
192,192,111246,1,8,0:0:0:0:
192,192,111376,1,0,0:0:0:0:
192,192,111505,1,8,0:0:0:0:
224,160,111764,1,8,0:0:0:0:
199,202,112281,1,8,0:0:0:0:
66,168,112540,1,0,0:0:0:0:
199,202,112798,1,8,0:0:0:0:
167,120,112927,1,8,0:0:0:0:
66,168,113057,1,8,0:0:0:0:
199,202,113315,1,8,0:0:0:0:
139,47,113574,1,0,0:0:0:0:
155,122,113703,1,0,0:0:0:0:
259,233,113833,1,8,0:0:0:0:
233,178,114350,1,8,0:0:0:0:
233,178,114608,1,0,0:0:0:0:
233,178,114867,1,8,0:0:0:0:
233,178,115126,1,0,0:0:0:0:
233,178,115384,1,8,0:0:0:0:
178,60,115514,1,0,0:0:0:0:
193,84,115643,1,0,0:0:0:0:
265,182,115902,1,8,0:0:0:0:
206,138,116419,1,8,0:0:0:0:
206,138,116677,1,0,0:0:0:0:
206,138,116936,1,8,0:0:0:0:
186,69,117065,1,0,0:0:0:0:
206,138,117195,1,0,0:0:0:0:
206,138,117453,1,8,0:0:0:0:
194,73,117712,1,0,0:0:0:0:
165,113,117841,1,0,0:0:0:0:
206,138,117971,1,8,0:0:0:0:
101,95,118229,1,0,0:0:0:0:
306,198,118488,1,8,0:0:0:0:
104,183,118746,1,0,0:0:0:0:
256,175,118876,1,0,0:0:0:0:
229,166,119005,1,8,0:0:0:0:
229,166,119134,1,0,0:0:0:0:
214,157,119264,1,8,0:0:0:0:
214,157,119393,1,8,0:0:0:0:
251,183,120040,1,0,0:0:0:0:
