osu file format v14

[General]
AudioFilename: audio.ogg
AudioLeadIn: 0
PreviewTime: 31555
Countdown: 0
SampleSet: Soft
StackLeniency: 0.7
Mode: 3
LetterboxInBreaks: 0
SpecialStyle: 0
WidescreenStoryboard: 1

[Editor]
Bookmarks: 2692,7308,11923,31538,50000,54615
DistanceSpacing: 1.7
BeatDivisor: 4
GridSize: 32
TimelineZoom: 1.5

[Metadata]
Title:Volkmire's Inferno Race
TitleUnicode:Volkmire's Inferno Race
Artist:David Wise
ArtistUnicode:David Wise
Creator:keksikosu
Version:Hard
Source:Battletoads
Tags:video game videogame vgm vg ost instrumental nes snes super nintendo entertainment system sega mega drive genesis gear game boy gameboy amiga cd32 arcade 8-bit 8bit 16-bit 16bit tradewest original soundtrack antipole symmatrix- chordjack chordjacks chord chords jack jacks cj
BeatmapID:4125594
BeatmapSetID:1985598

[Difficulty]
HPDrainRate:7.5
CircleSize:4
OverallDifficulty:7.5
ApproachRate:5
SliderMultiplier:1.4
SliderTickRate:1

[Events]
//Background and Video events
0,0,"battletoads-ser.jpg",0,0
//Break Periods
//Storyboard Layer 0 (Background)
//Storyboard Layer 1 (Fail)
//Storyboard Layer 2 (Pass)
//Storyboard Layer 3 (Foreground)
//Storyboard Layer 4 (Overlay)
//Storyboard Sound Samples

[TimingPoints]
385,288.614170955794,4,2,1,45,1,0
54644,-100.0,4,2,1,35,0,0
55798,-100.0,4,2,1,25,0,0
56953,-100.0,4,2,1,15,0,0
58107,-100.0,4,2,1,10,0,0

[HitObjects]
64,192,385,128,0,1539:0:0:0:0:
448,192,962,128,0,2693:0:0:0:0:
320,192,1539,128,0,2693:0:0:0:0:
64,192,2693,128,2,3848:0:0:0:0:
192,192,2693,1,0,0:0:0:0:
320,192,2838,1,0,0:0:0:0:
448,192,2982,1,0,0:0:0:0:
192,192,3126,1,0,0:0:0:0:
320,192,3271,1,0,0:0:0:0:
192,192,3415,1,0,0:0:0:0:
448,192,3559,1,0,0:0:0:0:
320,192,3704,1,0,0:0:0:0:
192,192,3848,1,2,0:0:0:0:
448,192,3848,128,0,5002:0:0:0:0:
320,192,3992,1,0,0:0:0:0:
64,192,4136,1,0,0:0:0:0:
192,192,4281,1,0,0:0:0:0:
320,192,4425,1,0,0:0:0:0:
192,192,4569,1,0,0:0:0:0:
64,192,4714,1,0,0:0:0:0:
320,192,4858,1,0,0:0:0:0:
64,192,5002,128,2,6157:0:0:0:0:
192,192,5002,1,0,0:0:0:0:
320,192,5147,1,0,0:0:0:0:
448,192,5291,1,0,0:0:0:0:
192,192,5435,1,0,0:0:0:0:
320,192,5580,1,0,0:0:0:0:
192,192,5724,1,0,0:0:0:0:
448,192,5868,1,0,0:0:0:0:
320,192,6012,1,0,0:0:0:0:
192,192,6157,1,2,0:0:0:0:
448,192,6157,128,0,6734:0:0:0:0:
320,192,6301,1,0,0:0:0:0:
64,192,6445,1,0,0:0:0:0:
192,192,6590,1,0,0:0:0:0:
320,192,6734,1,8,0:0:0:0:
64,192,6806,1,8,0:0:0:0:
320,192,6878,1,8,0:0:0:0:
64,192,6950,1,8,0:0:0:0:
448,192,7023,1,8,0:0:0:0:
192,192,7095,1,8,0:0:0:0:
448,192,7167,1,8,0:0:0:0:
192,192,7239,1,8,0:0:0:0:
320,192,7311,1,2,0:0:0:0:
448,192,7311,1,0,0:0:0:0:
320,192,7456,1,0,0:0:0:0:
64,192,7600,1,8,0:0:0:0:
192,192,7600,1,0,0:0:0:0:
320,192,7744,1,0,0:0:0:0:
64,192,7888,1,2,0:0:0:0:
320,192,7888,1,0,0:0:0:0:
192,192,8033,1,2,0:0:0:0:
448,192,8033,1,0,0:0:0:0:
64,192,8177,1,8,0:0:0:0:
320,192,8177,1,0,0:0:0:0:
320,192,8321,1,0,0:0:0:0:
192,192,8466,1,2,0:0:0:0:
448,192,8466,1,0,0:0:0:0:
320,192,8610,1,0,0:0:0:0:
64,192,8754,1,8,0:0:0:0:
320,192,8754,1,0,0:0:0:0:
192,192,8899,1,2,0:0:0:0:
448,192,8899,1,0,0:0:0:0:
320,192,9043,1,0,0:0:0:0:
64,192,9187,1,2,0:0:0:0:
192,192,9187,1,0,0:0:0:0:
320,192,9332,1,8,0:0:0:0:
448,192,9332,1,0,0:0:0:0:
64,192,9620,1,2,0:0:0:0:
448,192,9620,1,0,0:0:0:0:
64,192,9764,1,0,0:0:0:0:
320,192,9909,1,8,0:0:0:0:
448,192,9909,1,0,0:0:0:0:
64,192,10053,1,0,0:0:0:0:
64,192,10197,1,2,0:0:0:0:
320,192,10197,1,0,0:0:0:0:
192,192,10342,1,2,0:0:0:0:
448,192,10342,1,0,0:0:0:0:
64,192,10486,1,8,0:0:0:0:
320,192,10486,1,0,0:0:0:0:
64,192,10630,1,0,0:0:0:0:
192,192,10775,1,2,0:0:0:0:
448,192,10775,1,0,0:0:0:0:
64,192,10919,1,0,0:0:0:0:
64,192,11063,1,8,0:0:0:0:
320,192,11063,1,0,0:0:0:0:
64,192,11352,1,8,0:0:0:0:
192,192,11352,1,0,0:0:0:0:
320,192,11496,1,8,0:0:0:0:
448,192,11496,1,0,0:0:0:0:
64,192,11640,1,8,0:0:0:0:
192,192,11640,1,0,0:0:0:0:
320,192,11785,1,8,0:0:0:0:
448,192,11785,1,0,0:0:0:0:
192,192,11929,1,2,0:0:0:0:
448,192,11929,1,0,0:0:0:0:
320,192,12073,1,0,0:0:0:0:
64,192,12218,1,8,0:0:0:0:
192,192,12218,1,0,0:0:0:0:
448,192,12362,1,0,0:0:0:0:
64,192,12506,1,2,0:0:0:0:
320,192,12506,1,0,0:0:0:0:
192,192,12651,1,2,0:0:0:0:
448,192,12651,1,0,0:0:0:0:
64,192,12795,1,8,0:0:0:0:
320,192,12795,1,0,0:0:0:0:
192,192,12939,1,0,0:0:0:0:
320,192,13084,1,2,0:0:0:0:
448,192,13084,1,0,0:0:0:0:
64,192,13228,1,0,0:0:0:0:
192,192,13372,1,8,0:0:0:0:
320,192,13372,1,0,0:0:0:0:
192,192,13516,1,2,0:0:0:0:
448,192,13516,1,0,0:0:0:0:
64,192,13661,1,0,0:0:0:0:
320,192,13805,1,2,0:0:0:0:
448,192,13805,1,0,0:0:0:0:
192,192,13949,1,8,0:0:0:0:
448,192,13949,1,0,0:0:0:0:
320,192,14094,1,0,0:0:0:0:
64,192,14238,1,2,0:0:0:0:
192,192,14238,1,0,0:0:0:0:
448,192,14382,1,0,0:0:0:0:
64,192,14527,1,8,0:0:0:0:
320,192,14527,1,0,0:0:0:0:
192,192,14671,1,0,0:0:0:0:
320,192,14815,1,2,0:0:0:0:
448,192,14815,1,0,0:0:0:0:
64,192,14960,1,2,0:0:0:0:
192,192,14960,1,0,0:0:0:0:
320,192,15104,1,8,0:0:0:0:
448,192,15104,1,0,0:0:0:0:
64,192,15248,1,0,0:0:0:0:
192,192,15392,1,2,0:0:0:0:
448,192,15392,1,0,0:0:0:0:
320,192,15537,1,0,0:0:0:0:
64,192,15681,1,8,0:0:0:0:
192,192,15681,1,0,0:0:0:0:
320,192,15825,1,2,0:0:0:0:
448,192,15825,1,0,0:0:0:0:
64,192,15970,1,0,0:0:0:0:
192,192,16114,1,2,0:0:0:0:
448,192,16114,1,0,0:0:0:0:
64,192,16258,1,8,0:0:0:0:
320,192,16258,1,0,0:0:0:0:
192,192,16547,1,2,0:0:0:0:
448,192,16547,1,0,0:0:0:0:
320,192,16691,1,0,0:0:0:0:
64,192,16836,1,8,0:0:0:0:
448,192,16836,1,0,0:0:0:0:
192,192,16980,1,0,0:0:0:0:
64,192,17124,1,2,0:0:0:0:
320,192,17124,1,0,0:0:0:0:
192,192,17268,1,2,0:0:0:0:
448,192,17268,1,0,0:0:0:0:
64,192,17413,1,8,0:0:0:0:
320,192,17413,1,0,0:0:0:0:
448,192,17557,1,0,0:0:0:0:
64,192,17701,1,2,0:0:0:0:
192,192,17701,1,0,0:0:0:0:
320,192,17846,1,0,0:0:0:0:
192,192,17990,1,8,0:0:0:0:
448,192,17990,1,0,0:0:0:0:
64,192,18134,1,2,0:0:0:0:
448,192,18134,1,0,0:0:0:0:
320,192,18279,1,0,0:0:0:0:
64,192,18423,1,2,0:0:0:0:
192,192,18423,1,0,0:0:0:0:
64,192,18567,1,8,0:0:0:0:
448,192,18567,1,0,0:0:0:0:
320,192,18711,1,0,0:0:0:0:
192,192,18856,1,2,0:0:0:0:
448,192,18856,1,0,0:0:0:0:
64,192,19000,1,0,0:0:0:0:
320,192,19144,1,8,0:0:0:0:
448,192,19144,1,0,0:0:0:0:
192,192,19289,1,0,0:0:0:0:
64,192,19433,1,2,0:0:0:0:
448,192,19433,1,0,0:0:0:0:
64,192,19577,1,2,0:0:0:0:
448,192,19577,1,0,0:0:0:0:
64,192,19722,1,8,0:0:0:0:
320,192,19722,1,0,0:0:0:0:
192,192,19866,1,2,0:0:0:0:
448,192,19866,1,0,0:0:0:0:
320,192,20155,1,2,0:0:0:0:
448,192,20155,1,0,0:0:0:0:
64,192,20299,1,8,0:0:0:0:
192,192,20299,1,0,0:0:0:0:
320,192,20371,1,0,0:0:0:0:
448,192,20443,1,0,0:0:0:0:
192,192,20515,1,0,0:0:0:0:
320,192,20587,1,2,0:0:0:0:
64,192,20660,1,0,0:0:0:0:
448,192,20732,1,2,0:0:0:0:
192,192,20804,1,0,0:0:0:0:
64,192,20876,1,8,0:0:0:0:
320,192,20948,1,0,0:0:0:0:
192,192,21020,1,8,0:0:0:0:
448,192,21093,1,0,0:0:0:0:
64,192,21165,1,2,0:0:0:0:
320,192,21165,1,0,0:0:0:0:
192,192,21309,1,0,0:0:0:0:
320,192,21453,1,8,0:0:0:0:
448,192,21453,1,0,0:0:0:0:
64,192,21598,1,0,0:0:0:0:
192,192,21742,1,2,0:0:0:0:
448,192,21742,1,0,0:0:0:0:
64,192,21886,1,2,0:0:0:0:
320,192,21886,1,0,0:0:0:0:
192,192,22031,1,8,0:0:0:0:
448,192,22031,1,0,0:0:0:0:
320,192,22175,1,0,0:0:0:0:
64,192,22319,1,2,0:0:0:0:
192,192,22319,1,0,0:0:0:0:
448,192,22463,1,0,0:0:0:0:
64,192,22608,1,8,0:0:0:0:
320,192,22608,1,0,0:0:0:0:
64,192,22752,1,2,0:0:0:0:
192,192,22752,1,0,0:0:0:0:
448,192,22896,1,0,0:0:0:0:
192,192,23041,1,2,0:0:0:0:
320,192,23041,1,0,0:0:0:0:
64,192,23185,1,8,0:0:0:0:
192,192,23185,1,0,0:0:0:0:
320,192,23329,1,0,0:0:0:0:
192,192,23474,1,2,0:0:0:0:
448,192,23474,1,0,0:0:0:0:
64,192,23618,1,0,0:0:0:0:
320,192,23762,1,8,0:0:0:0:
448,192,23762,1,0,0:0:0:0:
192,192,23907,1,0,0:0:0:0:
64,192,24051,1,2,0:0:0:0:
448,192,24051,1,0,0:0:0:0:
192,192,24195,1,2,0:0:0:0:
320,192,24195,1,0,0:0:0:0:
64,192,24339,1,8,0:0:0:0:
448,192,24339,1,0,0:0:0:0:
320,192,24484,1,0,0:0:0:0:
64,192,24628,1,2,0:0:0:0:
192,192,24628,1,0,0:0:0:0:
448,192,24772,1,0,0:0:0:0:
64,192,24917,1,8,0:0:0:0:
320,192,24917,1,0,0:0:0:0:
192,192,25061,1,2,0:0:0:0:
448,192,25061,1,0,0:0:0:0:
320,192,25205,1,0,0:0:0:0:
64,192,25350,1,2,0:0:0:0:
192,192,25350,1,0,0:0:0:0:
320,192,25494,1,8,0:0:0:0:
448,192,25494,1,0,0:0:0:0:
64,192,25783,1,2,0:0:0:0:
448,192,25783,1,0,0:0:0:0:
320,192,25927,1,0,0:0:0:0:
64,192,26071,1,8,0:0:0:0:
192,192,26071,1,0,0:0:0:0:
448,192,26215,1,0,0:0:0:0:
192,192,26360,1,2,0:0:0:0:
320,192,26360,1,0,0:0:0:0:
64,192,26504,1,2,0:0:0:0:
448,192,26504,1,0,0:0:0:0:
192,192,26648,1,8,0:0:0:0:
320,192,26648,1,0,0:0:0:0:
64,192,26793,1,0,0:0:0:0:
320,192,26937,1,2,0:0:0:0:
448,192,26937,1,0,0:0:0:0:
192,192,27081,1,0,0:0:0:0:
64,192,27226,1,8,0:0:0:0:
448,192,27226,1,0,0:0:0:0:
320,192,27370,1,2,0:0:0:0:
448,192,27370,1,0,0:0:0:0:
192,192,27514,1,0,0:0:0:0:
64,192,27659,1,2,0:0:0:0:
320,192,27659,1,0,0:0:0:0:
320,192,27803,1,8,0:0:0:0:
448,192,27803,1,0,0:0:0:0:
192,192,27947,1,0,0:0:0:0:
64,192,28091,1,2,0:0:0:0:
448,192,28091,1,0,0:0:0:0:
320,192,28236,1,0,0:0:0:0:
64,192,28380,1,8,0:0:0:0:
192,192,28380,1,0,0:0:0:0:
448,192,28524,1,0,0:0:0:0:
192,192,28669,1,2,0:0:0:0:
320,192,28669,1,0,0:0:0:0:
192,192,28813,1,2,0:0:0:0:
320,192,28813,1,0,0:0:0:0:
64,192,28957,1,8,0:0:0:0:
320,192,28957,1,0,0:0:0:0:
192,192,29102,1,2,0:0:0:0:
448,192,29102,1,0,0:0:0:0:
320,192,29390,1,2,0:0:0:0:
448,192,29390,1,0,0:0:0:0:
64,192,29535,1,8,0:0:0:0:
192,192,29535,1,0,0:0:0:0:
320,192,29607,1,0,0:0:0:0:
448,192,29679,1,0,0:0:0:0:
192,192,29751,1,0,0:0:0:0:
320,192,29823,1,2,0:0:0:0:
64,192,29895,1,0,0:0:0:0:
448,192,29967,1,2,0:0:0:0:
192,192,30040,1,0,0:0:0:0:
64,192,30112,1,8,0:0:0:0:
320,192,30184,1,0,0:0:0:0:
192,192,30256,1,8,0:0:0:0:
448,192,30328,1,0,0:0:0:0:
64,192,30400,1,2,0:0:0:0:
320,192,30400,1,0,0:0:0:0:
320,192,30689,1,8,0:0:0:0:
448,192,30689,1,0,0:0:0:0:
192,192,30761,1,0,0:0:0:0:
64,192,30833,1,0,0:0:0:0:
320,192,30905,1,0,0:0:0:0:
192,192,30978,1,2,0:0:0:0:
448,192,31050,1,0,0:0:0:0:
64,192,31122,1,8,0:0:0:0:
320,192,31194,1,8,0:0:0:0:
64,192,31266,1,8,0:0:0:0:
448,192,31338,1,8,0:0:0:0:
192,192,31411,1,8,0:0:0:0:
448,192,31483,1,8,0:0:0:0:
64,192,31555,1,2,0:0:0:0:
320,192,31555,1,0,0:0:0:0:
64,192,31699,1,2,0:0:0:0:
320,192,31699,1,0,0:0:0:0:
192,192,31843,1,8,0:0:0:0:
448,192,31843,1,0,0:0:0:0:
320,192,31988,1,0,0:0:0:0:
64,192,32132,1,2,0:0:0:0:
192,192,32132,1,0,0:0:0:0:
448,192,32276,1,0,0:0:0:0:
64,192,32421,1,8,0:0:0:0:
320,192,32421,1,0,0:0:0:0:
192,192,32565,1,0,0:0:0:0:
320,192,32709,1,2,0:0:0:0:
448,192,32709,1,0,0:0:0:0:
64,192,32854,128,0,32998:0:0:0:0:
192,192,32998,128,8,33142:0:0:0:0:
448,192,32998,1,0,0:0:0:0:
64,192,33142,1,2,0:0:0:0:
320,192,33142,128,0,33287:0:0:0:0:
448,192,33287,128,0,33431:0:0:0:0:
64,192,33431,1,2,0:0:0:0:
192,192,33431,128,0,33575:0:0:0:0:
320,192,33575,128,8,33719:0:0:0:0:
448,192,33575,1,0,0:0:0:0:
64,192,33719,128,0,33864:0:0:0:0:
192,192,33864,1,2,0:0:0:0:
448,192,33864,1,0,0:0:0:0:
192,192,34008,1,2,0:0:0:0:
448,192,34008,1,0,0:0:0:0:
64,192,34152,1,8,0:0:0:0:
320,192,34152,1,0,0:0:0:0:
448,192,34297,1,0,0:0:0:0:
64,192,34441,1,2,0:0:0:0:
192,192,34441,1,0,0:0:0:0:
320,192,34585,1,0,0:0:0:0:
64,192,34730,1,8,0:0:0:0:
448,192,34730,1,0,0:0:0:0:
192,192,34874,1,0,0:0:0:0:
320,192,35018,1,2,0:0:0:0:
448,192,35018,1,0,0:0:0:0:
64,192,35163,1,0,0:0:0:0:
192,192,35307,1,8,0:0:0:0:
320,192,35307,1,0,0:0:0:0:
448,192,35451,1,0,0:0:0:0:
64,192,35595,1,2,0:0:0:0:
192,192,35595,1,0,0:0:0:0:
320,192,35740,1,2,0:0:0:0:
448,192,35740,1,0,0:0:0:0:
64,192,35884,1,8,0:0:0:0:
320,192,35884,1,0,0:0:0:0:
320,192,36173,1,2,0:0:0:0:
448,192,36173,1,0,0:0:0:0:
320,192,36317,1,2,0:0:0:0:
448,192,36317,1,0,0:0:0:0:
64,192,36461,1,8,0:0:0:0:
192,192,36461,1,0,0:0:0:0:
448,192,36606,1,0,0:0:0:0:
64,192,36750,1,2,0:0:0:0:
320,192,36750,1,0,0:0:0:0:
192,192,36894,1,0,0:0:0:0:
320,192,37038,1,8,0:0:0:0:
448,192,37038,1,0,0:0:0:0:
64,192,37183,1,0,0:0:0:0:
192,192,37327,1,2,0:0:0:0:
448,192,37327,1,0,0:0:0:0:
320,192,37471,128,0,37616:0:0:0:0:
64,192,37616,1,8,0:0:0:0:
192,192,37616,128,0,37760:0:0:0:0:
320,192,37760,1,2,0:0:0:0:
448,192,37760,128,0,37904:0:0:0:0:
64,192,37904,128,0,38049:0:0:0:0:
192,192,38049,128,2,38193:0:0:0:0:
448,192,38049,1,0,0:0:0:0:
64,192,38193,1,8,0:0:0:0:
320,192,38193,128,0,38337:0:0:0:0:
448,192,38337,128,0,38482:0:0:0:0:
64,192,38482,1,2,0:0:0:0:
192,192,38482,1,0,0:0:0:0:
64,192,38626,1,2,0:0:0:0:
192,192,38626,1,0,0:0:0:0:
320,192,38770,1,8,0:0:0:0:
448,192,38770,1,0,0:0:0:0:
64,192,38914,1,0,0:0:0:0:
192,192,39059,1,2,0:0:0:0:
448,192,39059,1,0,0:0:0:0:
320,192,39203,1,0,0:0:0:0:
64,192,39347,1,8,0:0:0:0:
448,192,39347,1,0,0:0:0:0:
192,192,39492,1,0,0:0:0:0:
320,192,39636,1,2,0:0:0:0:
448,192,39636,1,0,0:0:0:0:
448,192,39780,1,0,0:0:0:0:
64,192,39925,1,8,0:0:0:0:
448,192,39925,1,0,0:0:0:0:
192,192,40069,1,0,0:0:0:0:
320,192,40213,1,2,0:0:0:0:
448,192,40213,1,0,0:0:0:0:
64,192,40358,1,2,0:0:0:0:
192,192,40358,1,0,0:0:0:0:
64,192,40502,1,8,0:0:0:0:
320,192,40502,1,0,0:0:0:0:
64,192,40646,1,8,0:0:0:0:
320,192,40646,1,0,0:0:0:0:
192,192,40790,1,2,0:0:0:0:
448,192,40790,1,0,0:0:0:0:
192,192,40935,1,2,0:0:0:0:
448,192,40935,1,0,0:0:0:0:
64,192,41079,1,8,0:0:0:0:
320,192,41079,1,0,0:0:0:0:
192,192,41223,1,0,0:0:0:0:
320,192,41368,1,2,0:0:0:0:
448,192,41368,1,0,0:0:0:0:
64,192,41512,1,0,0:0:0:0:
192,192,41656,1,8,0:0:0:0:
448,192,41656,1,0,0:0:0:0:
320,192,41801,1,0,0:0:0:0:
64,192,41945,1,2,0:0:0:0:
192,192,41945,1,0,0:0:0:0:
448,192,42089,128,0,42234:0:0:0:0:
64,192,42234,1,8,0:0:0:0:
320,192,42234,128,0,42378:0:0:0:0:
192,192,42378,128,2,42522:0:0:0:0:
448,192,42378,1,0,0:0:0:0:
64,192,42522,128,0,42666:0:0:0:0:
320,192,42666,128,2,42811:0:0:0:0:
448,192,42666,1,0,0:0:0:0:
64,192,42811,1,8,0:0:0:0:
192,192,42811,128,0,42955:0:0:0:0:
448,192,42955,128,0,43099:0:0:0:0:
64,192,43099,1,2,0:0:0:0:
320,192,43099,1,0,0:0:0:0:
64,192,43244,1,2,0:0:0:0:
320,192,43244,1,0,0:0:0:0:
192,192,43388,1,8,0:0:0:0:
448,192,43388,1,0,0:0:0:0:
64,192,43532,1,0,0:0:0:0:
320,192,43677,1,2,0:0:0:0:
448,192,43677,1,0,0:0:0:0:
192,192,43821,1,0,0:0:0:0:
64,192,43965,1,8,0:0:0:0:
448,192,43965,1,0,0:0:0:0:
320,192,44110,1,0,0:0:0:0:
64,192,44254,1,2,0:0:0:0:
192,192,44254,1,0,0:0:0:0:
448,192,44398,1,0,0:0:0:0:
192,192,44542,1,8,0:0:0:0:
320,192,44542,1,0,0:0:0:0:
64,192,44687,1,0,0:0:0:0:
320,192,44831,1,2,0:0:0:0:
448,192,44831,1,0,0:0:0:0:
64,192,44975,1,2,0:0:0:0:
192,192,44975,1,0,0:0:0:0:
192,192,45120,1,8,0:0:0:0:
448,192,45120,1,0,0:0:0:0:
64,192,45408,1,2,0:0:0:0:
192,192,45408,1,0,0:0:0:0:
64,192,45553,1,2,0:0:0:0:
192,192,45553,1,0,0:0:0:0:
320,192,45697,1,8,0:0:0:0:
448,192,45697,1,0,0:0:0:0:
64,192,45841,1,0,0:0:0:0:
192,192,45986,1,2,0:0:0:0:
448,192,45986,1,0,0:0:0:0:
320,192,46130,1,0,0:0:0:0:
64,192,46274,1,8,0:0:0:0:
192,192,46274,1,0,0:0:0:0:
448,192,46418,1,0,0:0:0:0:
64,192,46563,1,2,0:0:0:0:
320,192,46563,1,0,0:0:0:0:
192,192,46707,128,0,46851:0:0:0:0:
320,192,46851,128,8,46996:0:0:0:0:
448,192,46851,1,0,0:0:0:0:
64,192,46996,128,2,47140:0:0:0:0:
192,192,46996,1,0,0:0:0:0:
448,192,47140,128,0,47284:0:0:0:0:
64,192,47284,1,2,0:0:0:0:
320,192,47284,128,0,47429:0:0:0:0:
192,192,47429,128,8,47573:0:0:0:0:
448,192,47429,1,0,0:0:0:0:
64,192,47573,128,0,47717:0:0:0:0:
320,192,47717,1,2,0:0:0:0:
448,192,47717,1,0,0:0:0:0:
320,192,47862,1,2,0:0:0:0:
448,192,47862,1,0,0:0:0:0:
64,192,48006,1,8,0:0:0:0:
192,192,48006,1,0,0:0:0:0:
448,192,48150,1,0,0:0:0:0:
64,192,48294,1,2,0:0:0:0:
320,192,48294,1,0,0:0:0:0:
192,192,48439,1,0,0:0:0:0:
64,192,48583,1,8,0:0:0:0:
448,192,48583,1,0,0:0:0:0:
320,192,48727,1,0,0:0:0:0:
64,192,48872,1,2,0:0:0:0:
192,192,48872,1,0,0:0:0:0:
64,192,49016,1,0,0:0:0:0:
64,192,49160,1,8,0:0:0:0:
448,192,49160,1,0,0:0:0:0:
320,192,49305,1,0,0:0:0:0:
64,192,49449,1,2,0:0:0:0:
192,192,49449,1,0,0:0:0:0:
320,192,49593,1,2,0:0:0:0:
448,192,49593,1,0,0:0:0:0:
192,192,49738,1,8,0:0:0:0:
448,192,49738,1,0,0:0:0:0:
192,192,49882,1,8,0:0:0:0:
448,192,49882,1,0,0:0:0:0:
64,192,50026,1,2,0:0:0:0:
320,192,50026,1,0,0:0:0:0:
64,192,50170,1,0,0:0:0:0:
320,192,50315,1,8,0:0:0:0:
448,192,50315,1,0,0:0:0:0:
64,192,50459,1,0,0:0:0:0:
64,192,50603,1,2,0:0:0:0:
320,192,50603,1,0,0:0:0:0:
192,192,50748,1,2,0:0:0:0:
448,192,50748,1,0,0:0:0:0:
64,192,50892,1,8,0:0:0:0:
320,192,50892,1,0,0:0:0:0:
64,192,51036,1,0,0:0:0:0:
192,192,51181,1,2,0:0:0:0:
320,192,51181,1,0,0:0:0:0:
64,192,51325,1,0,0:0:0:0:
64,192,51469,1,8,0:0:0:0:
448,192,51469,1,0,0:0:0:0:
192,192,51614,1,2,0:0:0:0:
320,192,51614,1,0,0:0:0:0:
64,192,51758,1,0,0:0:0:0:
320,192,51902,1,2,0:0:0:0:
448,192,51902,1,0,0:0:0:0:
64,192,52046,1,8,0:0:0:0:
192,192,52046,1,0,0:0:0:0:
64,192,52335,1,2,0:0:0:0:
320,192,52335,1,0,0:0:0:0:
320,192,52479,1,0,0:0:0:0:
192,192,52624,1,8,0:0:0:0:
448,192,52624,1,0,0:0:0:0:
320,192,52768,1,0,0:0:0:0:
64,192,52912,1,2,0:0:0:0:
320,192,52912,1,0,0:0:0:0:
192,192,53057,1,2,0:0:0:0:
448,192,53057,1,0,0:0:0:0:
64,192,53201,1,8,0:0:0:0:
320,192,53201,1,0,0:0:0:0:
320,192,53345,1,0,0:0:0:0:
64,192,53490,1,2,0:0:0:0:
192,192,53490,1,0,0:0:0:0:
320,192,53634,1,0,0:0:0:0:
320,192,53778,1,8,0:0:0:0:
448,192,53778,1,0,0:0:0:0:
320,192,54067,1,8,0:0:0:0:
448,192,54067,1,0,0:0:0:0:
64,192,54211,1,8,0:0:0:0:
192,192,54211,1,0,0:0:0:0:
320,192,54355,1,8,0:0:0:0:
448,192,54355,1,0,0:0:0:0:
64,192,54500,1,8,0:0:0:0:
192,192,54500,1,0,0:0:0:0:
192,192,54644,1,2,0:0:0:0:
448,192,54644,1,0,0:0:0:0:
320,192,54788,1,0,0:0:0:0:
64,192,54933,1,8,0:0:0:0:
448,192,54933,1,0,0:0:0:0:
192,192,55077,1,0,0:0:0:0:
64,192,55221,1,2,0:0:0:0:
320,192,55221,1,0,0:0:0:0:
192,192,55365,1,2,0:0:0:0:
448,192,55365,1,0,0:0:0:0:
64,192,55510,1,8,0:0:0:0:
320,192,55510,1,0,0:0:0:0:
448,192,55654,1,0,0:0:0:0:
64,192,55798,1,2,0:0:0:0:
192,192,55798,1,0,0:0:0:0:
320,192,55943,1,0,0:0:0:0:
192,192,56087,1,8,0:0:0:0:
448,192,56087,1,0,0:0:0:0:
64,192,56231,1,2,0:0:0:0:
320,192,56376,1,0,0:0:0:0:
448,192,56520,1,2,0:0:0:0:
64,192,56664,1,8,0:0:0:0:
192,192,56664,1,0,0:0:0:0:
320,192,56809,1,0,0:0:0:0:
192,192,56953,1,2,0:0:0:0:
448,192,57097,1,0,0:0:0:0:
64,192,57241,1,8,0:0:0:0:
320,192,57241,1,0,0:0:0:0:
192,192,57530,1,2,0:0:0:0:
192,192,57819,1,8,0:0:0:0:
448,192,57819,1,0,0:0:0:0:
320,192,58252,1,0,0:0:0:0:
64,192,58685,1,0,0:0:0:0:
448,192,58829,1,0,0:0:0:0:
64,192,58973,1,0,0:0:0:0:
