osu file format v14

[General]
AudioFilename: audio.ogg
AudioLeadIn: 0
PreviewTime: 31555
Countdown: 0
SampleSet: Soft
StackLeniency: 0.7
Mode: 3
LetterboxInBreaks: 0
SpecialStyle: 0
WidescreenStoryboard: 1

[Editor]
Bookmarks: 2692,7308,11923,31538,50000,54615
DistanceSpacing: 1.7
BeatDivisor: 4
GridSize: 32
TimelineZoom: 1.5

[Metadata]
Title:Volkmire's Inferno Race
TitleUnicode:Volkmire's Inferno Race
Artist:David Wise
ArtistUnicode:David Wise
Creator:keksikosu
Version:Easy
Source:Battletoads
Tags:video game videogame vgm vg ost instrumental nes snes super nintendo entertainment system sega mega drive genesis gear game boy gameboy amiga cd32 arcade 8-bit 8bit 16-bit 16bit tradewest original soundtrack antipole symmatrix- chordjack chordjacks chord chords jack jacks cj
BeatmapID:4130488
BeatmapSetID:1985598

[Difficulty]
HPDrainRate:6.5
CircleSize:4
OverallDifficulty:6.5
ApproachRate:5
SliderMultiplier:1.4
SliderTickRate:1

[Events]
//Background and Video events
0,0,"battletoads-ser.jpg",0,0
//Break Periods
//Storyboard Layer 0 (Background)
//Storyboard Layer 1 (Fail)
//Storyboard Layer 2 (Pass)
//Storyboard Layer 3 (Foreground)
//Storyboard Layer 4 (Overlay)
//Storyboard Sound Samples

[TimingPoints]
385,288.614170955794,4,2,1,45,1,0
54644,-100.0,4,2,1,35,0,0
55798,-100.0,4,2,1,25,0,0
56953,-100.0,4,2,1,15,0,0
58107,-100.0,4,2,1,10,0,0

[HitObjects]
64,192,385,128,0,2693:0:0:0:0:
448,192,2693,1,2,0:0:0:0:
192,192,2982,1,0,0:0:0:0:
320,192,3271,1,0,0:0:0:0:
64,192,3559,1,0,0:0:0:0:
192,192,3848,1,2,0:0:0:0:
448,192,4136,1,0,0:0:0:0:
64,192,4425,1,0,0:0:0:0:
320,192,4714,1,0,0:0:0:0:
448,192,5002,1,2,0:0:0:0:
192,192,5291,1,0,0:0:0:0:
64,192,5580,1,0,0:0:0:0:
320,192,5868,1,0,0:0:0:0:
192,192,6157,1,2,0:0:0:0:
448,192,6445,1,0,0:0:0:0:
64,192,6734,128,8,7023:0:0:0:0:
320,192,7023,128,8,7311:0:0:0:0:
64,192,7311,1,2,0:0:0:0:
448,192,7456,1,0,0:0:0:0:
448,192,7744,1,0,0:0:0:0:
64,192,7888,1,2,0:0:0:0:
64,192,8177,1,8,0:0:0:0:
448,192,8321,1,0,0:0:0:0:
448,192,8610,1,0,0:0:0:0:
64,192,8754,1,8,0:0:0:0:
448,192,9043,1,0,0:0:0:0:
64,192,9332,1,8,0:0:0:0:
320,192,9620,1,2,0:0:0:0:
192,192,9764,1,0,0:0:0:0:
192,192,10053,1,0,0:0:0:0:
320,192,10197,1,2,0:0:0:0:
320,192,10486,1,8,0:0:0:0:
192,192,10630,1,0,0:0:0:0:
192,192,10919,1,0,0:0:0:0:
320,192,11063,1,8,0:0:0:0:
192,192,11352,128,8,11640:0:0:0:0:
320,192,11640,128,8,11929:0:0:0:0:
64,192,12073,1,0,0:0:0:0:
448,192,12506,1,2,0:0:0:0:
448,192,12795,1,8,0:0:0:0:
192,192,13228,1,0,0:0:0:0:
320,192,13516,1,2,0:0:0:0:
320,192,13949,1,8,0:0:0:0:
64,192,14382,1,0,0:0:0:0:
448,192,14815,1,2,0:0:0:0:
448,192,15104,1,8,0:0:0:0:
192,192,15537,1,0,0:0:0:0:
320,192,15970,1,0,0:0:0:0:
64,192,16114,1,2,0:0:0:0:
320,192,16258,1,8,0:0:0:0:
448,192,16691,1,0,0:0:0:0:
64,192,17124,1,2,0:0:0:0:
64,192,17413,1,8,0:0:0:0:
320,192,17846,1,0,0:0:0:0:
192,192,18134,1,2,0:0:0:0:
192,192,18567,1,8,0:0:0:0:
448,192,19000,1,0,0:0:0:0:
64,192,19433,1,2,0:0:0:0:
320,192,19577,1,2,0:0:0:0:
64,192,19722,1,8,0:0:0:0:
448,192,19866,1,2,0:0:0:0:
192,192,20299,128,8,20587:0:0:0:0:
320,192,20587,128,2,20876:0:0:0:0:
64,192,20876,1,8,0:0:0:0:
192,192,21020,1,8,0:0:0:0:
448,192,21309,1,0,0:0:0:0:
64,192,21742,1,2,0:0:0:0:
64,192,22031,1,8,0:0:0:0:
320,192,22463,1,0,0:0:0:0:
192,192,22752,1,2,0:0:0:0:
192,192,23185,1,8,0:0:0:0:
448,192,23618,1,0,0:0:0:0:
64,192,24051,1,2,0:0:0:0:
64,192,24339,1,8,0:0:0:0:
320,192,24772,1,0,0:0:0:0:
192,192,25205,1,0,0:0:0:0:
448,192,25350,1,2,0:0:0:0:
192,192,25494,1,8,0:0:0:0:
64,192,25927,1,0,0:0:0:0:
448,192,26360,1,2,0:0:0:0:
448,192,26648,1,8,0:0:0:0:
192,192,27081,1,0,0:0:0:0:
320,192,27370,1,2,0:0:0:0:
320,192,27803,1,8,0:0:0:0:
64,192,28236,1,0,0:0:0:0:
448,192,28669,1,2,0:0:0:0:
192,192,28813,1,2,0:0:0:0:
448,192,28957,1,8,0:0:0:0:
64,192,29102,1,2,0:0:0:0:
320,192,29535,128,8,29823:0:0:0:0:
192,192,29823,128,2,30112:0:0:0:0:
448,192,30112,1,8,0:0:0:0:
320,192,30256,1,8,0:0:0:0:
64,192,30689,128,8,30978:0:0:0:0:
320,192,30978,128,2,31266:0:0:0:0:
192,192,31266,128,8,31555:0:0:0:0:
448,192,31555,1,2,0:0:0:0:
64,192,31699,1,2,0:0:0:0:
320,192,31988,1,0,0:0:0:0:
192,192,32421,1,8,0:0:0:0:
448,192,32854,1,0,0:0:0:0:
64,192,32998,128,8,33287:0:0:0:0:
320,192,33287,128,0,33575:0:0:0:0:
192,192,33575,128,8,33864:0:0:0:0:
64,192,33864,1,2,0:0:0:0:
448,192,34008,1,2,0:0:0:0:
192,192,34441,1,2,0:0:0:0:
320,192,34730,1,8,0:0:0:0:
64,192,35018,1,2,0:0:0:0:
192,192,35307,1,8,0:0:0:0:
448,192,35595,1,2,0:0:0:0:
320,192,35884,1,8,0:0:0:0:
64,192,36173,1,2,0:0:0:0:
448,192,36317,1,2,0:0:0:0:
192,192,36606,1,0,0:0:0:0:
320,192,37038,1,8,0:0:0:0:
64,192,37471,1,0,0:0:0:0:
448,192,37616,128,8,37904:0:0:0:0:
192,192,37904,128,0,38193:0:0:0:0:
320,192,38193,128,8,38482:0:0:0:0:
448,192,38482,1,2,0:0:0:0:
64,192,38626,1,2,0:0:0:0:
320,192,39059,1,2,0:0:0:0:
192,192,39347,1,8,0:0:0:0:
448,192,39636,1,2,0:0:0:0:
64,192,39780,1,0,0:0:0:0:
448,192,39925,1,8,0:0:0:0:
192,192,40069,1,0,0:0:0:0:
320,192,40358,1,2,0:0:0:0:
192,192,40502,1,8,0:0:0:0:
320,192,40646,1,8,0:0:0:0:
64,192,40790,1,2,0:0:0:0:
448,192,40935,1,2,0:0:0:0:
192,192,41223,1,0,0:0:0:0:
320,192,41656,1,8,0:0:0:0:
64,192,42089,1,0,0:0:0:0:
448,192,42234,128,8,42522:0:0:0:0:
192,192,42522,128,0,42811:0:0:0:0:
320,192,42811,128,8,43099:0:0:0:0:
448,192,43099,1,2,0:0:0:0:
64,192,43244,1,2,0:0:0:0:
320,192,43677,1,2,0:0:0:0:
192,192,43965,1,8,0:0:0:0:
448,192,44254,1,2,0:0:0:0:
320,192,44542,1,8,0:0:0:0:
64,192,44831,1,2,0:0:0:0:
192,192,45120,1,8,0:0:0:0:
448,192,45408,1,2,0:0:0:0:
64,192,45553,1,2,0:0:0:0:
320,192,45841,1,0,0:0:0:0:
192,192,46274,1,8,0:0:0:0:
448,192,46707,1,0,0:0:0:0:
64,192,46851,128,8,47140:0:0:0:0:
320,192,47140,128,0,47429:0:0:0:0:
192,192,47429,128,8,47717:0:0:0:0:
64,192,47717,1,2,0:0:0:0:
448,192,47862,1,2,0:0:0:0:
192,192,48294,1,2,0:0:0:0:
320,192,48583,1,8,0:0:0:0:
64,192,48872,1,2,0:0:0:0:
448,192,49016,1,0,0:0:0:0:
64,192,49160,1,8,0:0:0:0:
320,192,49305,1,0,0:0:0:0:
192,192,49593,1,2,0:0:0:0:
320,192,49738,1,8,0:0:0:0:
192,192,49882,1,8,0:0:0:0:
448,192,50026,1,2,0:0:0:0:
64,192,50170,1,0,0:0:0:0:
64,192,50459,1,0,0:0:0:0:
448,192,50603,1,2,0:0:0:0:
448,192,50892,1,8,0:0:0:0:
64,192,51036,1,0,0:0:0:0:
64,192,51325,1,0,0:0:0:0:
448,192,51469,1,8,0:0:0:0:
64,192,51758,1,0,0:0:0:0:
448,192,52046,1,8,0:0:0:0:
192,192,52335,1,2,0:0:0:0:
320,192,52479,1,0,0:0:0:0:
320,192,52768,1,0,0:0:0:0:
192,192,52912,1,2,0:0:0:0:
192,192,53201,1,8,0:0:0:0:
320,192,53345,1,0,0:0:0:0:
320,192,53634,1,0,0:0:0:0:
192,192,53778,1,8,0:0:0:0:
320,192,54067,128,8,54355:0:0:0:0:
192,192,54355,128,8,54644:0:0:0:0:
448,192,54788,1,0,0:0:0:0:
64,192,55221,1,2,0:0:0:0:
64,192,55510,1,8,0:0:0:0:
320,192,55943,1,0,0:0:0:0:
192,192,56231,1,2,0:0:0:0:
192,192,56664,1,8,0:0:0:0:
448,192,57097,1,0,0:0:0:0:
64,192,57530,1,2,0:0:0:0:
64,192,57819,1,8,0:0:0:0:
320,192,58252,1,0,0:0:0:0:
192,192,58685,1,0,0:0:0:0:
448,192,58829,1,0,0:0:0:0:
192,192,58973,1,0,0:0:0:0:
