osu file format v14

[General]
AudioFilename: audio.mp3
AudioLeadIn: 0
PreviewTime: 6056
Countdown: 1
SampleSet: None
StackLeniency: 0.7
Mode: 2
LetterboxInBreaks: 0
WidescreenStoryboard: 1

[Editor]
DistanceSpacing: 2
BeatDivisor: 4
GridSize: 4
TimelineZoom: 1.7

[Metadata]
Title:Title Theme
TitleUnicode:Title Theme
Artist:David Wise
ArtistUnicode:David Wise
Creator:Nelly
Version:Platter
Source:Battletoads
Tags:nes super nintendo entertainment system sega mega drive genesis gear game boy gameboy amiga
BeatmapID:1414211
BeatmapSetID:668127

[Difficulty]
HPDrainRate:5
CircleSize:4
OverallDifficulty:8
ApproachRate:8
SliderMultiplier:1.93
SliderTickRate:2

[Events]
//Background and Video events
0,0,"bg.jpg",0,0
//Break Periods
//Storyboard Layer 0 (Background)
//Storyboard Layer 1 (Fail)
//Storyboard Layer 2 (Pass)
//Storyboard Layer 3 (Foreground)
//Storyboard Sound Samples

[TimingPoints]
214,370.942812982998,4,2,0,25,1,0
32115,-100,4,2,0,15,0,0
32300,-100,4,2,0,10,0,0
32486,-100,4,2,0,5,0,0

[HitObjects]
256,136,214,6,0,L|352:140,1,96.5
200,208,584,2,0,L|196:304,1,96.5
332,312,955,1,0,0:0:0:0:
196,312,1141,1,0,0:0:0:0:
352,236,1326,2,0,L|356:140,1,96.5
80,72,1697,5,0,0:0:0:0:
316,120,2068,2,0,L|412:116,1,96.5
256,116,2439,1,0,0:0:0:0:
166,143,2624,1,0,0:0:0:0:
127,228,2809,1,0,0:0:0:0:
166,313,2995,1,0,0:0:0:0:
444,348,3180,5,0,0:0:0:0:
256,116,3552,2,0,L|160:112,2,96.5
392,72,4108,1,0,0:0:0:0:
236,208,4294,2,0,L|232:304,1,96.5
488,356,4665,5,0,0:0:0:0:
256,360,5036,1,0,0:0:0:0:
372,336,5221,2,0,L|408:300,2,48.25
236,284,5592,1,0,0:0:0:0:
392,248,5778,1,0,0:0:0:0:
440,245,5870,1,0,0:0:0:0:
488,243,5963,1,0,0:0:0:0:
180,92,6149,6,0,L|84:96,1,96.5
240,164,6520,2,0,L|244:260,1,96.5
92,220,6890,2,0,P|92:268|200:344,1,193
448,164,7447,6,0,P|448:116|340:40,1,193
204,36,8003,2,0,L|108:40,1,96.5
244,120,8374,1,0,0:0:0:0:
108,132,8560,2,0,P|60:136|108:220,1,193
356,236,9116,6,0,L|360:140,1,96.5
224,48,9487,2,0,L|128:52,1,96.5
264,132,9858,2,0,L|360:128,2,96.5
20,144,10414,6,0,P|8:192|108:272,1,193
260,272,10971,1,0,0:0:0:0:
108,276,11156,1,0,0:0:0:0:
105,227,11248,1,0,0:0:0:0:
103,179,11341,1,0,0:0:0:0:
240,184,11527,1,0,0:0:0:0:
104,112,11713,1,0,0:0:0:0:
55,114,11806,1,0,0:0:0:0:
7,116,11898,1,0,0:0:0:0:
332,92,12084,6,0,L|428:96,1,96.5
272,164,12455,2,0,L|268:260,1,96.5
420,220,12825,2,0,P|420:268|312:344,1,193
64,164,13382,6,0,P|64:116|172:40,1,193
308,36,13938,2,0,L|404:40,1,96.5
268,120,14309,1,0,0:0:0:0:
404,132,14495,2,0,P|452:136|404:220,1,193
156,236,15051,6,0,L|152:140,1,96.5
288,48,15422,2,0,L|384:52,1,96.5
248,132,15793,2,0,L|152:128,2,96.5
384,128,16350,1,0,0:0:0:0:
232,120,16535,5,0,0:0:0:0:
184,129,16627,1,0,0:0:0:0:
144,155,16720,1,0,0:0:0:0:
117,195,16813,1,0,0:0:0:0:
108,242,16905,1,0,0:0:0:0:
116,289,16998,1,0,0:0:0:0:
142,329,17091,1,0,0:0:0:0:
181,357,17184,1,0,0:0:0:0:
228,368,17278,5,0,0:0:0:0:
275,357,17370,1,0,0:0:0:0:
314,329,17463,1,0,0:0:0:0:
340,289,17556,1,0,0:0:0:0:
348,242,17649,1,0,0:0:0:0:
339,195,17741,1,0,0:0:0:0:
312,155,17834,1,0,0:0:0:0:
272,129,17927,1,0,0:0:0:0:
224,120,18019,6,0,L|128:124,1,96.5
264,200,18390,1,0,0:0:0:0:
416,148,18575,1,0,0:0:0:0:
184,284,18946,2,0,L|88:288,2,96.5
444,324,19503,6,0,L|448:228,1,96.5
312,132,19873,1,0,0:0:0:0:
468,136,20059,1,0,0:0:0:0:
236,128,20430,1,0,0:0:0:0:
352,128,20615,1,0,0:0:0:0:
468,124,20801,1,0,0:0:0:0:
92,324,20986,6,0,L|88:228,1,96.5
224,132,21356,1,0,0:0:0:0:
68,136,21542,1,0,0:0:0:0:
300,128,21914,2,0,L|396:132,1,96.5
260,208,22285,1,0,0:0:0:0:
4,100,22470,5,0,0:0:0:0:
236,84,22841,2,0,L|332:88,1,96.5
196,164,23212,2,0,L|200:260,1,96.5
336,332,23583,1,0,0:0:0:0:
472,328,23768,1,0,0:0:0:0:
224,120,23954,5,0,0:0:0:0:
88,156,24139,2,0,L|84:252,1,96.5
240,268,24510,1,0,0:0:0:0:
8,344,24881,2,0,L|104:340,2,96.5
316,340,25438,6,0,L|412:336,1,96.5
276,240,25809,1,0,0:0:0:0:
428,244,25994,1,0,0:0:0:0:
196,244,26365,1,0,0:0:0:0:
312,244,26550,1,0,0:0:0:0:
428,240,26736,1,0,0:0:0:0:
92,324,26921,6,0,L|88:228,1,96.5
224,132,27291,1,0,0:0:0:0:
68,136,27477,1,0,0:0:0:0:
300,128,27849,2,0,L|396:132,1,96.5
260,208,28220,1,0,0:0:0:0:
4,100,28405,5,0,0:0:0:0:
236,84,28776,2,0,L|332:88,1,96.5
196,164,29147,1,0,0:0:0:0:
332,244,29333,2,0,L|236:248,1,96.5
388,348,29703,1,0,0:0:0:0:
390,299,29795,1,0,0:0:0:0:
392,251,29888,5,0,0:0:0:0:
256,332,30074,1,0,0:0:0:0:
161,331,30259,1,0,0:0:0:0:
84,275,30444,1,0,0:0:0:0:
54,185,30630,1,0,0:0:0:0:
82,94,30815,1,0,0:0:0:0:
158,37,31001,1,0,0:0:0:0:
253,35,31186,1,0,0:0:0:0:
116,32,31373,6,0,L|112:128,1,96.5
248,140,31744,1,0,0:0:0:0:
112,220,31929,2,0,L|77:254,2,48.25
248,140,32300,1,0,0:0:0:0:
72,112,32486,1,0,0:0:0:0:
