osu file format v14

[General]
AudioFilename: audio.mp3
AudioLeadIn: 0
PreviewTime: 6056
Countdown: 1
SampleSet: None
StackLeniency: 0.7
Mode: 2
LetterboxInBreaks: 0
WidescreenStoryboard: 1

[Editor]
DistanceSpacing: 1.2
BeatDivisor: 4
GridSize: 4
TimelineZoom: 1.7

[Metadata]
Title:Title Theme
TitleUnicode:Title Theme
Artist:David Wise
ArtistUnicode:David Wise
Creator:Nelly
Version:Cup
Source:Battletoads
Tags:nes super nintendo entertainment system sega mega drive genesis gear game boy gameboy amiga
BeatmapID:1414181
BeatmapSetID:668127

[Difficulty]
HPDrainRate:3
CircleSize:2.5
OverallDifficulty:6
ApproachRate:6
SliderMultiplier:1.2
SliderTickRate:1

[Events]
//Background and Video events
0,0,"bg.jpg",0,0
//Break Periods
//Storyboard Layer 0 (Background)
//Storyboard Layer 1 (Fail)
//Storyboard Layer 2 (Pass)
//Storyboard Layer 3 (Foreground)
//Storyboard Sound Samples

[TimingPoints]
214,370.942812982998,4,2,0,25,1,0
32115,-100,4,2,0,15,0,0
32300,-100,4,2,0,10,0,0
32486,-100,4,2,0,5,0,0

[HitObjects]
140,96,214,6,0,L|260:92,1,120
116,216,955,2,0,L|112:336,1,120
256,352,1697,1,0,0:0:0:0:
400,240,2068,2,0,L|280:236,1,120
136,268,2810,1,0,0:0:0:0:
280,236,3181,6,0,L|284:116,1,120
140,36,3923,2,0,L|136:156,1,120
280,236,4665,2,0,L|400:240,1,120
256,240,5407,1,0,0:0:0:0:
184,172,5592,1,0,0:0:0:0:
256,104,5778,1,0,0:0:0:0:
328,172,5963,1,0,0:0:0:0:
256,240,6149,6,0,L|136:244,1,120
280,340,6890,1,0,0:0:0:0:
136,72,7261,2,0,L|132:132,1,60
276,196,7818,1,0,0:0:0:0:
333,193,8003,1,0,0:0:0:0:
362,143,8188,1,0,0:0:0:0:
336,92,8374,1,0,0:0:0:0:
279,86,8559,1,0,0:0:0:0:
64,88,9116,6,0,L|60:208,1,120,0|0,2:0|2:0,2:0:0:0:
204,220,9858,1,0,0:0:0:0:
348,224,10229,2,0,L|352:164,1,60
204,220,10785,2,0,L|200:280,1,60
260,292,11157,1,0,0:0:0:0:
320,296,11342,2,0,L|440:292,1,120
296,176,12084,6,0,L|176:172,2,120
440,176,13196,2,0,L|444:116,1,60
300,68,13753,5,0,0:0:0:0:
240,68,13938,1,0,0:0:0:0:
180,69,14123,1,0,0:0:0:0:
120,70,14309,1,0,0:0:0:0:
60,71,14494,1,0,0:0:0:0:
276,192,15051,6,0,L|396:188,2,120
132,192,16164,2,0,L|128:132,1,60
276,192,16720,6,0,L|280:252,1,60
208,304,17091,2,0,L|204:364,1,60
276,192,17462,2,0,L|336:188,2,60
204,140,18019,6,0,L|84:136,1,120
300,32,18946,2,0,L|360:28,2,60
228,100,19503,6,0,L|224:220,1,120
440,220,20430,1,0,0:0:0:0:
380,221,20615,1,0,0:0:0:0:
320,222,20800,1,0,0:0:0:0:
260,223,20986,6,0,L|140:220,1,120
356,192,21914,2,0,L|360:132,1,60
288,80,22285,1,0,0:0:0:0:
216,132,22470,5,0,0:0:0:0:
360,140,22841,2,0,P|420:148|360:256,1,240
216,252,23954,6,0,L|96:248,1,120
312,176,24881,2,0,L|372:180,2,60
240,80,25438,6,0,L|360:76,1,120
144,156,26365,1,0,0:0:0:0:
84,157,26550,1,0,0:0:0:0:
24,158,26735,1,0,0:0:0:0:
84,157,26921,6,0,L|204:154,1,120
420,108,27849,2,0,L|480:104,2,60
348,208,28405,6,0,L|228:205,1,120
464,212,29333,2,0,L|468:152,1,60
396,84,29703,2,0,L|392:24,1,60
256,192,30260,12,0,32486,0:0:0:0:
