osu file format v14

[General]
AudioFilename: audio.mp3
AudioLeadIn: 0
PreviewTime: 6056
Countdown: 1
SampleSet: None
StackLeniency: 0.7
Mode: 2
LetterboxInBreaks: 0
WidescreenStoryboard: 1

[Editor]
DistanceSpacing: 2.2
BeatDivisor: 4
GridSize: 4
TimelineZoom: 1.7

[Metadata]
Title:Title Theme
TitleUnicode:Title Theme
Artist:David Wise
ArtistUnicode:David Wise
Creator:Nelly
Version:Salad
Source:Battletoads
Tags:nes super nintendo entertainment system sega mega drive genesis gear game boy gameboy amiga
BeatmapID:1414271
BeatmapSetID:668127

[Difficulty]
HPDrainRate:5
CircleSize:3
OverallDifficulty:6.5
ApproachRate:6.5
SliderMultiplier:1.53
SliderTickRate:1

[Events]
//Background and Video events
0,0,"bg.jpg",0,0
//Break Periods
//Storyboard Layer 0 (Background)
//Storyboard Layer 1 (Fail)
//Storyboard Layer 2 (Pass)
//Storyboard Layer 3 (Foreground)
//Storyboard Sound Samples

[TimingPoints]
214,370.942812982998,4,2,0,25,1,0
32115,-100,4,2,0,15,0,0
32300,-100,4,2,0,10,0,0
32486,-100,4,2,0,5,0,0

[HitObjects]
144,112,214,6,0,L|296:108,1,153
188,208,770,2,0,P|172:284|236:324,1,153
396,320,1326,1,0,0:0:0:0:
180,324,1697,6,0,L|28:320,1,153
136,228,2254,2,0,L|288:224,1,153
120,132,2810,1,0,0:0:0:0:
336,116,3181,6,0,L|340:268,1,153
232,268,3737,2,0,L|228:116,1,153
396,44,4294,1,0,0:0:0:0:
180,124,4665,6,0,L|28:120,1,153
332,128,5407,2,0,L|336:52,1,76.5
228,180,5778,2,0,L|224:256,1,76.5
392,280,6149,5,0,0:0:0:0:
176,276,6520,2,0,P|136:272|176:208,1,153
388,160,7261,1,0,0:0:0:0:
220,144,7447,6,0,P|204:220|268:260,1,153
380,264,8003,2,0,P|396:340|332:380,1,153
220,380,8560,1,0,0:0:0:0:
52,372,8745,1,0,0:0:0:0:
268,296,9116,6,0,L|420:300,2,153
52,252,10229,2,0,L|48:176,1,76.5
264,176,10785,6,0,L|268:100,1,76.5
164,72,11156,1,0,0:0:0:0:
332,28,11342,2,0,L|484:32,1,153
272,128,12084,6,0,L|120:132,1,153
332,200,12826,2,0,L|336:352,1,153
168,368,13382,6,0,P|128:364|168:300,1,153
276,296,13938,2,0,P|316:292|376:204,1,153
272,148,14495,1,0,0:0:0:0:
104,156,14680,1,0,0:0:0:0:
316,256,15051,6,0,L|320:104,1,153
104,104,15793,1,0,0:0:0:0:
324,96,16164,2,0,L|328:172,1,76.5
160,188,16535,5,0,0:0:0:0:
376,324,16906,2,0,L|380:248,1,76.5
272,200,17277,2,0,L|196:204,1,76.5
304,108,17648,2,0,L|380:112,1,76.5
212,80,18019,6,0,L|60:84,1,153
168,176,18575,1,0,0:0:0:0:
384,272,18946,1,0,0:0:0:0:
307,274,19131,1,0,0:0:0:0:
231,276,19316,1,0,0:0:0:0:
400,284,19503,6,0,P|440:280|400:216,1,153
292,220,20059,1,0,0:0:0:0:
76,220,20430,2,0,L|0:224,2,76.5
244,220,20986,6,0,P|312:200|352:132,1,153
244,124,21543,1,0,0:0:0:0:
460,120,21914,1,0,0:0:0:0:
292,52,22099,1,0,0:0:0:0:
460,120,22470,5,0,0:0:0:0:
292,52,22841,2,0,L|216:56,1,76.5
324,140,23212,2,0,L|328:216,1,76.5
236,236,23583,2,0,L|160:240,1,76.5
328,252,23954,6,0,P|368:248|328:184,1,153
220,188,24510,1,0,0:0:0:0:
376,192,24881,2,0,L|452:196,1,76.5
344,284,25252,1,0,0:0:0:0:
176,284,25438,6,0,P|108:264|68:196,1,153
176,188,25995,1,0,0:0:0:0:
388,192,26365,2,0,L|392:116,1,76.5
284,68,26736,1,0,0:0:0:0:
116,72,26921,6,0,P|76:76|116:140,1,153
224,140,27478,1,0,0:0:0:0:
8,140,27849,1,0,0:0:0:0:
6,216,28034,1,0,0:0:0:0:
4,292,28219,1,0,0:0:0:0:
172,316,28405,1,0,0:0:0:0:
340,292,28776,1,0,0:0:0:0:
172,316,28961,1,0,0:0:0:0:
340,292,29333,6,0,L|344:216,1,76.5
236,208,29703,1,0,0:0:0:0:
68,216,29889,1,0,0:0:0:0:
256,192,30260,12,0,32486,0:0:0:0:
