osu file format v14

[General]
AudioFilename: audio.mp3
AudioLeadIn: 0
PreviewTime: 6056
Countdown: 1
SampleSet: Soft
StackLeniency: 0.7
Mode: 2
LetterboxInBreaks: 0
WidescreenStoryboard: 0

[Editor]
DistanceSpacing: 1.6
BeatDivisor: 4
GridSize: 4
TimelineZoom: 1.7

[Metadata]
Title:Title Theme
TitleUnicode:Title Theme
Artist:David Wise
ArtistUnicode:David Wise
Creator:Nelly
Version:Rain
Source:Battletoads
Tags:nes super nintendo entertainment system sega mega drive genesis gear game boy gameboy amiga
BeatmapID:1413595
BeatmapSetID:668127

[Difficulty]
HPDrainRate:6
CircleSize:4
OverallDifficulty:9
ApproachRate:9
SliderMultiplier:1.93
SliderTickRate:2

[Events]
//Background and Video events
0,0,"bg.jpg",0,0
//Break Periods
//Storyboard Layer 0 (Background)
//Storyboard Layer 1 (Fail)
//Storyboard Layer 2 (Pass)
//Storyboard Layer 3 (Foreground)
//Storyboard Sound Samples

[TimingPoints]
214,370.942812982998,4,2,0,25,1,0
32115,-100,4,2,0,15,0,0
32300,-100,4,2,0,10,0,0
32486,-100,4,2,0,5,0,0

[HitObjects]
84,96,214,6,0,L|180:92,1,96.5
316,88,584,1,8,0:0:0:0:
160,192,770,1,8,0:0:0:0:
316,272,955,6,0,L|412:276,2,96.5,0|0|8,0:0|0:0|0:0,0:0:0:0:
160,192,1512,1,0,0:0:0:0:
480,52,1697,6,0,L|288:56,1,193,0|8,0:0|0:0,0:0:0:0:
444,152,2254,1,8,0:0:0:0:
292,188,2439,2,0,L|196:192,1,96.5
332,364,2810,2,0,L|336:268,1,96.5,8|0,0:0|0:0,0:0:0:0:
88,28,3181,6,0,P|40:32|88:116,1,193,0|8,0:0|0:0,0:0:0:0:
240,92,3737,1,8,0:0:0:0:
396,96,3923,2,0,L|400:192,1,96.5
264,220,4294,2,0,L|168:224,1,96.5,8|0,0:0|0:0,0:0:0:0:
492,372,4665,6,0,P|496:324|380:276,1,193,0|8,0:0|0:0,0:0:0:0:
228,200,5221,1,0,0:0:0:0:
276,197,5313,1,0,0:0:0:0:
324,195,5406,1,8,0:0:0:0:
188,112,5592,1,8,0:0:0:0:
344,4,5778,1,8,0:0:0:0:
347,52,5870,1,8,0:0:0:0:
349,100,5963,1,8,0:0:0:0:
91,107,6149,6,0,L|187:111,1,96.5,2|0,0:0|0:0,0:0:0:0:
344,4,6520,2,0,L|248:8,1,96.5,8|0,0:0|0:0,0:0:0:0:
91,107,6890,2,0,P|43:111|91:195,1,193,2|8,0:0|0:0,0:0:0:0:
381,274,7447,6,0,P|385:226|269:178,1,193
136,212,8003,1,8,0:0:0:0:
292,316,8189,1,0,0:0:0:0:
136,212,8374,1,0,0:0:0:0:
389,205,8560,2,0,P|380:295|292:316,1,193
32,44,9116,6,0,L|28:140,1,96.5,2|0,0:0|0:0,0:0:0:0:
184,96,9487,2,0,L|188:192,1,96.5,8|0,0:0|0:0,0:0:0:0:
32,256,9858,2,0,L|128:260,1,96.5,2|0,0:0|0:0,0:0:0:0:
4,352,10229,1,8,0:0:0:0:
256,324,10414,6,0,L|448:328,1,193
312,224,10971,1,8,0:0:0:0:
468,68,11156,1,8,0:0:0:0:
471,116,11249,1,8,0:0:0:0:
473,164,11341,1,8,0:0:0:0:
320,36,11527,2,8,L|316:132,1,96.5,8|8,0:0|0:0,0:0:0:0:
472,116,11898,1,8,0:0:0:0:
196,148,12084,6,0,L|100:144,1,96.5,2|0,0:0|0:0,0:0:0:0:
256,204,12455,2,0,L|260:300,1,96.5,8|0,0:0|0:0,0:0:0:0:
108,80,12826,1,2,0:0:0:0:
224,76,13011,1,0,0:0:0:0:
340,72,13196,1,8,0:0:0:0:
92,96,13382,6,0,P|88:144|204:192,1,193
356,260,13938,2,0,L|260:264,2,96.5,8|0|0,0:0|0:0|0:0,0:0:0:0:
92,96,14495,2,0,P|44:100|92:184,1,193
352,344,15051,5,2,0:0:0:0:
444,338,15236,1,0,0:0:0:0:
490,257,15421,1,8,0:0:0:0:
447,175,15607,1,0,0:0:0:0:
292,104,15793,2,0,L|388:100,2,96.5,2|0|8,0:0|0:0|0:0,0:0:0:0:
136,92,16350,1,0,0:0:0:0:
384,352,16535,5,8,0:0:0:0:
431,347,16627,1,8,0:0:0:0:
473,324,16720,1,8,0:0:0:0:
502,285,16813,1,8,0:0:0:0:
512,239,16905,1,8,0:0:0:0:
503,192,16998,1,8,0:0:0:0:
475,153,17091,1,8,0:0:0:0:
434,129,17184,1,8,0:0:0:0:
192,132,17277,5,8,0:0:0:0:
145,138,17369,1,8,0:0:0:0:
124,179,17462,1,8,0:0:0:0:
145,221,17555,1,8,0:0:0:0:
344,260,17648,2,8,L|388:240,1,48.25
192,132,17833,2,8,L|148:112,1,48.25
344,260,18019,6,0,L|440:264,1,96.5,2|0,0:0|0:0,0:0:0:0:
284,336,18390,1,8,0:0:0:0:
440,264,18575,2,0,P|444:216|328:167,1,193,8|0,0:0|0:0,0:0:0:0:
176,168,19132,1,8,0:0:0:0:
328,164,19317,1,8,0:0:0:0:
20,44,19503,6,0,L|16:140,1,96.5,2|0,0:0|0:0,0:0:0:0:
168,156,19873,2,8,L|172:252,1,96.5
16,272,20244,1,0,0:0:0:0:
172,288,20430,2,8,L|268:284,1,96.5
112,344,20801,1,0,0:0:0:0:
404,288,20986,6,0,L|408:192,1,96.5,2|0,0:0|0:0,0:0:0:0:
256,176,21357,1,8,0:0:0:0:
412,92,21543,2,0,L|220:88,1,193,8|0,0:0|0:0,0:0:0:0:
372,216,22099,2,8,L|376:311,1,96.5
100,340,22470,6,0,L|4:336,1,96.5,2|0,0:0|0:0,0:0:0:0:
340,344,22841,1,8,0:0:0:0:
432,338,23026,1,8,0:0:0:0:
478,257,23211,1,8,0:0:0:0:
435,175,23397,1,8,0:0:0:0:
340,168,23583,1,8,0:0:0:0:
492,96,23768,1,8,0:0:0:0:
168,260,23954,6,0,L|72:264,1,96.5,2|0,0:0|0:0,0:0:0:0:
228,336,24325,1,8,0:0:0:0:
72,264,24510,2,0,P|68:216|184:167,1,193,8|0,0:0|0:0,0:0:0:0:
336,168,25067,1,8,0:0:0:0:
184,164,25252,1,8,0:0:0:0:
492,44,25438,6,0,L|496:140,1,96.5,2|0,0:0|0:0,0:0:0:0:
344,156,25808,2,8,L|248:160,1,96.5
404,236,26179,1,0,0:0:0:0:
248,260,26365,2,8,L|152:256,1,96.5
308,184,26736,1,0,0:0:0:0:
64,288,26921,6,0,L|60:192,1,96.5,2|0,0:0|0:0,0:0:0:0:
212,176,27292,1,8,0:0:0:0:
56,92,27478,2,0,L|248:88,1,193,8|8,0:0|0:0,0:0:0:0:
96,216,28034,2,0,L|92:311,1,96.5,8|0,0:0|0:0,0:0:0:0:
340,340,28405,6,0,L|436:336,1,96.5,2|0,0:0|0:0,0:0:0:0:
172,84,28776,2,8,L|76:80,1,96.5
340,340,29147,2,0,L|344:244,1,96.5,0|8,0:0|0:0,0:0:0:0:
188,180,29518,1,8,0:0:0:0:
344,112,29703,2,8,L|388:92,1,48.25
108,40,29889,6,0,L|12:36,1,96.5,10|0,0:0|0:0,0:0:0:0:
256,104,30260,1,8,0:0:0:0:
348,110,30445,1,8,0:0:0:0:
394,191,30630,1,0,0:0:0:0:
351,273,30816,1,0,0:0:0:0:
256,280,31002,1,8,0:0:0:0:
408,352,31187,1,8,0:0:0:0:
252,286,31373,5,10,0:0:0:0:
250,237,31465,1,8,0:0:0:0:
248,189,31558,1,8,0:0:0:0:
404,182,31744,1,0,0:0:0:0:
252,90,31929,1,8,0:0:0:0:
204,92,32023,1,8,0:0:0:0:
155,94,32115,1,8,0:0:0:0:
308,30,32300,2,8,L|312:126,1,96.5
