osu file format v14

[General]
AudioFilename: Snakey Chantey.mp3
AudioLeadIn: 0
PreviewTime: 16849
Countdown: 1
SampleSet: None
StackLeniency: 0.7
Mode: 2
LetterboxInBreaks: 1
WidescreenStoryboard: 1

[Editor]
Bookmarks: 16849,35470,52022,54091
DistanceSpacing: 1
BeatDivisor: 6
GridSize: 4
TimelineZoom: 5.899997

[Metadata]
Title:Snakey Chantey
TitleUnicode:Snakey Chantey
Artist:David Wise
ArtistUnicode:David Wise
Creator:eldnl
Version:Platter
Source:Donkey Kong Country 2: Diddy's Kong Quest
Tags:snes super nintendo dixie rareware dkc2
BeatmapID:1410149
BeatmapSetID:170783

[Difficulty]
HPDrainRate:4
CircleSize:3.5
OverallDifficulty:8.8
ApproachRate:8.8
SliderMultiplier:1.5
SliderTickRate:2

[Events]
//Background and Video events
0,0,"Background.jpg",0,0
//Break Periods
//Storyboard Layer 0 (Background)
//Storyboard Layer 1 (Fail)
//Storyboard Layer 2 (Pass)
//Storyboard Layer 3 (Foreground)
//Storyboard Sound Samples

[TimingPoints]
324,258.620689655172,4,2,1,25,1,0
14651,-100,4,3,1,25,0,0
16875,-100,4,3,1,25,0,1
35496,-100,4,3,1,25,0,0

[Colours]
Combo1 : 255,128,0
Combo2 : 0,202,0
Combo3 : 0,255,128
Combo4 : 255,0,0

[HitObjects]
168,256,65,5,0,0:0:0:0:
132,216,194,1,0,0:0:0:0:
152,168,324,1,2,0:0:0:0:
192,136,453,1,0,0:0:0:0:
208,84,582,1,2,0:0:0:0:
176,44,711,1,0,0:0:0:0:
252,44,841,2,0,L|324:88,1,75,2|0,0:0|0:0,0:0:0:0:
288,152,1099,2,0,L|360:196,1,75,2|0,0:0|0:0,0:0:0:0:
276,196,1358,6,0,P|240:232|208:332,2,150,2|0|2,0:0|0:0|0:0,0:0:0:0:
88,192,2134,6,0,L|72:104,1,75,0|0,0:0|0:0,0:0:0:0:
172,112,2392,2,0,L|188:24,1,75,2|0,0:0|0:0,0:0:0:0:
76,192,2651,2,0,L|60:104,1,75,2|0,0:0|0:0,0:0:0:0:
184,112,2910,2,0,L|200:24,1,75,2|0,0:0|0:0,0:0:0:0:
308,40,3168,2,0,L|324:128,1,75,2|0,0:0|0:0,0:0:0:0:
396,176,3427,1,2,0:0:0:0:
124,184,3686,1,2,0:0:0:0:
96,184,3944,1,2,0:0:0:0:
372,176,4203,6,0,L|344:92,1,75,2|0,0:0|0:0,0:0:0:0:
444,108,4461,1,2,0:0:0:0:
248,112,4720,2,0,L|220:28,1,75,2|0,0:0|0:0,0:0:0:0:
320,44,4979,1,2,0:0:0:0:
124,52,5237,6,0,L|152:136,1,75,2|0,0:0|0:0,0:0:0:0:
260,128,5496,2,0,L|232:212,1,75,2|0,0:0|0:0,0:0:0:0:
112,52,5755,2,0,L|140:136,1,75,2|0,0:0|0:0,0:0:0:0:
272,128,6013,1,2,0:0:0:0:
48,132,6272,1,2,0:0:0:0:
304,128,6530,6,0,P|352:196|368:280,1,150,2|2,0:0|0:0,0:0:0:0:
256,260,6918,1,0,0:0:0:0:
144,260,7048,2,0,P|96:192|80:108,1,150,2|2,0:0|0:0,0:0:0:0:
192,128,7436,1,0,0:0:0:0:
304,128,7565,6,0,L|360:204,3,75,2|0|2|0,0:0|0:0|0:0|0:0,0:0:0:0:
236,196,8082,1,2,0:0:0:0:
116,200,8341,5,0,0:0:0:0:
64,100,8470,1,0,0:0:0:0:
116,200,8599,1,2,0:0:0:0:
340,204,8858,1,2,0:0:0:0:
392,304,8987,1,0,0:0:0:0:
340,204,9117,1,2,0:0:0:0:
116,200,9375,5,2,0:0:0:0:
160,96,9505,1,0,0:0:0:0:
116,200,9634,1,2,0:0:0:0:
228,204,9763,1,0,0:0:0:0:
272,308,9892,1,2,0:0:0:0:
228,204,10022,1,0,0:0:0:0:
84,200,10151,1,2,0:0:0:0:
40,96,10280,1,0,0:0:0:0:
84,200,10410,1,2,0:0:0:0:
228,204,10539,1,0,0:0:0:0:
372,204,10668,6,0,L|396:124,1,75,2|0,0:0|0:0,0:0:0:0:
280,128,10927,2,0,L|304:48,1,75,2|0,0:0|0:0,0:0:0:0:
188,60,11186,2,0,L|212:140,1,75,2|0,0:0|0:0,0:0:0:0:
96,140,11444,2,0,L|120:220,2,75,2|0|2,0:0|0:0|0:0,0:0:0:0:
320,136,11961,2,0,L|220:272,1,150,2|0,0:0|0:0,0:0:0:0:
456,260,12479,5,2,0:0:0:0:
380,176,12608,1,0,0:0:0:0:
360,64,12737,1,2,0:0:0:0:
452,128,12867,1,0,0:0:0:0:
340,128,12996,5,2,0:0:0:0:
416,212,13125,1,0,0:0:0:0:
436,324,13255,1,2,0:0:0:0:
344,260,13384,1,0,0:0:0:0:
456,260,13513,2,0,L|472:184,1,75,2|0,0:0|0:0,0:0:0:0:
360,184,13772,1,2,0:0:0:0:
136,184,14030,1,0,0:0:0:0:
360,184,14289,1,2,0:0:0:0:
168,184,14677,5,0,0:0:0:0:
168,184,14742,1,0,0:0:0:0:
168,184,14806,2,0,L|148:100,1,75,8|4,0:0|0:0,0:0:0:0:
248,112,15065,1,4,0:0:0:0:
360,112,15194,2,0,L|380:196,1,75,8|4,0:0|0:0,0:0:0:0:
280,184,15453,1,4,0:0:0:0:
152,184,15582,6,0,L|132:100,1,75,8|4,0:0|0:0,0:0:0:0:
232,112,15841,1,4,0:0:0:0:
380,112,15970,2,0,L|400:196,1,75,4|8,0:0|0:0,0:0:0:0:
300,184,16229,1,4,0:0:0:0:
136,188,16358,2,0,L|148:288,1,75,4|0,0:0|0:0,0:0:0:0:
149,287,16530,1,0,0:0:0:0:
149,287,16573,1,0,0:0:0:0:
344,284,16746,5,0,0:0:0:0:
344,284,16789,1,0,0:0:0:0:
344,284,16832,1,0,0:0:0:0:
344,284,16875,2,0,L|368:128,1,150,4|0,0:0|0:0,0:0:0:0:
412,96,17263,1,0,0:0:0:0:
316,96,17392,2,0,L|292:252,1,150,0|0,0:0|0:0,0:0:0:0:
248,284,17780,1,0,0:0:0:0:
348,284,17910,1,0,0:0:0:0:
404,204,18039,1,0,0:0:0:0:
416,108,18168,1,0,0:0:0:0:
316,108,18298,1,0,0:0:0:0:
284,108,18556,5,0,0:0:0:0:
384,108,18686,1,0,0:0:0:0:
372,204,18815,1,0,0:0:0:0:
316,284,18944,1,0,0:0:0:0:
120,288,19203,2,0,L|100:208,1,75,0|0,0:0|0:0,0:0:0:0:
200,208,19461,1,0,0:0:0:0:
396,212,19720,5,0,0:0:0:0:
428,120,19849,1,0,0:0:0:0:
396,212,19979,1,0,0:0:0:0:
300,212,20108,1,0,0:0:0:0:
212,176,20237,1,0,0:0:0:0:
300,212,20367,2,0,L|340:48,1,150,0|0,0:0|0:0,0:0:0:0:
236,64,20755,2,0,L|196:228,1,150,0|0,0:0|0:0,0:0:0:0:
428,208,21272,5,0,0:0:0:0:
352,208,21401,1,0,0:0:0:0:
276,208,21530,1,0,0:0:0:0:
84,112,21789,1,0,0:0:0:0:
160,112,21918,1,0,0:0:0:0:
236,112,22048,1,0,0:0:0:0:
364,112,22177,1,0,0:0:0:0:
328,112,22306,1,0,0:0:0:0:
292,112,22436,2,0,P|296:196|368:252,1,150,0|0,0:0|0:0,0:0:0:0:
248,244,22823,6,0,L|232:324,1,75,0|0,0:0|0:0,0:0:0:0:
448,312,23082,1,0,0:0:0:0:
340,316,23341,1,0,0:0:0:0:
236,316,23599,1,0,0:0:0:0:
236,316,23729,1,0,0:0:0:0:
476,312,23987,1,0,0:0:0:0:
476,312,24117,1,0,0:0:0:0:
208,316,24375,2,0,P|232:208|264:316,1,300,0|0,0:0|0:0,0:0:0:0:
88,304,25151,6,0,P|56:240|100:168,1,150,4|0,0:0|0:0,0:0:0:0:
204,180,25539,1,0,0:0:0:0:
316,180,25668,2,0,P|348:244|304:316,1,150,0|0,0:0|0:0,0:0:0:0:
200,308,26056,1,0,0:0:0:0:
88,308,26186,2,0,L|64:220,1,75,0|0,0:0|0:0,0:0:0:0:
292,236,26444,1,0,0:0:0:0:
311,163,26573,2,0,P|232:160|172:100,1,150,0|0,0:0|0:0,0:0:0:0:
292,120,26961,2,0,P|371:117|431:57,1,150,0|0,0:0|0:0,0:0:0:0:
228,76,27479,5,0,0:0:0:0:
228,76,27608,1,0,0:0:0:0:
304,156,27737,1,0,0:0:0:0:
108,164,27996,1,0,0:0:0:0:
108,164,28125,1,0,0:0:0:0:
184,244,28255,1,0,0:0:0:0:
324,244,28384,1,0,0:0:0:0:
400,324,28513,1,0,0:0:0:0:
324,244,28642,2,0,P|272:200|248:120,1,150,0|0,0:0|0:0,0:0:0:0:
344,128,29030,1,0,0:0:0:0:
116,236,29289,6,0,P|136:164|192:115,1,150,0|0,0:0|0:0,0:0:0:0:
92,116,29677,1,0,0:0:0:0:
190,115,29806,2,0,P|169:186|113:235,1,150,0|0,0:0|0:0,0:0:0:0:
212,232,30194,1,0,0:0:0:0:
116,236,30323,5,0,0:0:0:0:
116,236,30453,1,0,0:0:0:0:
360,240,30582,1,0,0:0:0:0:
360,240,30711,1,0,0:0:0:0:
144,236,30970,1,0,0:0:0:0:
144,236,31099,1,0,0:0:0:0:
392,240,31358,5,0,0:0:0:0:
440,156,31487,1,0,0:0:0:0:
440,156,31617,1,0,0:0:0:0:
392,240,31746,1,0,0:0:0:0:
164,236,31875,1,0,0:0:0:0:
212,152,32005,1,0,0:0:0:0:
408,156,32263,1,0,0:0:0:0:
408,156,32392,1,0,0:0:0:0:
260,152,32586,2,0,L|244:104,1,37.5,0|0,0:0|0:0,0:0:0:0:
348,116,32780,1,0,0:0:0:0:
216,240,33039,1,0,0:0:0:0:
120,240,33168,1,0,0:0:0:0:
216,240,33298,1,0,0:0:0:0:
120,240,33427,5,0,0:0:0:0:
72,156,33556,1,0,0:0:0:0:
72,156,33686,1,0,0:0:0:0:
120,240,33815,1,0,0:0:0:0:
348,236,33944,1,0,0:0:0:0:
300,152,34073,1,0,0:0:0:0:
104,156,34332,1,0,0:0:0:0:
104,156,34461,5,0,0:0:0:0:
360,160,34720,1,0,0:0:0:0:
104,156,34979,1,0,0:0:0:0:
360,160,35237,1,0,0:0:0:0:
104,156,35496,6,0,L|80:316,1,150,4|0,0:0|0:0,0:0:0:0:
337,308,36013,2,0,L|361:148,1,150,0|0,0:0|0:0,0:0:0:0:
144,300,36530,2,0,P|96:256|92:164,1,150,0|0,0:0|0:0,0:0:0:0:
312,176,36918,2,0,P|360:132|364:40,1,150,0|0,0:0|0:0,0:0:0:0:
144,300,37306,2,0,L|128:220,1,75,0|0,0:0|0:0,0:0:0:0:
300,228,37694,6,0,P|356:160|264:68,1,225,0|0,0:0|0:0,0:0:0:0:
132,68,38341,1,0,0:0:0:0:
388,72,38599,1,0,0:0:0:0:
388,72,38729,1,0,0:0:0:0:
212,68,38987,1,0,0:0:0:0:
212,68,39117,1,0,0:0:0:0:
392,72,39375,1,0,0:0:0:0:
132,68,39634,6,0,P|96:140|136:200,1,150,0|0,0:0|0:0,0:0:0:0:
384,192,40151,2,0,P|420:264|380:324,1,150,0|0,0:0|0:0,0:0:0:0:
132,320,40668,2,0,P|136:248|168:160,1,150
432,184,41056,2,0,P|428:112|396:24,1,150
132,320,41444,2,0,L|104:228,1,75,0|0,0:0|0:0,0:0:0:0:
168,132,41703,5,0,0:0:0:0:
424,128,41961,1,0,0:0:0:0:
136,132,42220,1,0,0:0:0:0:
392,128,42479,1,0,0:0:0:0:
100,132,42737,5,0,0:0:0:0:
100,132,42996,1,0,0:0:0:0:
452,128,43255,1,0,0:0:0:0:
452,128,43513,1,0,0:0:0:0:
100,132,43772,6,0,P|112:216|180:272,1,150,4|0,0:0|0:0,0:0:0:0:
328,260,44289,1,0,0:0:0:0:
328,260,44418,1,0,0:0:0:0:
92,260,44677,2,0,B|176:260|100:172|176:108|130:95|130:95|176:60,1,225,0|0,0:0|0:0,0:0:0:0:
352,84,45323,1,0,0:0:0:0:
352,84,45453,1,0,0:0:0:0:
104,80,45711,5,0,0:0:0:0:
104,80,45776,1,0,0:0:0:0:
104,80,45841,2,0,L|84:176,1,75,0|0,0:0|0:0,0:0:0:0:
224,156,46099,2,0,L|244:252,1,75,0|0,0:0|0:0,0:0:0:0:
104,228,46358,2,0,L|84:324,1,75,0|0,0:0|0:0,0:0:0:0:
328,300,46746,2,0,L|348:204,1,75,0|0,0:0|0:0,0:0:0:0:
120,224,47134,1,0,0:0:0:0:
376,228,47392,1,0,0:0:0:0:
88,224,47651,5,0,0:0:0:0:
68,92,47780,1,0,0:0:0:0:
280,92,47910,1,4,0:0:0:0:
152,88,48168,1,8,0:0:0:0:
152,88,48298,1,4,0:0:0:0:
424,224,48686,5,0,0:0:0:0:
444,92,48815,1,0,0:0:0:0:
232,92,48944,1,4,0:0:0:0:
360,88,49203,1,8,0:0:0:0:
360,88,49332,1,4,0:0:0:0:
140,192,49720,5,0,0:0:0:0:
116,84,49849,1,0,0:0:0:0:
360,264,49979,1,4,0:0:0:0:
136,276,50237,1,4,0:0:0:0:
388,268,50496,1,4,0:0:0:0:
108,280,50755,1,4,0:0:0:0:
344,268,51013,6,0,P|380:232|404:132,1,150,4|4,0:0|0:0,0:0:0:0:
180,140,51530,1,4,0:0:0:0:
156,28,51660,1,0,0:0:0:0:
364,140,51789,1,4,0:0:0:0:
388,28,51918,1,0,0:0:0:0:
180,140,52048,1,4,0:0:0:0:
256,192,52177,12,0,54117,0:0:0:0:
