osu file format v14

[General]
AudioFilename: dkc2-jibjig.mp3
AudioLeadIn: 0
PreviewTime: 7543
Countdown: 0
SampleSet: Soft
StackLeniency: 0.5
Mode: 0
LetterboxInBreaks: 0
WidescreenStoryboard: 1

[Editor]
Bookmarks: 7703,15383,15543,23063,32823,56983,57303,57623
DistanceSpacing: 1
BeatDivisor: 16
GridSize: 32
TimelineZoom: 1

[Metadata]
Title:Jib Jig
TitleUnicode:Jib Jig
Artist:David Wise
ArtistUnicode:David Wise
Creator:Hima
Version:Insane
Source:Donkey Kong Country
Tags:
BeatmapID:900633
BeatmapSetID:415655

[Difficulty]
HPDrainRate:6
CircleSize:5
OverallDifficulty:8.5
ApproachRate:9
SliderMultiplier:1.4
SliderTickRate:3

[Events]
//Background and Video events
0,0,"BG.jpg",0,0
//Break Periods
//Storyboard Layer 0 (Background)
//Storyboard Layer 1 (Fail)
//Storyboard Layer 2 (Pass)
//Storyboard Layer 3 (Foreground)
//Storyboard Sound Samples

[TimingPoints]
183,480,4,2,1,30,1,0
23183,-76.9230769230769,4,2,1,40,0,0
32823,-100,4,2,1,30,0,0
42263,-76.9230769230769,4,2,1,40,0,0
57273,-76.9230769230769,4,1,1,40,0,0
57333,-76.9230769230769,4,2,1,40,0,0

[HitObjects]
64,64,7703,5,0,0:0:0:0:
67,82,7783,1,0,0:0:0:0:
70,100,7863,2,0,L|163:93,1,93.3333333333333
288,153,8343,2,0,L|195:160,1,93.3333333333333
125,189,8823,1,0,0:0:0:0:
96,258,8983,1,0,0:0:0:0:
125,327,9143,1,0,0:0:0:0:
194,355,9303,2,0,L|287:348,1,93.3333333333333
343,298,9783,5,0,0:0:0:0:
412,325,9943,2,0,L|408:372,1,46.6666666666667
343,298,10263,2,0,P|331:254|343:209,1,93.3333333333333
383,145,10743,1,0,0:0:0:0:
383,71,10903,1,0,0:0:0:0:
343,8,11063,1,0,0:0:0:0:
343,8,11223,2,0,L|250:15,1,93.3333333333333
246,33,11623,1,0,0:0:0:0:
243,51,11703,6,0,L|150:44,1,93.3333333333333
279,116,12183,2,0,L|372:109,1,93.3333333333333
442,137,12663,1,0,0:0:0:0:
471,206,12823,1,0,0:0:0:0:
442,275,12983,1,0,0:0:0:0:
373,303,13143,2,0,L|280:296,1,93.3333333333333
224,246,13623,5,0,0:0:0:0:
155,273,13783,2,0,L|159:320,1,46.6666666666667
89,349,14103,2,0,L|81:255,1,93.3333333333333
22,209,14583,1,0,0:0:0:0:
95,135,14743,2,0,L|91:181,2,46.6666666666667
224,246,15383,5,0,0:0:0:0:
224,246,15463,1,0,0:0:0:0:
224,246,15543,1,0,0:0:0:0:
249,258,15623,1,0,0:0:0:0:
277,258,15703,1,0,0:0:0:0:
303,246,15783,1,0,0:0:0:0:
329,234,15863,1,0,0:0:0:0:
357,234,15943,1,0,0:0:0:0:
382,246,16023,2,0,L|386:269,5,23.3333333333333
465,334,16503,5,0,0:0:0:0:
467,306,16583,1,0,0:0:0:0:
469,278,16663,1,0,0:0:0:0:
471,250,16743,1,0,0:0:0:0:
473,222,16823,1,0,0:0:0:0:
475,194,16903,1,0,0:0:0:0:
477,166,16983,2,0,L|479:143,5,23.3333333333333
414,62,17463,5,0,0:0:0:0:
391,46,17543,1,0,0:0:0:0:
364,37,17623,1,0,0:0:0:0:
337,38,17703,1,0,0:0:0:0:
310,47,17783,1,0,0:0:0:0:
288,64,17863,1,0,0:0:0:0:
272,87,17943,5,0,0:0:0:0:
256,110,18023,1,0,0:0:0:0:
234,127,18103,1,0,0:0:0:0:
207,136,18183,1,0,0:0:0:0:
180,137,18263,1,0,0:0:0:0:
153,128,18343,1,0,0:0:0:0:
130,112,18423,2,0,L|125:89,5,23.3333333333333
78,197,18903,2,0,L|74:175,5,23.3333333333333
26,282,19383,5,0,0:0:0:0:
45,301,19463,1,0,0:0:0:0:
70,314,19543,1,0,0:0:0:0:
98,318,19623,1,0,0:0:0:0:
126,314,19703,1,0,0:0:0:0:
151,301,19783,1,0,0:0:0:0:
170,282,19863,5,0,0:0:0:0:
189,263,19943,1,0,0:0:0:0:
214,250,20023,1,0,0:0:0:0:
242,246,20103,1,0,0:0:0:0:
270,250,20183,1,0,0:0:0:0:
295,263,20263,1,0,0:0:0:0:
314,282,20343,5,0,0:0:0:0:
333,301,20423,1,0,0:0:0:0:
358,314,20503,1,0,0:0:0:0:
386,318,20583,1,0,0:0:0:0:
414,314,20663,1,0,0:0:0:0:
439,301,20743,1,0,0:0:0:0:
458,282,20823,5,0,0:0:0:0:
470,257,20903,1,0,0:0:0:0:
475,229,20983,1,0,0:0:0:0:
470,201,21063,1,0,0:0:0:0:
458,176,21143,1,0,0:0:0:0:
438,156,21223,1,0,0:0:0:0:
413,144,21303,5,0,0:0:0:0:
385,139,21383,1,0,0:0:0:0:
357,144,21463,1,0,0:0:0:0:
332,156,21543,1,0,0:0:0:0:
313,176,21623,1,0,0:0:0:0:
300,201,21703,1,0,0:0:0:0:
287,226,21783,5,0,0:0:0:0:
268,246,21863,5,0,0:0:0:0:
243,258,21943,5,0,0:0:0:0:
215,263,22023,1,0,0:0:0:0:
187,258,22103,1,0,0:0:0:0:
162,246,22183,1,0,0:0:0:0:
142,226,22263,1,0,0:0:0:0:
142,226,22583,2,0,L|151:108,1,116.666666666667
154,74,23063,1,0,0:0:0:0:
154,74,23143,1,0,0:0:0:0:
154,74,23223,6,0,B|213:52|210:103|269:82,1,121.333327779134,4|0,0:0|0:0,0:0:0:0:
325,16,23703,2,0,P|355:69|343:125,1,121.333327779134,2|0,0:0|0:0,0:0:0:0:
267,166,24183,1,8,0:0:0:0:
234,244,24343,1,0,0:0:0:0:
267,323,24503,1,0,0:0:0:0:
345,355,24663,2,0,L|465:345,1,121.333327779134
333,270,25143,5,0,0:0:0:0:
267,323,25303,2,0,L|207:318,1,60.6666638895672
35,243,25623,2,0,B|79:239|79:239|107:254|107:254|151:250,1,121.333327779134,2|0,0:0|0:0,0:0:0:0:
216,195,26103,2,0,P|223:165|216:135,2,60.6666638895672,8|0|0,0:0|0:0|0:0,0:0:0:0:
152,81,26583,2,0,P|205:51|261:63,1,121.333327779134
273,80,26983,1,0,0:0:0:0:
285,97,27063,6,0,B|344:119|341:68|400:89,1,121.333327779134
453,156,27543,2,0,L|443:276,1,121.333327779134,2|0,0:0|0:0,0:0:0:0:
405,352,28023,1,8,0:0:0:0:
324,379,28183,1,0,0:0:0:0:
248,341,28343,1,0,0:0:0:0:
213,262,28503,2,0,B|169:254|169:254|140:267|140:267|96:260,1,121.333327779134
23,215,28983,5,0,0:0:0:0:
89,116,29143,2,0,L|98:175,1,60.6666638895672
194,381,29463,2,0,L|212:259,1,121.333327779134,2|0,0:0|0:0,0:0:0:0:
278,360,29943,2,0,L|287:301,2,60.6666638895672,8|0|0,0:0|0:0|0:0,0:0:0:0:
362,339,30423,1,0,0:0:0:0:
137,222,30743,1,0,0:0:0:0:
137,222,30823,1,0,0:0:0:0:
137,222,30903,6,0,B|78:200|81:251|22:230,1,121.333327779134
26,26,31383,2,0,L|43:147,1,121.333327779134,2|0,0:0|0:0,0:0:0:0:
67,314,31863,1,0,0:0:0:0:
447,69,32823,5,0,0:0:0:0:
447,69,33303,2,0,L|453:115,2,46.6666666666667
379,17,33783,2,0,P|334:12|292:33,2,93.3333333333333
264,111,34743,2,0,P|223:87|210:45,1,93.3333333333333
133,9,35223,2,0,L|85:13,2,46.6666666666667
142,92,35703,2,0,L|134:187,1,93.3333333333333
63,230,36183,2,0,B|131:204|128:263|196:239,1,140
445,198,37143,6,0,L|439:152,2,46.6666666666667
387,258,37623,2,0,P|374:301|387:346,2,93.3333333333333
438,151,38583,2,0,B|232:72|241:250|35:178,1,420
119,65,40343,2,0,L|123:88,2,23.3333333333333
27,223,41143,2,0,L|35:178,2,46.6666666666667
485,223,42263,5,0,0:0:0:0:
485,223,42343,1,0,0:0:0:0:
485,223,42423,2,0,P|502:279|485:338,1,121.333327779134
411,380,42903,2,0,L|289:368,1,121.333327779134
194,274,43383,2,0,L|315:286,1,121.333327779134,2|0,0:0|0:0,0:0:0:0:
400,294,43863,1,2,0:0:0:0:
362,119,44183,5,0,0:0:0:0:
359,105,44263,1,0,0:0:0:0:
355,90,44343,2,0,L|294:84,1,60.6666638895672
232,142,44663,1,0,0:0:0:0:
151,115,44823,2,0,P|134:59|151:0,1,121.333327779134
232,142,45303,1,2,0:0:0:0:
221,226,45463,1,0,0:0:0:0:
210,310,45623,1,0,0:0:0:0:
210,310,45783,2,0,B|150:287|153:338|94:317,1,121.333327779134,2|0,0:0|0:0,0:0:0:0:
79,301,46183,1,0,0:0:0:0:
65,284,46263,6,0,L|76:163,1,121.333327779134
121,91,46743,2,0,P|179:81|231:110,1,121.333327779134
284,176,47223,2,0,P|335:205|394:195,1,121.333327779134,2|0,0:0|0:0,0:0:0:0:
461,143,47703,2,0,L|447:22,1,121.333327779134,2|0,0:0|0:0,0:0:0:0:
428,32,48103,1,0,0:0:0:0:
409,41,48183,2,0,L|350:32,1,60.6666638895672
264,20,48503,1,0,0:0:0:0:
214,88,48663,2,0,P|204:146|233:198,1,121.333327779134
289,262,49143,5,2,0:0:0:0:
239,330,49303,1,0,0:0:0:0:
165,286,49463,1,0,0:0:0:0:
289,262,49623,2,0,L|410:271,1,121.333327779134,2|0,0:0|0:0,0:0:0:0:
416,250,50023,1,0,0:0:0:0:
422,229,50103,6,0,L|429:200,5,30.3333319447836
373,135,50583,1,0,0:0:0:0:
370,113,50663,1,0,0:0:0:0:
367,91,50743,1,0,0:0:0:0:
364,69,50823,1,0,0:0:0:0:
361,47,50903,1,0,0:0:0:0:
358,25,50983,1,0,0:0:0:0:
278,69,51063,6,0,L|245:72,5,30.3333319447836,2|0|0|0|0|0,0:0|0:0|0:0|0:0|0:0|0:0,0:0:0:0:
181,126,51543,1,2,0:0:0:0:
162,133,51623,1,0,0:0:0:0:
140,135,51703,1,0,0:0:0:0:
121,132,51783,1,0,0:0:0:0:
101,122,51863,1,0,0:0:0:0:
85,107,51943,1,0,0:0:0:0:
147,16,52023,6,0,L|144:46,5,30.3333319447836
256,176,52503,2,0,L|253:146,5,30.3333319447836
310,65,52983,1,2,0:0:0:0:
331,63,53063,1,0,0:0:0:0:
352,61,53143,1,0,0:0:0:0:
373,59,53223,1,0,0:0:0:0:
394,57,53303,1,0,0:0:0:0:
415,55,53383,1,0,0:0:0:0:
499,48,53463,6,0,L|502:78,5,30.3333319447836,2|0|0|0|0|0,0:0|0:0|0:0|0:0|0:0|0:0,0:0:0:0:
508,162,53943,1,0,0:0:0:0:
492,188,54023,1,0,0:0:0:0:
469,207,54103,1,0,0:0:0:0:
440,217,54183,1,0,0:0:0:0:
410,217,54263,1,0,0:0:0:0:
381,207,54343,1,0,0:0:0:0:
358,187,54423,5,0,0:0:0:0:
334,167,54503,1,0,0:0:0:0:
306,156,54583,1,0,0:0:0:0:
275,157,54663,1,0,0:0:0:0:
246,167,54743,1,0,0:0:0:0:
223,186,54823,1,0,0:0:0:0:
208,212,54903,5,2,0:0:0:0:
203,242,54983,1,0,0:0:0:0:
208,272,55063,1,0,0:0:0:0:
223,298,55143,1,0,0:0:0:0:
246,317,55223,1,0,0:0:0:0:
275,328,55303,1,0,0:0:0:0:
305,328,55383,5,2,0:0:0:0:
334,318,55463,1,0,0:0:0:0:
357,298,55543,1,0,0:0:0:0:
372,272,55623,1,0,0:0:0:0:
378,242,55703,1,0,0:0:0:0:
372,212,55783,1,0,0:0:0:0:
358,187,55863,5,0,0:0:0:0:
334,167,55943,1,0,0:0:0:0:
310,147,56023,1,0,0:0:0:0:
296,122,56103,1,0,0:0:0:0:
290,92,56183,1,0,0:0:0:0:
296,62,56263,1,0,0:0:0:0:
311,36,56343,5,0,0:0:0:0:
334,16,56423,1,0,0:0:0:0:
363,6,56503,1,0,0:0:0:0:
393,6,56583,1,0,0:0:0:0:
422,17,56663,1,0,0:0:0:0:
445,36,56743,1,0,0:0:0:0:
460,62,56823,1,2,0:0:0:0:
460,62,57143,6,0,L|446:212,1,151.666659723918
444,243,57623,2,0,L|441:275,2,30.3333319447836
