osu file format v14

[General]
AudioFilename: Credits Theme.mp3
AudioLeadIn: 0
PreviewTime: 31223
Countdown: 0
SampleSet: Soft
StackLeniency: 0.7
Mode: 0
LetterboxInBreaks: 1
WidescreenStoryboard: 0

[Editor]
DistanceSpacing: 1
BeatDivisor: 4
GridSize: 4
TimelineZoom: 1

[Metadata]
Title:Donkey Kong Rescued (Credits Roll)
TitleUnicode:Donkey Kong Rescued (Credits Roll)
Artist:David Wise
ArtistUnicode:David Wise
Creator:MoodyRPG
Version:Normal
Source:Donkey Kong Country 2: Diddy's Kong Quest
Tags:snes super nintendo rareware dkc2 gero famicom credits
BeatmapID:700980
BeatmapSetID:314073

[Difficulty]
HPDrainRate:5
CircleSize:3.5
OverallDifficulty:5
ApproachRate:5
SliderMultiplier:1.1
SliderTickRate:2

[Events]
//Background and Video events
0,0,"Parade.jpg",0,0
//Break Periods
2,62341,68671
//Storyboard Layer 0 (Background)
//Storyboard Layer 1 (Fail)
//Storyboard Layer 2 (Pass)
//Storyboard Layer 3 (Foreground)
//Storyboard Sound Samples

[TimingPoints]
305,483.097384305835,4,2,0,50,1,0
23735,-100,4,1,0,25,0,0
37020,-100,4,2,0,25,0,0
38952,-100,4,1,0,25,0,0
44749,-100,4,2,0,25,0,0
46923,-100,4,1,0,25,0,0
69871,-100,4,2,0,50,0,0
85571,-100,4,1,0,25,0,0
98856,-100,4,2,0,25,0,0
100789,-100,4,1,0,25,0,0
106586,-100,4,2,0,25,0,0
108760,-100,4,1,0,25,0,0

[Colours]
Combo1 : 137,84,58
Combo2 : 0,132,33
Combo3 : 0,255,64
Combo4 : 213,230,4

[HitObjects]
442,46,4169,5,4,0:3:0:0:
371,130,4652,2,0,P|330:111|261:115,1,110,2|0,0:0|0:0,0:0:0:0:
220,141,5377,2,0,P|169:155|101:129,1,110,2|0,0:0|0:0,0:0:0:0:
70,107,6102,2,0,P|21:153|23:269,2,165,4|4|0,0:3|0:3|0:0,0:0:0:0:
168,156,8034,6,0,P|170:221|103:299,2,165,4|4|2,0:3|0:3|0:0,0:0:0:0:
260,96,9966,2,0,P|310:118|384:103,1,110,4|2,0:3|0:0,0:0:0:0:
412,85,10691,2,0,P|467:136|457:226,1,165,4|2,0:3|0:0,0:0:0:0:
376,291,11899,6,0,B|326:293|306:331|306:331|258:319|221:357,2,165,4|4|2,0:3|0:3|0:0,0:0:0:0:
397,183,13831,2,0,P|320:122|111:198,1,330,4|2,0:3|0:0,0:0:0:0:
62,282,15764,5,4,0:3:0:0:
158,334,16247,1,0,0:0:0:0:
158,334,16488,1,4,3:0:0:0:
265,313,16971,2,0,L|306:357,2,55,0|2|0,0:0|0:0|0:0,0:0:0:0:
256,258,17696,2,0,B|236:210|261:177|290:141|253:99,1,165,4|4,0:3|0:3,0:0:0:0:
168,31,18904,1,0,0:0:0:0:
168,31,19145,1,2,0:0:0:0:
60,55,19628,6,0,P|42:106|54:164,1,110,4|2,0:3|0:0,0:0:0:0:
96,192,20353,2,0,P|105:244|80:306,1,110,4|0,0:3|0:0,0:0:0:0:
129,332,21078,1,2,0:0:0:0:
234,364,21561,2,0,P|317:367|382:318,1,165,4|4,0:3|0:3,0:0:0:0:
433,223,22769,1,0,0:0:0:0:
433,223,23010,1,2,0:0:0:0:
365,136,23493,6,0,L|378:72,2,55,0|0|4,0:0|0:0|0:3,0:0:0:0:
316,162,24218,2,0,P|264:174|203:145,1,110,8|0,0:0|0:0,0:0:0:0:
158,148,24942,2,0,P|107:126|46:141,1,110,8|0,0:0|0:0,0:0:0:0:
38,188,25667,6,0,L|25:253,1,55,0|4,0:0|0:3,0:0:0:0:
39,295,26150,2,0,P|88:319|155:306,1,110,8|0,0:0|0:0,0:0:0:0:
195,303,26875,2,0,P|247:295|311:321,1,110,8|0,0:0|0:0,0:0:0:0:
351,332,27600,6,0,L|418:329,2,55,0|4|8,0:0|0:3|0:0,0:0:0:0:
347,222,28566,1,0,0:0:0:0:
347,222,28807,2,0,P|353:167|399:124,1,110,8|0,0:0|0:0,0:0:0:0:
442,115,29532,1,0,0:0:0:0:
442,115,29773,2,0,L|456:48,1,55,4|8,0:3|0:0,0:0:0:0:
353,15,30498,1,0,0:0:0:0:
353,15,30740,1,8,0:0:0:0:
245,38,31223,6,0,P|202:28|131:49,1,110,2|0,0:0|0:0,0:0:0:0:
94,75,31947,2,0,P|70:130|91:230,1,165,8|8,0:0|0:0,0:0:0:0:
124,278,32914,2,0,P|148:294|174:303,1,55,0|2,0:0|0:0,0:0:0:0:
275,342,33638,1,8,0:0:0:0:
369,286,34121,2,0,L|430:294,2,55,2|0|8,0:0|0:0|0:0,0:0:0:0:
331,182,35088,6,2,P|254:177|204:110,1,165
215,56,36054,1,0,0:0:0:0:
321,30,36537,1,8,0:0:0:0:
413,89,37020,6,0,L|457:52,2,55,2|0|8,0:0|0:0|0:0,0:0:0:0:
426,198,37986,2,0,L|489:214,2,55,0|2|8,0:0|0:0|0:0,0:0:0:0:
384,299,38952,6,0,L|426:377,2,82.5,2|0|2,0:0|0:0|0:0,0:0:0:0:
350,255,39918,2,0,P|271:287|181:270,1,165
142,256,40885,2,0,P|96:253|51:276,2,82.5,2|0|2,0:0|0:0|0:0,0:0:0:0:
142,256,41851,1,0,0:0:0:0:
193,158,42334,1,8,0:0:0:0:
149,57,42817,6,2,P|253:28|368:59,1,220,2|0,0:0|0:0,0:0:0:0:
324,158,44266,1,8,0:0:0:0:
426,199,44749,6,0,L|489:206,2,55,2|0|8,0:0|0:0|0:0,0:0:0:0:
346,275,45716,2,0,L|374:337,2,55,0|2|8,0:0|0:0|0:0,0:0:0:0:
237,256,46682,5,0,0:0:0:0:
237,256,46923,2,0,L|214:198,1,55,0|4,0:0|0:3,0:0:0:0:
196,153,47406,2,0,P|147:178|86:168,1,110,8|0,0:0|0:0,0:0:0:0:
55,137,48131,2,0,P|3:205|19:289,1,165,8|0,0:0|0:0,0:0:0:0:
66,292,49097,2,0,L|83:357,1,55,0|4,0:0|0:3,0:0:0:0:
189,360,49822,1,0,0:0:0:0:
189,360,50064,1,8,0:0:0:0:
295,332,50547,6,0,L|396:334,2,82.5,0|0|8,0:0|0:0|0:0,0:0:0:0:
258,291,51513,2,0,P|291:229|436:218,1,220
479,115,52962,1,8,0:0:0:0:
342,21,53687,1,0,0:0:0:0:
342,21,53928,1,8,0:0:0:0:
260,94,54411,6,0,P|190:71|98:81,1,165,0|8,0:0|0:0,0:0:0:0:
69,185,55619,2,0,L|64:243,1,55,0|8,0:0|0:0,0:0:0:0:
155,302,56344,2,0,P|235:315|316:298,2,165,0|8|8,0:0|0:0|0:0,0:0:0:0:
190,198,58276,5,0,0:0:0:0:
278,131,58759,2,0,P|317:89|318:32,2,110,8|0|8,0:0|0:0|0:0,0:0:0:0:
256,192,60209,12,4,62141,0:0:0:0:
111,38,69871,6,0,P|36:56|8:137,2,165,4|4|2,0:3|0:3|0:0,0:0:0:0:
116,147,71803,2,0,P|143:208|125:305,2,165,4|4|2,0:3|0:3|0:0,0:0:0:0:
200,65,73735,6,0,B|257:125|257:125|314:61,1,165,4|4,0:3|0:3,0:0:0:0:
418,37,74943,1,0,0:0:0:0:
418,37,75185,1,2,0:0:0:0:
396,147,75668,2,0,P|369:208|387:305,2,165,4|4|2,0:3|0:3|0:0,0:0:0:0:
449,243,77600,6,0,P|373:223|286:242,1,165,4|4,0:3|0:3,0:0:0:0:
145,321,79049,1,2,0:0:0:0:
44,276,79532,2,0,P|28:198|44:111,1,165,4|4,0:3|0:3,0:0:0:0:
190,39,80982,1,2,0:0:0:0:
201,148,81465,6,0,B|174:226|174:226|203:314,2,165,4|4|2,0:3|0:3|0:0,0:0:0:0:
310,149,83397,2,0,B|337:227|337:227|308:315,2,165,4|4|2,0:3|0:3|0:0,0:0:0:0:
396,81,85330,5,0,0:0:0:0:
396,81,85571,2,0,L|469:94,1,55,0|4,0:0|0:3,0:0:0:0:
502,106,86054,2,0,P|513:160|490:222,1,110,8|0,0:0|0:0,0:0:0:0:
445,229,86779,2,0,P|427:283|443:338,1,110,8|0,0:0|0:0,0:0:0:0:
393,363,87504,6,0,L|329:358,1,55,0|4,0:0|0:3,0:0:0:0:
294,325,87987,2,0,P|237:311|173:330,1,110,8|0,0:0|0:0,0:0:0:0:
139,347,88711,2,0,P|84:341|32:308,1,110,8|0,0:0|0:0,0:0:0:0:
2,271,89436,5,0,0:0:0:0:
31,225,89678,2,0,L|17:160,1,55,4|8,0:3|0:0,0:0:0:0:
90,87,90402,2,0,L|106:146,1,55,0|8,0:0|0:0,0:0:0:0:
195,202,91127,2,0,P|262:216|345:155,1,165,0|8,0:0|0:0,0:0:0:0:
406,78,92335,1,0,0:0:0:0:
406,78,92576,1,8,0:0:0:0:
477,161,93059,6,0,P|485:213|465:277,1,110,2|0,0:0|0:0,0:0:0:0:
432,309,93784,2,0,P|376:339|267:320,1,165,8|8,0:0|0:0,0:0:0:0:
240,286,94750,2,0,P|231:255|230:225,1,55,0|2,0:0|0:0,0:0:0:0:
168,140,95475,1,8,0:0:0:0:
97,55,95958,2,0,L|112:-9,2,55,2|0|8,0:0|0:0|0:0,0:0:0:0:
48,153,96924,6,2,P|-3:207|25:305,1,165
55,322,97890,1,0,0:0:0:0:
119,232,98373,1,8,0:0:0:0:
203,302,98856,6,0,L|262:322,2,55,2|0|8,0:0|0:0|0:0,0:0:0:0:
200,191,99823,2,0,L|232:136,2,55,0|2|8,0:0|0:0|0:0,0:0:0:0:
131,276,100789,6,0,P|80:258|14:269,1,110,2|0,0:0|0:0,0:0:0:0:
12,211,101513,2,0,L|24:44,1,165,8|8,0:0|0:0,0:0:0:0:
75,26,102480,1,0,0:0:0:0:
125,47,102721,1,2,0:0:0:0:
225,90,103204,1,8,0:0:0:0:
322,40,103687,2,0,P|377:33|434:71,1,110,0|10,0:0|0:0,0:0:0:0:
468,90,104412,1,0,0:0:0:0:
459,144,104654,6,2,B|446:216|446:216|376:257|383:349,1,220,2|0,0:0|0:0,0:0:0:0:
275,364,106103,1,8,0:0:0:0:
175,317,106586,5,2,0:0:0:0:
175,317,106827,2,0,L|168:253,1,55,0|8,0:0|0:0,0:0:0:0:
59,235,107552,1,0,0:0:0:0:
59,235,107794,2,0,L|52:171,1,55,2|8,0:0|0:0,0:0:0:0:
155,136,108518,6,0,L|148:76,2,55,0|4|0,0:0|0:3|0:0,0:0:0:0:
200,166,109243,2,0,P|246:183|317:158,1,110,8|0,0:0|0:0,0:0:0:0:
351,141,109968,2,0,P|406:129|460:151,1,110,8|0,0:0|0:0,0:0:0:0:
497,112,110692,2,0,L|513:45,2,55,0|4|8,0:0|0:3|0:0,0:0:0:0:
510,221,111658,1,0,0:0:0:0:
510,221,111900,2,0,L|502:281,1,55,8|0,0:0|0:0,0:0:0:0:
468,318,112383,6,0,P|416:301|357:310,1,110
312,331,113108,1,8,0:0:0:0:
268,297,113349,2,0,L|238:240,1,55
205,207,113832,2,0,P|152:226|92:220,1,110,8|0,0:0|0:0,0:0:0:0:
60,182,114557,2,0,L|34:128,2,55,0|4|8,0:0|0:3|0:0,0:0:0:0:
139,105,115523,1,0,0:0:0:0:
139,105,115765,1,8,0:0:0:0:
244,136,116248,5,0,0:0:0:0:
244,136,116489,2,0,L|306:132,1,55,0|4,0:0|0:3,0:0:0:0:
324,83,116973,2,0,P|375:68|432:91,1,110,8|0,0:0|0:0,0:0:0:0:
455,133,117697,2,0,P|481:179|478:252,1,110,8|0,0:0|0:0,0:0:0:0:
453,281,118422,2,0,L|475:354,2,55,0|4|8,0:0|0:3|0:0,0:0:0:0:
353,234,119388,1,0,0:0:0:0:
353,234,119630,2,0,P|301:228|241:263,1,110,8|0,0:0|0:0,0:0:0:0:
159,315,120596,5,8,0:0:0:0:
62,262,121079,2,0,L|42:135,1,110,0|8,0:0|0:0,0:0:0:0:
256,192,122045,12,4,123977,0:0:0:0:
