osu file format v14

[General]
AudioFilename: Credits Theme.mp3
AudioLeadIn: 0
PreviewTime: 31223
Countdown: 0
SampleSet: Soft
StackLeniency: 0.7
Mode: 0
LetterboxInBreaks: 1
WidescreenStoryboard: 0

[Editor]
DistanceSpacing: 1
BeatDivisor: 4
GridSize: 4
TimelineZoom: 1

[Metadata]
Title:Donkey Kong Rescued (Credits Roll)
TitleUnicode:Donkey Kong Rescued (Credits Roll)
Artist:David Wise
ArtistUnicode:David Wise
Creator:MoodyRPG
Version:Hard
Source:Donkey Kong Country 2: Diddy's Kong Quest
Tags:snes super nintendo rareware dkc2 gero famicom credits
BeatmapID:700979
BeatmapSetID:314073

[Difficulty]
HPDrainRate:7
CircleSize:4
OverallDifficulty:7
ApproachRate:7
SliderMultiplier:1.6
SliderTickRate:2

[Events]
//Background and Video events
0,0,"Parade.jpg",0,0
//Break Periods
2,62341,68971
//Storyboard Layer 0 (Background)
//Storyboard Layer 1 (Fail)
//Storyboard Layer 2 (Pass)
//Storyboard Layer 3 (Foreground)
//Storyboard Sound Samples

[TimingPoints]
305,483.097384305835,4,2,0,50,1,0
23735,-100,4,1,0,25,0,0
37020,-100,4,2,0,25,0,0
38952,-100,4,1,0,25,0,0
44749,-100,4,2,0,25,0,0
46923,-100,4,1,0,25,0,0
69871,-100,4,2,0,50,0,0
85571,-100,4,1,0,25,0,0
98856,-100,4,2,0,25,0,0
100789,-100,4,1,0,25,0,0
106586,-100,4,2,0,25,0,0
108760,-100,4,1,0,25,0,0

[Colours]
Combo1 : 137,84,58
Combo2 : 0,132,33
Combo3 : 0,255,64
Combo4 : 213,230,4

[HitObjects]
56,26,4169,5,4,0:3:0:0:
30,101,4411,1,0,0:0:0:0:
109,90,4652,2,0,P|190:101|272:84,1,160,2|0,0:0|0:0,0:0:0:0:
290,162,5377,2,0,P|367:151|455:168,1,160,2|0,0:0|0:0,0:0:0:0:
435,244,6102,6,0,P|476:254|515:244,2,80,4|0|2,0:3|0:0|0:0,0:0:0:0:
402,318,6826,2,0,P|362:306|318:310,1,80,4|0,0:3|0:0,0:0:0:0:
324,308,7309,1,0,0:0:0:0:
293,233,7551,1,2,0:0:0:0:
214,248,7793,1,0,0:0:0:0:
185,325,8034,6,0,P|103:316|19:322,1,160,4|2,0:3|0:0,0:0:0:0:
14,241,8759,2,0,P|-3:164|11:77,1,160,4|0,0:3|0:0,0:0:0:0:
76,43,9483,1,2,0:0:0:0:
154,57,9725,1,0,0:0:0:0:
227,88,9966,6,0,P|335:118|456:80,2,240,4|4|2,0:3|0:3|0:0,0:0:0:0:
174,148,11657,1,0,0:0:0:0:
96,135,11899,6,0,P|80:213|107:292,1,160,4|2,0:3|0:0,0:0:0:0:
27,331,12623,2,0,P|101:304|195:322,1,160,4|0,0:3|0:0,0:0:0:0:
251,351,13348,2,0,L|347:339,1,80,2|0,0:0|0:0,0:0:0:0:
400,302,13831,6,0,B|348:255|288:57|399:-16|576:0|557:210|445:286|284:160|249:105,1,640,4|4,0:3|0:3,0:0:0:0:
186,41,16005,6,0,L|91:47,1,80,0|2,0:0|0:0,0:0:0:0:
61,116,16488,2,0,P|81:180|88:272,1,160,4|0,0:3|0:0,0:0:0:0:
13,321,17213,2,0,P|90:293|178:323,1,160,2|4,0:0|0:3,0:0:0:0:
233,350,17938,5,0,0:0:0:0:
312,340,18179,1,2,0:0:0:0:
370,285,18421,2,0,P|409:215|398:115,1,160,4|0,0:3|0:0,0:0:0:0:
482,112,19145,2,0,P|421:134|328:129,1,160,2|4,0:0|0:3,0:0:0:0:
281,62,19870,6,0,P|243:55|192:66,2,80,0|2|4,0:0|0:0|0:3,0:0:0:0:
173,180,20836,1,0,0:0:0:0:
173,180,21078,2,0,P|133:189|95:181,1,80,2|0,0:0|0:0,0:0:0:0:
40,239,21561,6,0,P|171:263|260:200,2,240,4|4|2,0:3|0:3|0:0,0:0:0:0:
101,91,23493,5,4,0:3:0:0:
169,48,23735,2,0,P|209:43|263:63,1,80,0|4,0:0|0:3,0:0:0:0:
295,117,24218,2,0,P|366:123|459:115,1,160,8|0,0:0|0:0,0:0:0:0:
472,38,24942,2,0,P|488:115|466:205,1,160,8|0,0:0|0:0,0:0:0:0:
404,238,25667,6,0,P|395:276|406:326,1,80,0|4,0:0|0:3,0:0:0:0:
473,350,26150,2,0,P|403:316|308:334,1,160,8|0,0:0|0:0,0:0:0:0:
250,358,26875,2,0,P|169:380|76:356,1,160,8|0,0:0|0:0,0:0:0:0:
71,289,27600,6,0,P|34:277|-9:277,2,80,0|4|8,0:0|0:3|0:0,0:0:0:0:
40,132,28566,1,0,0:0:0:0:
40,132,28807,2,0,P|106:113|207:134,1,160,8|0,0:0|0:0,0:0:0:0:
252,72,29532,5,0,0:0:0:0:
330,88,29773,1,4,0:3:0:0:
394,144,30015,2,0,P|414:197|407:304,1,160,8|0,0:0|0:0,0:0:0:0:
347,350,30740,1,8,0:0:0:0:
191,313,31223,6,0,L|111:328,2,80,2|4|0,0:0|0:3|0:0,0:0:0:0:
221,239,31947,2,0,P|215:163|141:110,1,160,8|0,0:0|0:0,0:0:0:0:
187,40,32672,2,0,P|227:51|277:50,1,80,8|0,0:0|0:0,0:0:0:0:
277,50,33034,1,0,0:0:0:0:
288,47,33155,1,2,0:0:0:0:
333,113,33397,5,0,0:0:0:0:
333,113,33517,2,0,L|346:254,1,120,0|2,0:0|0:0,0:0:0:0:
418,261,34121,2,0,L|431:384,2,120,0|2|0,0:0|0:0|0:0,0:0:0:0:
449,186,35088,6,2,P|459:96|332:53,1,240
316,67,35893,2,0,L|288:85,2,26.6666666666667
233,206,36537,1,8,0:0:0:0:
166,162,36778,1,0,0:0:0:0:
128,93,37020,6,0,P|86:94|40:116,1,80,2|2,0:0|0:0,0:0:0:0:
29,185,37503,2,0,P|24:224|38:263,1,80,8|0,0:0|0:0,0:0:0:0:
91,321,37986,2,0,P|131:320|175:298,1,80,0|0,0:0|0:0,0:0:0:0:
190,227,38469,2,0,P|193:186|177:148,1,80,8|2,0:0|0:0,0:0:0:0:
241,100,38952,6,0,L|401:87,1,160,2|0,0:0|0:0,0:0:0:0:
463,136,39677,1,8,0:0:0:0:
437,207,39918,2,0,P|325:231|288:355,1,240,0|0,0:0|0:0,0:0:0:0:
284,339,40764,1,0,0:0:0:0:
284,339,40885,1,2,0:0:0:0:
209,365,41126,5,0,0:0:0:0:
209,365,41247,2,0,P|154:348|84:358,1,120,0|2,0:0|0:0,0:0:0:0:
34,299,41851,2,0,P|19:217|52:122,1,160,0|10,0:0|0:0,0:0:0:0:
75,73,42576,1,0,0:0:0:0:
121,138,42817,6,2,B|189:121|257:208|257:208|320:125|391:139,1,320,2|0,0:0|0:0,0:0:0:0:
443,194,44025,1,0,0:0:0:0:
476,266,44266,1,8,0:0:0:0:
430,331,44508,1,0,0:0:0:0:
351,314,44749,6,0,P|311:308|264:321,1,80,2|2,0:0|0:0,0:0:0:0:
209,267,45233,2,0,P|215:227|204:187,1,80,8|0,0:0|0:0,0:0:0:0:
263,134,45716,2,0,P|302:138|350:127,1,80
402,182,46199,2,0,P|392:220|398:259,1,80,8|2,0:0|0:0,0:0:0:0:
471,226,46682,5,0,0:0:0:0:
507,154,46923,2,0,P|513:107|502:70,1,80,0|4,0:0|0:3,0:0:0:0:
426,57,47406,2,0,B|338:57|338:57|275:117|192:62,1,240,8|8,0:0|0:0,0:0:0:0:
122,41,48373,2,0,L|49:35,2,40,0|0|0,0:0|0:0|0:0,0:0:0:0:
145,117,48856,5,0,0:0:0:0:
99,182,49097,1,4,0:3:0:0:
31,223,49339,2,0,P|7:298|32:380,1,160,8|0,0:0|0:0,0:0:0:0:
99,338,50064,2,0,B|134:307|173:332|218:358|258:329,1,160,8|0,0:0|0:0,0:0:0:0:
318,288,50788,6,0,L|301:237,2,40,0|0|4,0:0|0:0|0:3,0:0:0:0:
398,290,51271,2,0,P|440:285|472:260,1,80,8|0,0:0|0:0,0:0:0:0:
408,210,51754,1,0,0:0:0:0:
417,131,51996,2,0,P|377:135|345:157,1,80,8|0,0:0|0:0,0:0:0:0:
274,193,52479,6,0,B|205:175|149:214|149:214|90:215|38:175,1,240,0|8,0:0|0:0,0:0:0:0:
128,29,53687,1,0,0:0:0:0:
49,45,53928,2,0,P|25:80|19:126,1,80,8|0,0:0|0:0,0:0:0:0:
79,168,54411,6,0,P|96:205|84:258,1,80,0|4,0:0|0:3,0:0:0:0:
36,302,54895,1,4,0:3:0:0:
98,352,55136,2,0,B|155:320|155:320|225:368|324:357,1,240,8|8,0:0|0:0,0:0:0:0:
395,322,56102,2,0,L|456:327,2,40,0|0|0,0:0|0:0|0:0,0:0:0:0:
342,261,56585,5,0,0:0:0:0:
322,183,56827,1,4,0:3:0:0:
385,134,57068,2,0,P|311:168|211:142,1,160,8|0,0:0|0:0,0:0:0:0:
199,84,57793,2,0,P|129:71|39:116,1,160,8|0,0:0|0:0,0:0:0:0:
33,183,58518,6,0,L|0:205,2,40,0|0|4,0:0|0:0|0:3,0:0:0:0:
93,235,59001,1,8,0:0:0:0:
93,235,59242,2,0,P|127:259|174:260,1,80
303,184,59725,2,0,P|271:160|232:157,1,80,8|0,0:0|0:0,0:0:0:0:
256,192,60209,12,4,62141,0:0:0:0:
211,174,69871,6,0,P|201:95|214:17,1,160,4|2,0:3|0:0,0:0:0:0:
297,16,70595,2,0,P|310:94|301:174,1,160,4|0,0:3|0:0,0:0:0:0:
256,240,71320,2,0,L|256:337,1,80,2|0,0:0|0:0,0:0:0:0:
194,371,71803,6,0,B|133:343|121:290|119:282|117:273|102:212|44:193,2,240,4|4|0,0:3|0:3|0:0,0:0:0:0:
467,193,73735,6,0,B|409:212|394:273|392:282|390:290|378:343|318:371,1,240,4|4,0:3|0:3,0:0:0:0:
256,224,74943,1,0,0:0:0:0:
220,152,75185,2,0,P|256:137|292:152,1,80,2|0,0:0|0:0,0:0:0:0:
360,106,75668,6,0,P|256:55|152:106,1,240,4|4,0:3|0:3,0:0:0:0:
27,206,76875,2,0,L|61:298,1,80,0|2,0:0|0:0,0:0:0:0:
121,236,77359,1,0,0:0:0:0:
152,309,77600,6,0,P|255:360|359:308,1,240,4|4,0:3|0:3,0:0:0:0:
387,151,78808,1,0,0:0:0:0:
460,182,79049,2,0,L|473:267,1,80,2|0,0:0|0:0,0:0:0:0:
387,151,79532,6,0,L|374:61,1,80,4|0,0:3|0:0,0:0:0:0:
312,21,80016,1,2,0:0:0:0:
250,68,80257,2,0,P|195:85|85:79,1,160,4|0,0:3|0:0,0:0:0:0:
98,161,80982,2,0,P|182:167|273:141,1,160,2|4,0:0|0:3,0:0:0:0:
325,185,81706,5,0,0:0:0:0:
365,253,81948,1,2,0:0:0:0:
327,323,82190,2,0,L|156:336,1,160,4|0,0:3|0:0,0:0:0:0:
91,311,82914,2,0,B|53:268|67:208|67:208|58:153,1,160,2|4,0:0|0:3,0:0:0:0:
118,105,83639,6,0,P|161:100|205:74,1,80,0|2,0:0|0:0,0:0:0:0:
246,23,84122,2,0,P|223:93|249:187,1,160,4|0,0:3|0:0,0:0:0:0:
296,233,84847,1,2,0:0:0:0:
369,195,85088,1,0,0:0:0:0:
440,230,85330,6,0,L|450:317,2,80,0|0|4,0:0|0:0|0:3,0:0:0:0:
368,194,86054,2,0,P|303:218|206:224,1,160,8|0,0:0|0:0,0:0:0:0:
148,272,86779,2,0,P|108:263|64:272,1,80,8|0,0:0|0:0,0:0:0:0:
4,224,87262,5,0,0:0:0:0:
58,165,87504,2,0,P|67:118|54:76,1,80,0|4,0:0|0:3,0:0:0:0:
125,41,87987,2,0,P|186:51|298:46,1,160,8|0,0:0|0:0,0:0:0:0:
360,24,88711,1,8,0:0:0:0:
436,49,88953,1,0,0:0:0:0:
462,126,89194,6,0,L|493:210,2,80,0|0|4,0:0|0:0|0:3,0:0:0:0:
393,166,89919,2,0,L|455:325,1,160,8|0,0:0|0:0,0:0:0:0:
384,359,90644,1,8,0:0:0:0:
305,342,90885,1,0,0:0:0:0:
226,324,91127,6,0,P|186:331|143:320,2,80,0|0|4,0:0|0:0|0:3,0:0:0:0:
187,253,91851,2,0,P|122:246|68:320,1,160,8|0,0:0|0:0,0:0:0:0:
9,251,92576,2,0,P|6:204|10:162,1,80,8|0,0:0|0:0,0:0:0:0:
79,133,93059,6,0,B|164:125|164:125|215:55,1,160,2|0,0:0|0:0,0:0:0:0:
288,67,93784,2,0,B|332:128|332:128|417:136,1,160,8|0,0:0|0:0,0:0:0:0:
479,184,94508,1,8,0:0:0:0:
441,254,94750,1,0,0:0:0:0:
427,262,94871,1,0,0:0:0:0:
413,271,94992,6,0,P|373:295|281:294,1,120,2|0,0:0|0:0,0:0:0:0:
197,348,95716,1,0,0:0:0:0:
121,321,95958,2,0,L|66:212,2,120,2|0|0,0:0|0:0|0:0,0:0:0:0:
185,273,96924,6,2,B|249:257|265:186|285:101|356:101,1,240,2|2,0:0|0:0,0:0:0:0:
368,103,97729,2,0,L|406:103,2,26.6666666666667
222,35,98373,1,8,0:0:0:0:
146,61,98615,1,0,0:0:0:0:
146,61,98856,6,0,P|110:89|65:97,1,80,2|2,0:0|0:0,0:0:0:0:
179,144,99339,2,0,P|170:183|135:220,1,80,8|0,0:0|0:0,0:0:0:0:
260,187,99823,2,0,P|261:227|278:274,1,80
348,170,100306,2,0,P|366:206|412:228,1,80,8|2,0:0|0:0,0:0:0:0:
470,188,100789,6,0,P|502:140|481:60,2,120,2|0|2,0:0|0:0|0:0,0:0:0:0:
424,121,101755,2,0,P|308:93|203:158,1,240
208,150,102600,1,0,0:0:0:0:
208,150,102721,1,2,0:0:0:0:
141,194,102963,5,0,0:0:0:0:
141,194,103083,2,0,L|168:315,1,120,0|2,0:0|0:0,0:0:0:0:
230,360,103687,2,0,B|285:375|285:375|325:340|391:356,1,160,0|10,0:0|0:0,0:0:0:0:
460,370,104412,1,0,0:0:0:0:
473,291,104654,6,2,B|520:265|509:182|434:182|434:182|363:182|328:122|356:67,1,320,2|0,0:0|0:0,0:0:0:0:
430,96,105861,1,0,0:0:0:0:
306,10,106103,1,8,0:0:0:0:
268,152,106344,1,0,0:0:0:0:
218,90,106586,6,0,P|178:107|132:105,1,80,2|2,0:0|0:0,0:0:0:0:
294,294,107069,2,0,P|334:277|380:279,1,80,8|0,0:0|0:0,0:0:0:0:
220,219,107552,2,0,P|193:252|183:292,1,80
292,165,108035,2,0,P|319:132|329:92,1,80,8|2,0:0|0:0,0:0:0:0:
407,83,108518,5,0,0:0:0:0:
451,149,108760,2,0,P|424:182|414:222,1,80,0|4,0:0|0:3,0:0:0:0:
388,293,109243,2,0,B|345:309|323:337|323:337|241:337,1,160,8|0,0:0|0:0,0:0:0:0:
167,364,109968,1,8,0:0:0:0:
110,307,110209,2,0,L|57:311,2,40
167,250,110692,5,0,0:0:0:0:
185,171,110934,1,4,0:3:0:0:
131,111,111175,2,0,P|180:149|289:126,1,160,8|0,0:0|0:0,0:0:0:0:
349,113,111900,2,0,P|411:99|496:171,1,160,8|0,0:0|0:0,0:0:0:0:
472,228,112625,6,0,L|500:258,2,40,0|0|4,0:0|0:0|0:3,0:0:0:0:
404,271,113108,2,0,P|366:277|324:305,1,80,8|0,0:0|0:0,0:0:0:0:
181,298,113591,2,0,P|147:277|108:271,2,80,0|8|0,0:0|0:0|0:0,0:0:0:0:
255,327,114315,5,0,0:0:0:0:
256,246,114557,2,0,L|256:162,1,80,0|4,0:0|0:3,0:0:0:0:
323,123,115040,2,0,P|257:156|184:120,1,160,8|0,0:0|0:0,0:0:0:0:
177,40,115765,2,0,L|346:40,1,160,8|0,0:0|0:0,0:0:0:0:
416,32,116489,5,0,0:0:0:0:
460,98,116731,1,4,0:3:0:0:
428,171,116973,2,0,P|438:263|396:328,1,160,8|0,0:0|0:0,0:0:0:0:
331,290,117697,2,0,P|286:288|244:302,1,80,8|0,0:0|0:0,0:0:0:0:
238,304,118059,1,0,0:0:0:0:
223,310,118180,6,0,P|186:324|147:322,1,80,0|4,0:0|0:3,0:0:0:0:
87,267,118663,1,0,0:0:0:0:
87,267,118905,2,0,L|61:101,1,160,8|0,0:0|0:0,0:0:0:0:
141,94,119630,2,0,L|168:258,1,160,8|0,0:0|0:0,0:0:0:0:
238,286,120354,6,0,L|234:336,2,40,0|0|4,0:0|0:0|0:3,0:0:0:0:
309,250,120837,1,8,0:0:0:0:
309,250,121079,2,0,P|319:208|311:167,1,80
364,37,121562,2,0,P|359:76|369:115,1,80,8|0,0:0|0:0,0:0:0:0:
256,192,122045,12,4,123977,0:0:0:0:
