osu file format v14

[General]
AudioFilename: audio.mp3
AudioLeadIn: 0
PreviewTime: 19620
Countdown: 0
SampleSet: Drum
StackLeniency: 0.7
Mode: 0
LetterboxInBreaks: 0
WidescreenStoryboard: 0

[Editor]
DistanceSpacing: 1.1
BeatDivisor: 4
GridSize: 4
TimelineZoom: 1

[Metadata]
Title:Bad Boss Boogie
TitleUnicode:Bad Boss Boogie
Artist:David Wise
ArtistUnicode:David Wise
Creator:DaxMasterix
Version:Normal
Source:Donkey Kong Country
Tags:BGM MoodyRPG Krisom SNES Super Nintendo Entertainment System Famicom スーパーファミコン SFC Rareware Videogame Video Game Instrumental VGM スーパードンキーコング theme Dumb Drum Really Very Gnawty Queen B. Master Necky Snr. Eveline Fischer Robin Beanland
BeatmapID:2276249
BeatmapSetID:1088647

[Difficulty]
HPDrainRate:4
CircleSize:3
OverallDifficulty:5
ApproachRate:5
SliderMultiplier:1.2
SliderTickRate:1

[Events]
//Background and Video events
0,0,"BG.jpg",0,0
//Break Periods
//Storyboard Layer 0 (Background)
//Storyboard Layer 1 (Fail)
//Storyboard Layer 2 (Pass)
//Storyboard Layer 3 (Foreground)
//Storyboard Layer 4 (Overlay)
//Storyboard Sound Samples

[TimingPoints]
20,400,4,3,1,50,1,0
820,400,4,3,1,50,1,0
6620,400,4,3,1,50,1,0
12420,400,4,3,1,50,1,0
18220,400,4,3,1,50,1,0
19620,400,4,3,1,50,1,0
25420,400,4,3,1,50,1,0
31220,400,4,3,1,50,1,0
37020,400,4,3,1,50,1,0
38420,400,4,3,1,50,1,0
39820,400,4,3,1,50,1,0
45620,400,4,3,1,50,1,0
51420,400,4,3,1,50,1,0
57220,400,4,3,1,50,1,0
63020,400,4,3,1,50,1,0
73420,-100,4,3,1,45,0,0
73820,-100,4,3,1,40,0,0
74020,-100,4,3,1,35,0,0
74220,-100,4,3,1,30,0,0
74420,-100,4,3,1,25,0,0
74620,-100,4,3,1,20,0,0
74820,-100,4,3,1,15,0,0
75020,-100,4,3,1,10,0,0
75220,-100,4,3,2,80,0,0

[Colours]
Combo1 : 240,160,20
Combo2 : 170,170,0
SliderTrackOverride : 100,100,100
SliderBorder : 192,192,192

[HitObjects]
134,260,820,6,0,P|187:236|304:253,2,180,8|8|0,0:0|0:0|0:0,0:0:0:0:
126,62,2620,1,8,0:0:0:0:
252,214,3220,1,8,0:0:0:0:
349,125,3620,1,8,0:0:0:0:
474,166,4020,6,0,P|498:219|476:336,2,180,8|8|0,0:0|0:0|0:0,0:0:0:0:
301,263,5820,1,8,0:0:0:0:
227,79,6420,1,8,0:0:0:0:
227,79,6620,6,0,P|129:113|57:97,2,180,8|8|0,0:0|0:0|0:0,0:0:0:0:
171,269,8420,1,8,0:0:0:0:
363,220,9020,1,8,0:0:0:0:
486,173,9420,1,8,0:0:0:0:
466,42,9820,6,0,P|368:9|294:26,2,180,8|8|0,0:0|0:0|0:0,0:0:0:0:
454,239,11620,1,8,0:0:0:0:
258,210,12220,1,8,0:0:0:0:
258,210,12420,6,0,P|197:294|128:319,2,180,8|8|0,0:0|0:0|0:0,0:0:0:0:
70,146,14220,1,8,0:0:0:0:
176,313,14820,1,8,0:0:0:0:
258,210,15220,1,8,0:0:0:0:
296,336,15620,6,0,P|394:369|490:344,2,180,8|8|0,0:0|0:0|0:0,0:0:0:0:
444,204,17420,1,8,0:0:0:0:
246,210,18020,1,8,0:0:0:0:
246,210,18220,6,0,B|183:207|183:207|147:257|70:288,2,180,8|8|8,0:0|0:0|0:0,0:0:0:0:
256,275,19620,6,0,P|316:238|347:199,1,120,8|0,0:0|0:0,0:0:0:0:
365,136,20220,2,0,P|417:164|454:211,2,120,8|0|0,0:0|0:0|0:0,0:0:0:0:
263,52,21420,1,8,0:0:0:0:
176,151,21820,1,0,0:0:0:0:
176,151,22020,2,0,P|134:207|92:233,1,120,8|8,0:0|0:0,0:0:0:0:
54,106,22820,6,0,P|92:60|144:30,1,120,8|0,0:0|0:0,0:0:0:0:
210,30,23420,2,0,P|261:60|300:105,2,120,8|0|0,0:0|0:0|0:0,0:0:0:0:
176,157,24620,1,8,0:0:0:0:
142,284,25020,2,0,P|152:311|170:337,1,60,0|8,0:0|0:3,0:0:0:0:
214,288,25420,6,0,B|263:256|263:256|286:197,1,120,8|0,0:0|0:0,0:0:0:0:
286,132,26020,2,0,B|263:74|263:74|214:42,2,120,8|0|0,0:0|0:0|0:0,0:0:0:0:
359,22,27220,1,8,0:0:0:0:
378,153,27620,1,0,0:0:0:0:
378,153,27820,2,0,B|428:180|428:180|472:242,1,120,8|8,0:0|0:0,0:0:0:0:
347,293,28620,6,0,B|288:330|288:330|239:342,1,120,8|0,0:0|0:0,0:0:0:0:
173,342,29220,2,0,B|124:330|124:330|65:293,2,120,8|0|0,0:0|0:0|0:0,0:0:0:0:
159,210,30420,1,8,0:0:0:0:
146,79,30820,2,0,P|158:54|178:26,1,60,0|8,0:0|0:0,0:0:0:0:
219,78,31220,6,0,P|288:93|344:128,1,120,8|0,0:0|0:0,0:0:0:0:
330,183,31820,2,0,P|277:211|218:222,2,120,8|0|0,0:0|0:0|0:0,0:0:0:0:
454,136,33020,1,8,0:0:0:0:
435,267,33420,1,0,0:0:0:0:
435,267,33620,2,0,P|366:281|310:318,1,120,8|8,0:0|0:0,0:0:0:0:
194,328,34420,6,0,P|134:291|86:279,1,120,8|0,0:0|0:0,0:0:0:0:
85,213,35020,2,0,P|142:197|192:164,2,120,8|0|0,0:0|0:0|0:0,0:0:0:0:
65,82,36220,1,8,0:0:0:0:
186,30,36620,2,0,L|239:58,1,60,0|8,0:0|0:0,0:0:0:0:
299,31,37020,6,0,P|338:77|372:217,1,180,8|8,0:0|0:0,0:0:0:0:
181,241,38220,1,8,0:0:0:0:
140,189,38420,2,0,P|160:102|214:31,2,180,8|8|8,0:0|0:0|0:0,0:0:0:0:
181,241,39820,5,8,0:0:0:0:
316,96,40420,1,8,0:0:0:0:
386,281,41020,2,0,L|403:344,1,60
270,354,41620,1,8,0:0:0:0:
77,308,42220,1,8,0:0:0:0:
192,243,42620,1,8,0:0:0:0:
76,179,43020,5,8,0:0:0:0:
173,351,43620,1,8,0:0:0:0:
273,180,44220,2,0,L|324:133,1,60
386,252,44820,1,8,0:0:0:0:
380,54,45420,1,8,0:0:0:0:
380,54,45620,5,8,0:0:0:0:
386,252,46220,1,8,0:0:0:0:
215,151,46820,2,0,L|158:189,1,60
255,281,47420,1,8,0:0:0:0:
374,122,48020,1,8,0:0:0:0:
384,254,48420,1,8,0:0:0:0:
255,281,48820,5,8,0:0:0:0:
70,353,49420,1,8,0:0:0:0:
96,156,50020,2,0,L|86:84,1,60
220,100,50620,1,8,0:0:0:0:
413,143,51220,1,8,0:0:0:0:
478,130,51420,6,0,P|483:191|463:245,1,120,8|0,0:0|0:0,0:2:0:0:
397,245,52020,2,0,P|327:239|263:262,2,120,8|0|0,0:0|0:0|0:2,0:2:0:0:
313,347,53220,2,0,P|247:369|188:368,1,120,8|0,0:0|0:0,0:2:0:0:
142,333,53820,2,0,P|119:267|126:198,1,120,8|8,0:0|0:0,0:2:0:0:
154,90,54620,5,2,0:0:0:0:
256,259,55220,1,2,0:0:0:0:
341,80,55820,2,0,L|394:40,1,60
447,162,56420,1,2,0:0:0:0:
256,217,57020,1,2,0:0:0:0:
211,265,57220,6,0,P|146:295|81:289,1,120,2|0,0:0|0:0,0:2:0:0:
78,231,57820,2,0,P|83:161|54:100,2,120,2|0|0,0:0|0:0|0:0,0:2:0:0:
199,285,59020,2,0,P|263:254|327:261,1,120,2|0,0:0|0:0,0:2:0:0:
366,292,59620,2,0,P|430:322|492:315,1,120,2|2,0:0|0:0,0:2:0:0:
468,188,60420,5,2,0:0:0:0:
323,54,61020,1,2,0:0:0:0:
284,248,61620,2,0,L|287:309,1,60
156,325,62220,1,2,0:0:0:0:
68,147,62820,1,2,0:0:0:0:
125,114,63020,6,0,L|190:95,2,60,14|0|0,0:0|0:0|0:0,0:0:0:0:
125,180,63620,2,0,L|190:199,2,60,14|0|0,0:0|0:0|0:0,0:0:0:0:
68,147,64220,1,0,0:0:0:0:
68,147,64420,1,0,0:0:0:0:
68,279,64820,6,0,P|128:308|202:307,1,120,8|0,0:0|0:0,0:0:0:0:
243,289,65420,1,12,0:0:0:0:
298,169,65820,1,12,0:0:0:0:
400,253,66220,6,0,L|384:316,2,60,12|0|0,0:0|0:0|0:0,0:0:0:0:
466,255,66820,2,0,L|482:318,2,60,12|0|0,0:0|0:0|0:0,0:0:0:0:
434,197,67420,1,0,0:0:0:0:
434,197,67620,1,0,0:0:0:0:
302,192,68020,5,12,0:0:0:0:
142,75,68620,2,0,L|103:135,1,60,12|0,0:0|0:0,0:0:0:0:
142,183,69020,2,0,L|103:243,1,60,12|0,0:0|0:0,0:0:0:0:
142,291,69420,5,4,0:1:0:0:
256,192,69620,12,0,75220,0:0:0:0:
