osu file format v14

[General]
AudioFilename: audio.mp3
AudioLeadIn: 0
PreviewTime: 19620
Countdown: 0
SampleSet: Drum
StackLeniency: 0.7
Mode: 0
LetterboxInBreaks: 0
WidescreenStoryboard: 0

[Editor]
DistanceSpacing: 1
BeatDivisor: 4
GridSize: 4
TimelineZoom: 1

[Metadata]
Title:Bad Boss Boogie
TitleUnicode:Bad Boss Boogie
Artist:David Wise
ArtistUnicode:David Wise
Creator:DaxMasterix
Version:Moody's Easy
Source:Donkey Kong Country
Tags:BGM MoodyRPG Krisom SNES Super Nintendo Entertainment System Famicom スーパーファミコン SFC Rareware Videogame Video Game Instrumental VGM スーパードンキーコング theme Dumb Drum Really Very Gnawty Queen B. Master Necky Snr. Eveline Fischer Robin Beanland
BeatmapID:2276248
BeatmapSetID:1088647

[Difficulty]
HPDrainRate:3
CircleSize:2.5
OverallDifficulty:3
ApproachRate:3
SliderMultiplier:0.9
SliderTickRate:1

[Events]
//Background and Video events
0,0,"BG.jpg",0,0
//Break Periods
//Storyboard Layer 0 (Background)
//Storyboard Layer 1 (Fail)
//Storyboard Layer 2 (Pass)
//Storyboard Layer 3 (Foreground)
//Storyboard Layer 4 (Overlay)
//Storyboard Sound Samples

[TimingPoints]
20,400,4,3,1,50,1,0
820,400,4,3,1,50,1,0
6620,400,4,3,1,50,1,0
12420,400,4,3,1,50,1,0
18220,400,4,3,1,50,1,0
19620,400,4,3,1,50,1,0
25420,400,4,3,1,50,1,0
31220,400,4,3,1,50,1,0
37020,400,4,3,1,50,1,0
38420,400,4,3,1,50,1,0
39820,400,4,3,1,50,1,0
45620,400,4,3,1,50,1,0
51420,400,4,3,1,50,1,0
57220,400,4,3,1,50,1,0
63020,400,4,3,1,50,1,0
73420,-100,4,3,1,45,0,0
73820,-100,4,3,1,40,0,0
74020,-100,4,3,1,35,0,0
74220,-100,4,3,1,30,0,0
74420,-100,4,3,1,25,0,0
74620,-100,4,3,1,20,0,0
74820,-100,4,3,1,15,0,0
75020,-100,4,3,1,10,0,0
75220,-100,4,3,2,80,0,0

[Colours]
Combo1 : 240,160,20
Combo2 : 170,170,0
SliderTrackOverride : 100,100,100
SliderBorder : 192,192,192

[HitObjects]
181,231,820,6,0,B|178:264|178:264|170:315|131:358,2,135,8|8|0,0:0|0:0|0:0,0:0:0:0:
238,109,2620,1,8,0:0:0:0:
299,229,3220,2,0,L|395:226,1,90,8|8,0:0|0:0,0:0:0:0:
479,222,4020,6,0,P|495:160|453:93,2,135,8|8|0,0:0|0:0|0:0,0:0:0:0:
419,343,5820,1,8,0:0:0:0:
271,239,6620,6,0,L|121:249,2,135,8|8|0,0:0|0:0|0:0,0:0:0:0:
384,165,8420,1,8,0:0:0:0:
268,96,9020,2,0,L|218:8,1,90,8|8,0:0|0:0,0:0:0:0:
134,28,9820,6,0,B|100:90|100:90|24:108,2,135,8|8|0,0:0|0:0|0:0,0:0:0:0:
269,21,11620,1,8,0:0:0:0:
201,188,12420,6,0,B|191:229|191:229|214:274|198:336,2,135,8|8|0,0:0|0:0|0:0,0:0:0:0:
291,88,14220,1,8,0:0:0:0:
328,217,14820,2,0,L|419:213,1,90,8|8,0:0|0:0,0:0:0:0:
489,158,15620,6,0,P|474:103|491:25,2,135,8|8|0,0:0|0:0|0:0,0:0:0:0:
469,291,17420,1,8,0:0:0:0:
290,264,18220,6,0,L|157:291,1,135,8|8,0:0|0:0,0:0:0:0:
52,144,19620,5,8,0:0:0:0:
167,74,20220,2,0,P|221:37|286:48,1,135,8|0,0:0|0:0,0:0:0:0:
402,117,21420,1,8,0:0:0:0:
377,247,22020,2,0,L|353:346,1,90,8|8,0:0|0:0,0:0:0:0:
267,350,22820,5,8,0:0:0:0:
147,287,23420,2,0,P|152:221|184:159,1,135,8|0,0:0|0:0,0:0:0:0:
94,58,24620,1,8,0:0:0:0:
192,208,25420,5,8,0:0:0:0:
60,239,26020,2,0,L|90:383,1,135,8|0,0:0|0:0,0:0:0:0:
222,379,27220,1,8,0:0:0:0:
218,244,27820,2,0,P|204:204|208:145,1,90,8|8,0:0|0:0,0:0:0:0:
250,79,28620,5,8,0:0:0:0:
369,142,29220,2,0,B|451:112|451:112|495:129,1,135,8|0,0:0|0:0,0:0:0:0:
479,263,30420,1,8,0:0:0:0:
299,281,31220,6,0,B|277:246|277:246|270:150,1,135,8|8,0:0|0:0,0:0:0:0:
94,112,32620,1,0,0:0:0:0:
36,43,33020,1,8,0:0:0:0:
168,18,33620,2,0,L|266:24,1,90,8|8,0:0|0:0,0:0:0:0:
348,25,34420,5,8,0:0:0:0:
459,101,35020,2,0,B|449:154|449:154|440:196|402:233,1,135,8|0,0:0|0:0,0:0:0:0:
281,184,36220,1,8,0:0:0:0:
228,356,37020,6,0,L|369:340,1,135,8|8,0:0|0:0,0:0:0:0:
455,242,38220,2,0,L|398:228,1,45,8|8,0:0|0:0,0:0:0:0:
280,200,39020,2,0,P|262:114|335:46,1,180,8|8,0:0|0:0,0:0:0:0:
449,12,40420,5,8,0:0:0:0:
409,279,41620,1,8,0:0:0:0:
290,343,42220,2,0,L|186:353,1,90,8|8,0:0|0:0,0:0:0:0:
156,273,43020,6,0,B|131:261|90:290|90:290|63:247|26:257,2,135,8|8|0,0:0|0:0|0:0,0:0:0:0:
193,143,44820,1,8,0:0:0:0:
344,44,45620,6,0,B|444:52|444:52|491:30,2,135,8|8|0,0:0|0:0|0:0,0:0:0:0:
210,23,47420,1,8,0:0:0:0:
81,63,48020,2,0,P|57:102|64:155,1,90,8|8,0:0|0:0,0:0:0:0:
148,129,48820,6,0,P|153:187|88:237,2,135,8|8|0,0:0|0:0|0:0,0:0:0:0:
256,49,50620,1,8,0:0:0:0:
401,155,51420,6,0,B|451:131|451:131|475:41,2,135,8|8|0,0:0|0:0|0:0,0:0:0:0:
273,198,53220,1,8,0:0:0:0:
298,330,53820,2,0,L|387:334,1,90,8|8,0:0|0:0,0:0:0:0:
462,283,54620,5,2,0:0:0:0:
473,148,55220,1,2,0:0:0:0:
207,100,56420,1,2,0:0:0:0:
176,232,57020,6,0,L|201:286,1,45,2|2,0:0|0:0,0:0:0:0:
315,334,57820,1,2,0:0:0:0:
382,72,59020,1,2,0:0:0:0:
460,182,59620,2,0,L|439:281,1,90,2|2,0:0|0:0,0:0:0:0:
373,329,60420,6,0,B|323:346|323:346|289:311|232:312,2,135,2|2|0,0:0|0:0|0:0,0:0:0:0:
353,196,62220,1,2,0:0:0:0:
220,74,63020,6,0,B|151:63|151:63|81:92,2,135,14|12|0,0:0|0:0|0:0,0:0:0:0:
165,197,64820,1,12,0:0:0:0:
43,255,65420,2,0,P|23:298|28:347,1,90,12|12,0:0|0:0,0:0:0:0:
114,358,66220,6,0,B|185:367|185:367|258:342,2,135,12|12|0,0:0|0:0|0:0,0:0:0:0:
152,228,68020,1,12,0:0:0:0:
56,133,68620,2,0,L|62:33,1,90,12|12,0:0|0:0,0:0:0:0:
256,192,69420,12,0,75220,0:0:0:0:
