osu file format v14

[General]
AudioFilename: audio.mp3
AudioLeadIn: 0
PreviewTime: 19620
Countdown: 0
SampleSet: Drum
StackLeniency: 0.7
Mode: 0
LetterboxInBreaks: 0
WidescreenStoryboard: 0

[Editor]
DistanceSpacing: 1.1
BeatDivisor: 4
GridSize: 4
TimelineZoom: 1.7

[Metadata]
Title:Bad Boss Boogie
TitleUnicode:Bad Boss Boogie
Artist:David Wise
ArtistUnicode:David Wise
Creator:DaxMasterix
Version:Krisom's Advanced
Source:Donkey Kong Country
Tags:BGM MoodyRPG Krisom SNES Super Nintendo Entertainment System Famicom スーパーファミコン SFC Rareware Videogame Video Game Instrumental VGM スーパードンキーコング theme Dumb Drum Really Very Gnawty Queen B. Master Necky Snr. Eveline Fischer Robin Beanland
BeatmapID:2635002
BeatmapSetID:1088647

[Difficulty]
HPDrainRate:4.8
CircleSize:3.3
OverallDifficulty:6.5
ApproachRate:7
SliderMultiplier:1.5
SliderTickRate:1

[Events]
//Background and Video events
0,0,"BG.jpg",0,0
//Break Periods
//Storyboard Layer 0 (Background)
//Storyboard Layer 1 (Fail)
//Storyboard Layer 2 (Pass)
//Storyboard Layer 3 (Foreground)
//Storyboard Layer 4 (Overlay)
//Storyboard Sound Samples

[TimingPoints]
20,400,4,3,1,50,1,0
820,400,4,3,1,50,1,0
6620,400,4,3,1,50,1,0
12420,400,4,3,1,50,1,0
18220,400,4,3,1,50,1,0
19620,400,4,3,1,50,1,0
25420,400,4,3,1,50,1,0
31220,400,4,3,1,50,1,0
37020,400,4,3,1,50,1,0
38420,400,4,3,1,50,1,0
39820,400,4,3,1,50,1,0
45620,400,4,3,1,50,1,0
51420,400,4,3,1,50,1,0
57220,400,4,3,1,50,1,0
63020,400,4,3,1,50,1,0
73420,-100,4,3,1,45,0,0
73820,-100,4,3,1,40,0,0
74020,-100,4,3,1,35,0,0
74220,-100,4,3,1,30,0,0
74420,-100,4,3,1,25,0,0
74620,-100,4,3,1,20,0,0
74820,-100,4,3,1,15,0,0
75020,-100,4,3,1,10,0,0
75220,-100,4,3,2,80,0,0

[Colours]
Combo1 : 240,160,20
Combo2 : 170,170,0
SliderTrackOverride : 100,100,100
SliderBorder : 192,192,192

[HitObjects]
20,32,820,6,0,L|20:116,1,75,8|0,0:0|0:0,0:0:0:0:
20,188,1220,1,0,0:0:0:0:
96,156,1420,2,0,L|96:240,1,75,8|0,0:0|0:0,0:0:0:0:
96,312,1820,1,0,0:0:0:0:
176,332,2020,2,0,L|176:372,2,37.5
256,312,2420,1,0,0:0:0:0:
256,228,2620,2,0,L|256:144,2,75,8|0|0,0:0|0:0|0:0,0:0:0:0:
324,276,3220,1,8,0:0:0:0:
324,276,3420,1,0,0:0:0:0:
400,324,3620,1,8,0:0:0:0:
400,324,3820,1,0,0:0:0:0:
492,352,4020,6,0,L|492:268,1,75,8|0,0:0|0:0,0:0:0:0:
492,196,4420,1,0,0:0:0:0:
416,228,4620,2,0,L|416:144,1,75,8|0,0:0|0:0,0:0:0:0:
416,72,5020,1,0,0:0:0:0:
336,52,5220,2,0,L|336:12,2,37.5
256,72,5620,1,0,0:0:0:0:
256,156,5820,2,0,L|256:240,2,75,8|0|0,0:0|0:0|0:0,0:0:0:0:
188,108,6420,1,8,0:0:0:0:
112,72,6620,6,0,P|104:107|112:143,1,75,8|0,0:0|0:0,0:0:0:0:
180,192,7020,1,0,0:0:0:0:
112,239,7220,2,0,P|104:275|112:312,1,75,8|0,0:0|0:0,0:0:0:0:
188,276,7620,1,0,0:0:0:0:
256,324,7820,2,0,L|256:364,2,37.5
256,240,8220,1,0,0:0:0:0:
308,176,8420,1,8,0:0:0:0:
364,240,8620,1,0,0:0:0:0:
416,176,8820,1,0,0:0:0:0:
468,240,9020,1,8,0:0:0:0:
468,240,9220,1,0,0:0:0:0:
508,316,9420,1,8,0:0:0:0:
508,316,9620,1,0,0:0:0:0:
400,312,9820,6,0,P|407:276|399:240,1,75,8|0,0:0|0:0,0:0:0:0:
332,192,10220,1,0,0:0:0:0:
399,144,10420,2,0,P|407:108|400:72,1,75,8|0,0:0|0:0,0:0:0:0:
324,108,10820,1,0,0:0:0:0:
256,60,11020,2,0,L|256:20,2,37.5
256,144,11420,1,0,0:0:0:0:
204,208,11620,1,8,0:0:0:0:
148,144,11820,1,0,0:0:0:0:
96,208,12020,1,0,0:0:0:0:
44,144,12220,1,8,0:0:0:0:
96,80,12420,6,0,P|132:64|156:32,2,75,8|0|0,0:0|0:0|0:0,0:0:0:0:
148,144,13020,2,0,P|184:128|208:96,2,75,8|0|0,0:0|0:0|0:0,0:0:0:0:
148,226,13620,2,0,L|148:266,2,37.5
76,188,14020,1,0,0:0:0:0:
148,144,14220,1,8,0:0:0:0:
220,192,14420,2,0,P|256:200|292:192,1,75
376,192,14820,2,0,P|412:200|448:192,1,75,8|0,0:0|0:0,0:0:0:0:
492,120,15220,1,8,0:0:0:0:
492,120,15420,1,0,0:0:0:0:
416,80,15620,6,0,P|380:64|356:32,2,75,8|0|0,0:0|0:0|0:0,0:0:0:0:
364,144,16220,2,0,P|328:128|304:96,2,75,8|0|0,0:0|0:0|0:0,0:0:0:0:
364,226,16820,2,0,L|364:266,2,37.5
436,188,17220,1,0,0:0:0:0:
364,144,17420,1,8,0:0:0:0:
292,192,17620,2,0,P|256:200|220:192,1,75
136,192,18020,1,8,0:0:0:0:
136,192,18220,6,0,P|100:200|64:192,2,75,8|0|0,0:0|0:0|0:0,0:0:0:0:
100,116,18820,2,0,P|136:108|172:116,2,75,8|0|0,0:0|0:0|0:0,0:0:0:0:
63,191,19420,1,8,0:0:0:0:
28,268,19620,6,0,B|64:288|100:276|100:260|136:248|172:268,1,150,8|0,0:0|0:0,0:0:0:0:
184,348,20220,2,0,B|220:368|256:356|256:340|292:328|328:348,1,150,8|0,0:0|0:0,0:0:0:0:
400,316,20820,1,0,0:0:0:0:
480,332,21020,2,0,P|464:264|394:234,2,150,0|8|0,0:0|0:0|0:0,0:0:0:0:
400,316,22020,1,8,0:0:0:0:
256,236,22420,1,8,0:0:0:0:
256,152,22620,1,0,0:0:0:0:
192,100,22820,6,0,P|256:67|320:100,1,150,8|0,0:0|0:0,0:0:0:0:
359,27,23420,2,0,P|256:-12|153:27,1,225,8|0,0:0|0:0,0:0:0:0:
172,108,24220,1,0,0:0:0:0:
340,108,24620,1,8,0:0:0:0:
484,188,25020,1,0,0:0:0:0:
484,188,25220,1,8,0:0:0:0:
484,268,25420,6,0,B|448:288|412:276|412:260|376:248|340:268,1,150,8|0,0:0|0:0,0:0:0:0:
328,348,26020,2,0,B|292:368|256:356|256:340|220:328|184:348,1,150,8|0,0:0|0:0,0:0:0:0:
112,316,26620,1,0,0:0:0:0:
32,332,26820,2,0,P|48:264|118:234,2,150,0|8|0,0:0|0:0|0:0,0:0:0:0:
112,316,27820,1,8,0:0:0:0:
256,236,28220,1,8,0:0:0:0:
256,152,28420,1,0,0:0:0:0:
320,100,28620,6,0,P|256:67|192:100,1,150,8|0,0:0|0:0,0:0:0:0:
153,27,29220,2,0,P|256:-12|359:27,1,225,8|0,0:0|0:0,0:0:0:0:
340,108,30020,1,0,0:0:0:0:
172,108,30420,1,8,0:0:0:0:
28,188,30820,1,0,0:0:0:0:
28,188,31020,1,8,0:0:0:0:
52,268,31220,6,0,B|104:268|104:268|160:268|176:208,1,150,8|0,0:0|0:0,0:0:0:0:
236,268,31820,2,0,B|288:268|288:268|344:268|360:208,1,150,8|0,0:0|0:0,0:0:0:0:
380,132,32420,1,0,0:0:0:0:
408,56,32620,2,0,P|464:68|492:152,2,150,0|8|0,0:0|0:0|0:0,0:0:0:0:
341,10,33620,2,0,P|325:66|389:134,1,150,8|8,0:0|0:0,0:0:0:0:
436,192,34220,1,0,0:0:0:0:
460,268,34420,6,0,B|408:268|408:268|352:268|336:208,1,150,8|0,0:0|0:0,0:0:0:0:
276,268,35020,2,0,B|224:268|224:268|168:268|152:208,1,150,8|0,0:0|0:0,0:0:0:0:
132,132,35620,1,0,0:0:0:0:
104,56,35820,2,0,P|48:68|20:152,2,150,0|8|0,0:0|0:0|0:0,0:0:0:0:
184,76,36820,1,8,0:0:0:0:
256,40,37020,5,8,0:0:0:0:
256,124,37220,1,0,0:0:0:0:
256,124,37420,1,0,0:0:0:0:
336,144,37620,1,8,0:0:0:0:
336,228,37820,1,0,0:0:0:0:
336,228,38020,1,0,0:0:0:0:
416,248,38220,1,8,0:0:0:0:
496,228,38420,5,8,0:0:0:0:
496,312,38620,1,0,0:0:0:0:
496,312,38820,1,0,0:0:0:0:
428,268,39020,1,8,0:0:0:0:
428,352,39220,1,0,0:0:0:0:
428,352,39420,1,0,0:0:0:0:
360,308,39620,1,8,0:0:0:0:
292,356,39820,6,0,L|200:356,2,75,8|0|0,0:0|0:0|0:0,0:0:0:0:
360,308,40420,1,8,0:0:0:0:
360,228,40620,1,0,0:0:0:0:
360,228,40820,1,0,0:0:0:0:
416,168,41020,2,0,L|460:168,2,37.5
360,108,41420,1,0,0:0:0:0:
292,156,41620,2,0,P|272:184|224:204,2,75,8|0|0,0:0|0:0|0:0,0:0:0:0:
220,128,42220,1,8,0:0:0:0:
220,128,42420,1,0,0:0:0:0:
156,80,42620,1,8,0:0:0:0:
156,80,42820,1,0,0:0:0:0:
220,28,43020,6,0,L|312:28,2,75,8|0|0,0:0|0:0|0:0,0:0:0:0:
152,76,43620,1,8,0:0:0:0:
152,156,43820,1,0,0:0:0:0:
152,156,44020,1,0,0:0:0:0:
96,216,44220,2,0,L|52:216,2,37.5
152,276,44620,1,0,0:0:0:0:
220,228,44820,2,0,P|240:200|288:180,2,75,8|0|0,0:0|0:0|0:0,0:0:0:0:
292,256,45420,1,8,0:0:0:0:
344,320,45620,6,0,L|436:320,1,75,8|0,0:0|0:0,0:0:0:0:
480,264,46020,1,0,0:0:0:0:
420,204,46220,2,0,L|328:204,2,75,8|0|0,0:0|0:0|0:0,0:0:0:0:
480,148,46820,2,0,L|520:116,2,37.5
420,92,47220,1,0,0:0:0:0:
356,40,47420,2,0,P|321:32|285:40,2,75,8|0|0,0:0|0:0|0:0,0:0:0:0:
324,116,48020,1,8,0:0:0:0:
324,116,48220,1,0,0:0:0:0:
240,116,48420,1,8,0:0:0:0:
240,116,48620,1,0,0:0:0:0:
168,64,48820,6,0,L|76:64,1,75,8|0,0:0|0:0,0:0:0:0:
32,120,49220,1,0,0:0:0:0:
92,180,49420,2,0,L|184:180,2,75,8|0|0,0:0|0:0|0:0,0:0:0:0:
32,236,50020,2,0,L|-8:268,2,37.5
92,292,50420,1,0,0:0:0:0:
156,344,50620,2,0,P|191:352|227:344,2,75,8|0|0,0:0|0:0|0:0,0:0:0:0:
188,268,51220,1,8,0:0:0:0:
212,188,51420,6,0,P|156:168|120:168,2,75,8|0|0,0:0|0:0|0:0,0:0:0:0:
300,188,52020,2,0,P|356:168|392:168,2,75,8|0|0,0:0|0:0|0:0,0:0:0:0:
256,256,52620,2,0,L|256:304,2,37.5
212,188,53020,1,0,0:0:0:0:
256,120,53220,2,0,L|256:40,2,75,8|0|0,0:0|0:0|0:0,0:0:0:0:
300,196,53820,1,8,0:0:0:0:
300,196,54020,1,0,0:0:0:0:
216,196,54220,1,8,0:0:0:0:
216,196,54420,1,0,0:0:0:0:
132,196,54620,6,0,L|40:196,1,75,2|0,0:0|0:0,0:0:0:0:
24,120,55020,1,0,0:0:0:0:
56,44,55220,1,2,0:0:0:0:
124,88,55420,1,0,0:0:0:0:
196,124,55620,1,0,0:0:0:0:
256,68,55820,2,0,L|256:20,2,37.5
256,68,56220,1,0,0:0:0:0:
316,124,56420,1,2,0:0:0:0:
388,88,56620,1,0,0:0:0:0:
456,44,56820,1,0,0:0:0:0:
488,120,57020,1,2,0:0:0:0:
455,196,57220,6,0,L|380:196,2,75,2|0|0,0:0|0:0|0:0,0:0:0:0:
460,280,57820,1,2,0:0:0:0:
412,348,58020,1,0,0:0:0:0:
332,368,58220,1,0,0:0:0:0:
256,332,58420,2,0,L|256:288,2,37.5
256,332,58820,1,0,0:0:0:0:
180,368,59020,1,2,0:0:0:0:
100,348,59220,1,0,0:0:0:0:
52,280,59420,1,0,0:0:0:0:
57,196,59620,2,0,L|132:196,1,75,2|0,0:0|0:0,0:0:0:0:
218,197,60020,2,0,L|293:197,1,75,2|0,0:0|0:0,0:0:0:0:
300,116,60420,6,0,L|380:88,2,75,2|0|0,0:0|0:0|0:0,0:0:0:0:
212,116,61020,2,0,L|132:88,2,75,2|0|0,0:0|0:0|0:0,0:0:0:0:
256,48,61620,2,0,L|256:0,2,37.5
300,116,62020,1,0,0:0:0:0:
340,188,62220,1,2,0:0:0:0:
300,260,62420,1,0,0:0:0:0:
212,260,62620,1,0,0:0:0:0:
172,188,62820,1,2,0:0:0:0:
172,104,63020,6,0,B|144:104|144:104|124:112|124:112|92:112,2,75,12|0|0,0:0|0:0|0:0,0:0:0:0:
256,104,63620,1,12,0:0:0:0:
328,144,63820,1,0,0:0:0:0:
396,192,64020,1,0,0:0:0:0:
480,192,64220,2,0,L|520:192,2,37.5
396,192,64620,1,0,0:0:0:0:
356,264,64820,2,0,L|444:264,2,75,12|0|0,0:0|0:0|0:0,0:0:0:0:
336,184,65420,1,12,0:0:0:0:
264,140,65620,1,0,0:0:0:0:
216,208,65820,1,12,0:0:0:0:
256,280,66020,1,0,0:0:0:0:
340,280,66220,6,0,B|368:280|368:280|388:272|388:272|420:272,2,75,12|0|0,0:0|0:0|0:0,0:0:0:0:
256,280,66820,1,12,0:0:0:0:
184,240,67020,1,0,0:0:0:0:
116,192,67220,1,0,0:0:0:0:
32,192,67420,2,0,L|-8:192,2,37.5
116,192,67820,1,0,0:0:0:0:
156,120,68020,2,0,L|68:120,2,75,12|0|0,0:0|0:0|0:0,0:0:0:0:
216,64,68620,1,2,0:2:0:0:
256,136,68820,1,0,0:0:0:0:
296,208,69020,2,0,L|336:232,2,37.5,8|0|0,0:0|0:0|0:0,0:0:0:0:
256,280,69420,5,4,0:1:0:0:
256,192,69620,12,0,75220,0:0:0:0:
