osu file format v14

[General]
AudioFilename: audio.mp3
AudioLeadIn: 0
PreviewTime: 19620
Countdown: 0
SampleSet: Drum
StackLeniency: 0.7
Mode: 0
LetterboxInBreaks: 0
WidescreenStoryboard: 0

[Editor]
DistanceSpacing: 1.5
BeatDivisor: 4
GridSize: 4
TimelineZoom: 1.3

[Metadata]
Title:Bad Boss Boogie
TitleUnicode:Bad Boss Boogie
Artist:David Wise
ArtistUnicode:David Wise
Creator:DaxMasterix
Version:Insane
Source:Donkey Kong Country
Tags:BGM MoodyRPG Krisom SNES Super Nintendo Entertainment System Famicom スーパーファミコン SFC Rareware Videogame Video Game Instrumental VGM スーパードンキーコング theme Dumb Drum Really Very Gnawty Queen B. Master Necky Snr. Eveline Fischer Robin Beanland
BeatmapID:2276247
BeatmapSetID:1088647

[Difficulty]
HPDrainRate:6
CircleSize:4
OverallDifficulty:8
ApproachRate:9
SliderMultiplier:2
SliderTickRate:1

[Events]
//Background and Video events
0,0,"BG.jpg",0,0
//Break Periods
//Storyboard Layer 0 (Background)
//Storyboard Layer 1 (Fail)
//Storyboard Layer 2 (Pass)
//Storyboard Layer 3 (Foreground)
//Storyboard Layer 4 (Overlay)
//Storyboard Sound Samples

[TimingPoints]
20,400,4,3,1,50,1,0
820,400,4,3,1,50,1,0
6520,-100,4,3,1,20,0,0
6620,400,4,3,1,50,1,0
12320,-100,4,3,1,20,0,0
12420,400,4,3,1,50,1,0
18120,-100,4,3,1,20,0,0
18220,400,4,3,1,50,1,0
18320,-100,4,3,1,20,0,0
18420,-100,4,3,1,50,0,0
18520,-100,4,3,1,20,0,0
18620,-100,4,3,1,50,0,0
18720,-100,4,3,1,20,0,0
18820,-100,4,3,1,50,0,0
18920,-100,4,3,1,20,0,0
19020,-100,4,3,1,50,0,0
19120,-100,4,3,1,20,0,0
19220,-100,4,3,1,50,0,0
19320,-100,4,3,1,20,0,0
19420,-100,4,3,1,50,0,0
19520,-100,4,3,1,20,0,0
19620,400,4,3,1,50,1,0
25320,-100,4,3,1,20,0,0
25420,400,4,3,1,50,1,0
31120,-100,4,3,1,20,0,0
31220,400,4,3,1,50,1,0
36920,-100,4,3,1,20,0,0
37020,400,4,3,1,50,1,0
37120,-100,4,3,1,20,0,0
37220,-100,4,3,1,50,0,0
37320,-100,4,3,1,20,0,0
37420,-100,4,3,1,50,0,0
37520,-100,4,3,1,20,0,0
37620,-100,4,3,1,50,0,0
37720,-100,4,3,1,20,0,0
37820,-100,4,3,1,50,0,0
37920,-100,4,3,1,20,0,0
38020,-100,4,3,1,50,0,0
38120,-100,4,3,1,20,0,0
38220,-100,4,3,1,50,0,0
38320,-100,4,3,1,20,0,0
38420,400,4,3,1,50,1,0
38520,-100,4,3,1,20,0,0
38620,-100,4,3,1,50,0,0
38720,-100,4,3,1,20,0,0
38820,-100,4,3,1,50,0,0
38920,-100,4,3,1,20,0,0
39020,-100,4,3,1,50,0,0
39120,-100,4,3,1,20,0,0
39220,-100,4,3,1,50,0,0
39320,-100,4,3,1,20,0,0
39420,-100,4,3,1,50,0,0
39520,-100,4,3,1,20,0,0
39620,-100,4,3,1,50,0,0
39720,-100,4,3,1,20,0,0
39820,400,4,3,1,50,1,0
42320,-100,4,3,1,20,0,0
42420,-100,4,3,1,50,0,0
42520,-100,4,3,1,20,0,0
42620,-100,4,3,1,50,0,0
42720,-100,4,3,1,20,0,0
42820,-100,4,3,1,50,0,0
42920,-100,4,3,1,20,0,0
43020,-100,4,3,1,50,0,0
45520,-100,4,3,1,20,0,0
45620,400,4,3,1,50,1,0
48120,-100,4,3,1,20,0,0
48220,-100,4,3,1,50,0,0
48320,-100,4,3,1,20,0,0
48420,-100,4,3,1,50,0,0
48520,-100,4,3,1,20,0,0
48620,-100,4,3,1,50,0,0
48720,-100,4,3,1,20,0,0
48820,-100,4,3,1,50,0,0
51320,-100,4,3,1,20,0,0
51420,400,4,3,1,50,1,0
53920,-100,4,3,1,20,0,0
54020,-100,4,3,1,50,0,0
54120,-100,4,3,1,20,0,0
54220,-100,4,3,1,50,0,0
54320,-100,4,3,1,20,0,0
54420,-100,4,3,1,50,0,0
54520,-100,4,3,1,20,0,0
54620,-100,4,3,1,50,0,0
57120,-100,4,3,1,20,0,0
57220,400,4,3,1,50,1,0
59720,-100,4,3,1,20,0,0
59820,-100,4,3,1,50,0,0
59920,-100,4,3,1,20,0,0
60020,-100,4,3,1,50,0,0
60120,-100,4,3,1,20,0,0
60220,-100,4,3,1,50,0,0
60320,-100,4,3,1,20,0,0
60420,-100,4,3,1,50,0,0
62920,-100,4,3,1,20,0,0
63020,400,4,3,1,50,1,0
65520,-100,4,3,1,20,0,0
65620,-100,4,3,1,50,0,0
65720,-100,4,3,1,20,0,0
65820,-100,4,3,1,50,0,0
65920,-100,4,3,1,20,0,0
66020,-100,4,3,1,50,0,0
66120,-100,4,3,1,20,0,0
66220,-100,4,3,1,50,0,0
73420,-100,4,3,1,45,0,0
73820,-100,4,3,1,40,0,0
74020,-100,4,3,1,35,0,0
74220,-100,4,3,1,30,0,0
74420,-100,4,3,1,25,0,0
74620,-100,4,3,1,20,0,0
74820,-100,4,3,1,15,0,0
75020,-100,4,3,1,10,0,0
75220,-100,4,3,2,80,0,0

[Colours]
Combo1 : 240,160,20
Combo2 : 170,170,0
SliderTrackOverride : 100,100,100
SliderBorder : 192,192,192

[HitObjects]
449,72,20,5,2,0:2:0:0:
407,98,120,1,2,0:2:0:0:
381,140,220,1,2,0:2:0:0:
377,189,320,1,2,0:2:0:0:
397,235,420,5,8,0:0:0:0:
441,296,520,1,0,0:0:0:0:
397,357,620,1,0,0:0:0:0:
325,333,720,1,0,0:0:0:0:
325,258,820,6,0,P|274:242|226:242,1,100,8|0,0:0|0:0,0:0:0:0:
80,272,1220,1,0,0:0:0:0:
244,89,1420,2,0,P|196:113|162:147,1,100,8|0,0:0|0:0,0:0:0:0:
80,272,1820,1,0,0:0:0:0:
67,26,2020,1,0,0:0:0:0:
51,73,2120,1,0,0:0:0:0:
50,123,2220,1,0,0:0:0:0:
80,272,2420,5,0,0:0:0:0:
204,353,2620,2,0,P|257:361|306:357,1,100,8|0,0:0|0:0,0:0:0:0:
448,319,3020,1,0,0:0:0:0:
509,182,3220,2,0,P|515:133|508:77,1,100,8|0,0:0|0:0,0:0:0:0:
378,248,3620,2,0,P|409:287|448:319,1,100,8|0,0:0|0:0,0:0:0:0:
386,102,4020,6,0,P|335:87|288:85,1,100,8|0,0:0|0:0,0:0:0:0:
139,111,4420,1,0,0:0:0:0:
320,279,4620,2,0,P|294:232|257:195,1,100,8|0,0:0|0:0,0:0:0:0:
139,111,5020,1,0,0:0:0:0:
148,357,5220,1,0,0:0:0:0:
162,309,5320,1,0,0:0:0:0:
163,259,5420,1,0,0:0:0:0:
139,111,5620,5,0,0:0:0:0:
22,16,5820,2,0,L|11:115,1,100,8|0,0:0|0:0,0:0:0:0:
139,111,6220,1,0,0:0:0:0:
247,162,6420,2,0,P|274:154|309:139,1,50,8|0,0:0|0:0,0:0:0:0:
490,16,6620,6,0,P|501:65|501:115,1,100,8|0,0:0|0:0,0:0:0:0:
475,263,7020,1,0,0:0:0:0:
311,78,7220,2,0,P|353:104|388:140,1,100,8|0,0:0|0:0,0:0:0:0:
475,263,7620,1,0,0:0:0:0:
228,248,7820,1,0,0:0:0:0:
276,237,7920,1,0,0:0:0:0:
326,236,8020,1,0,0:0:0:0:
475,263,8220,5,0,0:0:0:0:
378,378,8420,2,0,P|328:377|279:366,1,100,8|0,0:0|0:0,0:0:0:0:
138,316,8820,1,0,0:0:0:0:
70,182,9020,2,0,P|64:133|65:77,1,100,8|0,0:0|0:0,0:0:0:0:
221,261,9420,2,0,P|181:291|138:316,1,100,8|0,0:0|0:0,0:0:0:0:
214,90,9820,6,0,P|259:86|317:97,1,100,8|0,0:0|0:0,0:0:0:0:
459,131,10220,1,0,0:0:0:0:
257,276,10420,2,0,P|285:241|334:208,1,100,8|0,0:0|0:0,0:0:0:0:
459,131,10820,1,0,0:0:0:0:
418,377,11020,1,0,0:0:0:0:
414,327,11120,1,0,0:0:0:0:
423,278,11220,1,0,0:0:0:0:
459,131,11420,5,0,0:0:0:0:
312,95,11620,2,0,P|263:86|214:90,1,100,8|0,0:0|0:0,0:0:0:0:
69,171,12020,1,0,0:0:0:0:
212,255,12220,2,0,L|258:277,1,50,8|0,0:0|0:0,0:0:0:0:
440,333,12420,6,0,P|463:275|463:233,1,100,8|0,0:0|0:0,0:0:0:0:
451,89,12820,1,0,0:0:0:0:
271,254,13020,2,0,P|328:229|357:199,1,100,8|0,0:0|0:0,0:0:0:0:
451,89,13420,1,0,0:0:0:0:
207,78,13620,1,0,0:0:0:0:
252,98,13720,1,0,0:0:0:0:
301,101,13820,1,0,0:0:0:0:
451,89,14020,5,0,0:0:0:0:
387,224,14220,2,0,P|397:278|390:324,1,100,8|0,0:0|0:0,0:0:0:0:
256,376,14620,1,0,0:0:0:0:
121,322,14820,2,0,P|115:272|125:224,1,100,8|0,0:0|0:0,0:0:0:0:
295,166,15220,2,0,P|255:196|208:211,1,100,8|0,0:0|0:0,0:0:0:0:
72,93,15620,6,0,P|117:112|155:145,1,100,8|0,0:0|0:0,0:0:0:0:
242,290,16020,1,0,0:0:0:0:
262,31,16220,2,0,P|280:77|283:126,1,100,8|0,0:0|0:0,0:0:0:0:
242,290,16620,1,0,0:0:0:0:
440,121,16820,1,0,0:0:0:0:
420,166,16920,1,0,0:0:0:0:
387,204,17020,1,0,0:0:0:0:
242,290,17220,5,0,0:0:0:0:
95,207,17420,2,0,P|76:161|73:112,1,100,8|0,0:0|0:0,0:0:0:0:
223,30,17820,1,0,0:0:0:0:
371,110,18020,2,0,L|401:153,1,50,8|0,0:0|0:0,0:0:0:0:
452,320,18220,6,0,P|430:336|400:344,1,50,8|0,0:0|0:0,0:0:0:0:
388,276,18420,2,0,P|384:249|393:218,1,50
458,242,18620,2,0,P|482:252|504:275,1,50
268,296,18820,6,0,P|246:312|216:320,1,50,8|0,0:0|0:0,0:0:0:0:
204,252,19020,2,0,P|200:225|209:194,1,50
274,218,19220,2,0,P|298:228|320:251,1,50
84,272,19420,6,0,P|62:288|32:296,1,50,8|0,0:0|0:0,0:0:0:0:
33,105,19620,6,0,B|56:60|96:36|96:36|152:36|196:64,1,200,8|0,0:0|0:0,0:0:0:0:
428,64,20220,2,0,B|405:109|365:133|365:133|309:133|265:105,1,200,8|0,0:0|0:0,0:0:0:0:
76,170,20820,1,0,0:0:0:0:
88,173,20920,1,0,0:0:0:0:
100,176,21020,1,0,0:0:0:0:
244,283,21220,5,0,0:0:0:0:
123,253,21420,2,0,B|116:316|116:316|192:328|244:283,1,200,8|0,0:0|0:0,0:0:0:0:
364,312,22020,2,0,B|372:250|372:250|296:238|244:283,1,200,8|8,0:0|0:0,0:0:0:0:
452,332,22620,1,0,0:0:0:0:
390,127,22820,6,0,B|376:72|376:72|296:92|240:48,1,200,8|0,0:0|0:0,0:0:0:0:
94,204,23420,2,0,B|108:259|108:259|188:239|244:283,1,200,8|0,0:0|0:0,0:0:0:0:
266,157,24020,1,0,0:0:0:0:
254,161,24120,1,0,0:0:0:0:
243,166,24220,1,0,0:0:0:0:
352,237,24420,5,0,0:0:0:0:
134,95,24620,2,0,B|85:56|85:56|37:125|65:186,1,200,8|0,0:0|0:0,0:0:0:0:
287,303,25220,2,0,P|305:322|331:333,1,50,8|0,0:0|0:0,0:0:0:0:
489,159,25420,6,0,B|473:93|473:93|423:55|423:55|394:83|333:102,1,200,8|0,0:0|0:0,0:0:0:0:
420,283,26020,2,0,B|486:267|486:267|524:217|524:217|496:188|489:159,1,200,8|0,0:0|0:0,0:0:0:0:
259,98,26620,1,0,0:0:0:0:
267,88,26720,1,0,0:0:0:0:
275,79,26820,1,0,0:0:0:0:
312,304,27020,5,0,0:0:0:0:
205,212,27220,2,0,B|190:263|190:263|214:302|247:319|247:319|312:304,1,200,8|0,0:0|0:0,0:0:0:0:
418,212,27820,2,0,B|433:263|433:263|409:302|376:319|376:319|312:304,1,200,8|8,0:0|0:0,0:0:0:0:
260,103,28420,1,0,0:0:0:0:
111,249,28620,6,0,B|72:285|17:270|17:270|6:216|39:173,1,200,8|0,0:0|0:0,0:0:0:0:
260,103,29220,2,0,B|290:142|279:196|279:196|224:211|185:175,1,200,8|0,0:0|0:0,0:0:0:0:
408,103,29820,1,0,0:0:0:0:
419,107,29920,1,0,0:0:0:0:
431,111,30020,1,0,0:0:0:0:
361,332,30220,5,0,0:0:0:0:
435,259,30420,2,0,B|466:299|455:353|455:353|400:368|361:332,1,200,8|0,0:0|0:0,0:0:0:0:
110,325,31020,2,0,P|97:302|87:272,1,50,8|0,0:0|0:0,0:0:0:0:
82,78,31220,6,0,B|158:64|217:84|209:118|206:147|196:162|158:142|143:129|164:111,1,200,8|0,0:0|0:0,0:0:0:0:
384,94,31820,2,0,B|358:166|311:207|285:183|262:166|254:150|290:127|309:121|314:148,1,200,8|0,0:0|0:0,0:0:0:0:
219,347,32420,1,0,0:0:0:0:
217,334,32520,1,0,0:0:0:0:
215,322,32620,1,0,0:0:0:0:
77,168,32820,5,0,0:0:0:0:
214,49,33020,2,0,B|195:98|195:98|112:115|112:115|77:168,1,200,8|0,0:0|0:0,0:0:0:0:
214,286,33620,2,0,B|195:238|195:238|112:221|112:221|77:168,1,200,8|8,0:0|0:0,0:0:0:0:
248,109,34220,1,0,0:0:0:0:
214,286,34420,6,0,B|254:334|311:335|311:335|331:301|395:280,1,200,8|0,0:0|0:0,0:0:0:0:
380,119,35020,2,0,B|395:168|429:188|429:188|428:245|380:286,1,200,8|0,0:0|0:0,0:0:0:0:
248,109,35620,1,0,0:0:0:0:
248,121,35720,1,0,0:0:0:0:
249,133,35820,1,0,0:0:0:0:
160,311,36020,5,0,0:0:0:0:
109,158,36220,2,0,B|116:200|116:200|86:258|86:258|118:300|160:311,1,200,8|0,0:0|0:0,0:0:0:0:
415,316,36820,2,0,P|433:295|443:263,1,50,8|0,0:0|0:0,0:0:0:0:
452,64,37020,6,0,P|430:48|400:40,1,50,8|0,0:0|0:0,0:0:0:0:
388,108,37220,2,0,P|384:135|393:166,1,50
458,142,37420,2,0,P|482:132|504:109,1,50
268,88,37620,6,0,P|246:72|216:64,1,50,8|0,0:0|0:0,0:0:0:0:
204,132,37820,2,0,P|200:159|209:190,1,50
274,166,38020,2,0,P|298:156|320:133,1,50
84,112,38220,6,0,P|62:96|32:88,1,50,8|0,0:0|0:0,0:0:0:0:
44,282,38420,6,0,P|66:298|96:306,1,50,8|0,0:0|0:0,0:0:0:0:
178,338,38620,2,0,P|156:354|126:362,1,50
201,263,38820,2,0,P|223:279|253:287,1,50
110,184,39020,6,0,P|130:198|154:207,1,50,8|0,0:0|0:0,0:0:0:0:
244,240,39220,2,0,P|224:254|201:263,1,50
267,165,39420,2,0,P|287:179|311:188,1,50
176,86,39620,6,0,P|195:100|219:108,1,50,8|0,0:0|0:0,0:0:0:0:
445,58,39820,6,0,P|457:106|468:155,2,100,8|0|0,0:0|0:0|0:0,0:0:0:0:
311,188,40420,2,0,P|296:237|288:285,2,100,8|0|0,0:0|0:0|0:0,0:0:0:0:
445,318,41020,1,0,0:0:0:0:
457,318,41120,1,0,0:0:0:0:
469,319,41220,1,0,0:0:0:0:
311,188,41420,5,0,0:0:0:0:
223,318,41620,1,8,0:0:0:0:
223,318,41820,2,0,P|175:330|125:338,1,100
68,248,42220,2,0,P|61:227|57:194,1,50,8|0,0:0|0:0,0:0:0:0:
96,96,42420,2,0,P|103:117|107:150,1,50
13,252,42620,2,0,P|15:230|25:198,1,50,8|0,0:0|0:0,0:0:0:0:
152,99,42820,2,0,P|149:120|139:152,1,50
171,23,43020,6,0,P|218:11|272:5,2,100,8|0|0,0:0|0:0|0:0,0:0:0:0:
301,157,43620,2,0,P|345:170|398:180,2,100,8|0|0,0:0|0:0|0:0,0:0:0:0:
431,23,44220,1,0,0:0:0:0:
443,22,44320,1,0,0:0:0:0:
455,21,44420,1,0,0:0:0:0:
301,157,44620,5,0,0:0:0:0:
431,245,44820,1,8,0:0:0:0:
431,245,45020,2,0,P|406:290|374:330,1,100
223,318,45420,2,0,P|198:319|173:315,1,50,8|0,0:0|0:0,0:0:0:0:
43,155,45620,6,0,P|54:106|67:58,2,100,8|0|0,0:0|0:0|0:0,0:0:0:0:
224,285,46220,2,0,P|214:235|201:188,2,100,8|0|0,0:0|0:0|0:0,0:0:0:0:
67,57,46820,1,0,0:0:0:0:
71,45,46920,1,0,0:0:0:0:
76,33,47020,1,0,0:0:0:0:
201,188,47220,5,0,0:0:0:0:
257,49,47420,1,8,0:0:0:0:
257,49,47620,2,0,P|310:48|364:60,1,100
436,116,48020,2,0,P|443:137|447:170,1,50,8|0,0:0|0:0,0:0:0:0:
404,264,48220,2,0,P|397:243|393:210,1,50
482,120,48420,2,0,P|479:141|469:173,1,50,8|0,0:0|0:0,0:0:0:0:
363,257,48620,2,0,P|365:235|375:203,1,50
366,350,48820,6,0,P|319:362|265:368,2,100,8|0|0,0:0|0:0|0:0,0:0:0:0:
236,216,49420,2,0,P|192:203|139:193,2,100,8|0|0,0:0|0:0|0:0,0:0:0:0:
106,350,50020,1,0,0:0:0:0:
94,354,50120,1,0,0:0:0:0:
82,359,50220,1,0,0:0:0:0:
236,216,50420,5,0,0:0:0:0:
106,128,50620,1,8,0:0:0:0:
106,128,50820,2,0,P|131:83|163:43,1,100
412,62,51220,2,0,P|438:65|461:73,1,50,8|0,0:0|0:0,0:0:0:0:
494,308,51420,6,0,P|450:332|402:346,1,100,8|0,0:0|0:0,0:0:0:0:
246,333,51820,1,0,0:0:0:0:
325,127,52020,2,0,P|323:172|308:224,1,100,8|0,0:0|0:0,0:0:0:0:
246,333,52420,1,0,0:0:0:0:
107,162,52620,1,0,0:0:0:0:
117,166,52720,1,0,0:0:0:0:
127,169,52820,1,0,0:0:0:0:
246,333,53020,5,0,0:0:0:0:
324,127,53220,1,8,0:0:0:0:
123,282,53420,1,0,0:0:0:0:
201,77,53620,1,0,0:0:0:0:
344,244,53820,2,0,P|364:259|386:272,1,50,8|0,0:0|0:0,0:0:0:0:
473,138,54020,2,0,P|452:153|431:166,1,50
324,198,54220,2,0,P|344:213|366:226,1,50,8|0,0:0|0:0,0:0:0:0:
493,92,54420,2,0,P|473:107|451:120,1,50
356,41,54620,6,0,B|316:27|316:27|230:70|144:27,1,200,10|0,0:0|0:0,0:0:0:0:
0,159,55220,2,0,B|40:173|40:173|122:112|213:148,1,200,10|0,0:0|0:0,0:0:0:0:
157,377,55820,1,0,0:0:0:0:
164,366,55920,1,0,0:0:0:0:
171,356,56020,1,0,0:0:0:0:
368,256,56220,5,0,0:0:0:0:
406,48,56420,2,0,B|410:5|410:5|465:68|455:174,1,200,10|0,0:0|0:0,0:0:0:0:
301,346,57020,2,0,P|277:354|252:358,1,50,10|0,0:0|0:0,0:0:0:0:
19,267,57220,6,0,B|15:255|5:236|5:236|1:150|55:81,1,200,10|0,0:0|0:0,0:0:0:0:
226,267,57820,2,0,B|230:255|240:236|240:236|244:150|190:81,1,200,10|0,0:0|0:0,0:0:0:0:
121,323,58420,1,0,0:0:0:0:
123,310,58520,1,0,0:0:0:0:
125,298,58620,1,0,0:0:0:0:
368,256,58820,5,0,0:0:0:0:
433,20,59020,2,0,B|421:16|402:6|402:6|316:2|247:56,1,200,10|0,0:0|0:0,0:0:0:0:
368,256,59620,2,0,P|381:233|393:192,1,50,10|0,0:0|0:0,0:0:0:0:
249,255,59820,2,0,P|262:277|291:308,1,50
368,256,60020,2,0,P|370:229|363:187,1,50,10|0,0:0|0:0,0:0:0:0:
249,255,60220,2,0,P|246:281|253:323,1,50
128,259,60420,6,0,B|166:167|137:137|137:137|97:151|51:155,1,200,10|0,0:0|0:0,0:0:0:0:
315,116,61020,2,0,B|344:118|384:132|384:132|413:102|375:10,1,200,10|0,0:0|0:0,0:0:0:0:
262,234,61620,1,0,0:0:0:0:
249,231,61720,1,0,0:0:0:0:
237,228,61820,1,0,0:0:0:0:
96,64,62020,5,0,0:0:0:0:
13,247,62220,2,0,B|-7:289|-7:289|59:339|140:317,1,200,10|0,0:0|0:0,0:0:0:0:
387,282,62820,2,0,L|404:227,1,50,10|0,0:0|0:0,0:0:0:0:
253,45,63020,5,14,0:0:0:0:
220,261,63220,1,0,0:0:0:0:
424,181,63420,1,0,0:0:0:0:
151,87,63620,1,12,0:0:0:0:
281,261,63820,1,0,0:0:0:0:
368,62,64020,1,0,0:0:0:0:
109,189,64220,1,0,0:0:0:0:
120,190,64320,1,0,0:0:0:0:
130,191,64420,1,0,0:0:0:0:
334,225,64620,5,0,0:0:0:0:
253,27,64820,1,12,0:0:0:0:
118,195,65020,1,0,0:0:0:0:
206,367,65220,1,0,0:0:0:0:
334,225,65420,2,0,P|354:228|385:225,1,50,12|0,0:0|0:0,0:0:0:0:
465,280,65620,2,0,P|444:282|413:280,1,50
308,203,65820,2,0,P|328:207|359:203,1,50,12|0,0:0|0:0,0:0:0:0:
492,299,66020,2,0,P|471:302|440:299,1,50
327,347,66220,5,12,0:0:0:0:
115,296,66420,1,0,0:0:0:0:
44,89,66620,1,0,0:0:0:0:
191,22,66820,1,12,0:0:0:0:
170,197,67020,1,0,0:0:0:0:
327,347,67220,1,0,0:0:0:0:
378,137,67420,1,0,0:0:0:0:
368,139,67520,1,0,0:0:0:0:
357,142,67620,1,0,0:0:0:0:
170,197,67820,5,0,0:0:0:0:
327,347,68020,1,12,0:0:0:0:
379,138,68220,1,0,0:0:0:0:
170,197,68420,1,0,0:0:0:0:
0,128,68620,1,2,0:2:0:0:
14,86,68720,1,2,0:2:0:0:
47,57,68820,1,2,0:2:0:0:
90,47,68920,1,2,0:2:0:0:
133,59,69020,5,8,0:0:0:0:
154,124,69120,1,0,0:0:0:0:
222,124,69220,1,0,0:0:0:0:
243,59,69320,1,0,0:0:0:0:
188,20,69420,5,4,0:1:0:0:
256,192,69520,12,0,75220,0:0:0:0:
