osu file format v14

[General]
AudioFilename: audio.mp3
AudioLeadIn: 0
PreviewTime: 19620
Countdown: 0
SampleSet: Drum
StackLeniency: 0.7
Mode: 0
LetterboxInBreaks: 0
WidescreenStoryboard: 0

[Editor]
DistanceSpacing: 1.5
BeatDivisor: 4
GridSize: 4
TimelineZoom: 1

[Metadata]
Title:Bad Boss Boogie
TitleUnicode:Bad Boss Boogie
Artist:David Wise
ArtistUnicode:David Wise
Creator:DaxMasterix
Version:Hard
Source:Donkey Kong Country
Tags:BGM MoodyRPG Krisom SNES Super Nintendo Entertainment System Famicom スーパーファミコン SFC Rareware Videogame Video Game Instrumental VGM スーパードンキーコング theme Dumb Drum Really Very Gnawty Queen B. Master Necky Snr. Eveline Fischer Robin Beanland
BeatmapID:2276246
BeatmapSetID:1088647

[Difficulty]
HPDrainRate:5
CircleSize:3.5
OverallDifficulty:7
ApproachRate:7
SliderMultiplier:1.7
SliderTickRate:1

[Events]
//Background and Video events
0,0,"BG.jpg",0,0
//Break Periods
//Storyboard Layer 0 (Background)
//Storyboard Layer 1 (Fail)
//Storyboard Layer 2 (Pass)
//Storyboard Layer 3 (Foreground)
//Storyboard Layer 4 (Overlay)
//Storyboard Sound Samples

[TimingPoints]
20,400,4,3,1,50,1,0
820,400,4,3,1,50,1,0
6520,-100,4,3,1,20,0,0
6620,400,4,3,1,50,1,0
12320,-100,4,3,1,20,0,0
12420,400,4,3,1,50,1,0
18120,-100,4,3,1,20,0,0
18220,400,4,3,1,50,1,0
19520,-100,4,3,1,20,0,0
19620,400,4,3,1,50,1,0
25320,-100,4,3,1,20,0,0
25420,400,4,3,1,50,1,0
31120,-100,4,3,1,20,0,0
31220,400,4,3,1,50,1,0
36920,-100,4,3,1,20,0,0
37020,400,4,3,1,50,1,0
38320,-100,4,3,1,20,0,0
38420,400,4,3,1,50,1,0
39720,-100,4,3,1,20,0,0
39820,400,4,3,1,50,1,0
45520,-100,4,3,1,20,0,0
45620,400,4,3,1,50,1,0
51320,-100,4,3,1,20,0,0
51420,400,4,3,1,50,1,0
57120,-100,4,3,1,20,0,0
57220,400,4,3,1,50,1,0
62920,-100,4,3,1,20,0,0
63020,400,4,3,1,50,1,0
73420,-100,4,3,1,45,0,0
73820,-100,4,3,1,40,0,0
74020,-100,4,3,1,35,0,0
74220,-100,4,3,1,30,0,0
74420,-100,4,3,1,25,0,0
74620,-100,4,3,1,20,0,0
74820,-100,4,3,1,15,0,0
75020,-100,4,3,1,10,0,0
75220,-100,4,3,2,80,0,0

[Colours]
Combo1 : 240,160,20
Combo2 : 170,170,0
SliderTrackOverride : 100,100,100
SliderBorder : 192,192,192

[HitObjects]
39,68,20,6,0,L|81:77,3,42.5,2|2|2|2,0:2|0:2|0:2|0:2,0:2:0:0:
121,90,420,5,8,0:0:0:0:
126,121,520,1,0,0:0:0:0:
132,152,620,1,0,0:0:0:0:
138,184,720,1,0,0:0:0:0:
143,215,820,6,0,L|75:268,2,85,8|0|0,0:0|0:0|0:0,0:0:0:0:
256,274,1420,2,0,L|256:362,2,85,8|0|0,0:0|0:0|0:0,0:0:0:0:
369,215,2020,1,0,0:0:0:0:
369,215,2120,1,0,0:0:0:0:
369,215,2220,1,0,0:0:0:0:
465,131,2420,5,0,0:0:0:0:
345,89,2620,2,0,P|267:69|181:84,1,170,8|0,0:0|0:0,0:0:0:0:
80,163,3220,2,0,P|108:191|151:208,1,85,8|0,0:0|0:0,0:0:0:0:
104,327,3620,2,0,P|142:337|187:330,1,85,8|0,0:0|0:0,0:0:0:0:
275,238,4020,6,0,P|313:227|358:234,2,85,8|0|0,0:0|0:0|0:0,0:0:0:0:
150,208,4620,2,0,P|122:180|105:137,2,85,8|0|0,0:0|0:0|0:0,0:0:0:0:
238,116,5220,1,0,0:0:0:0:
238,116,5320,1,0,0:0:0:0:
238,116,5420,1,0,0:0:0:0:
362,146,5620,5,0,0:0:0:0:
399,268,5820,2,0,P|340:326|243:345,1,170,8|0,0:0|0:0,0:0:0:0:
129,343,6420,2,0,L|75:334,1,42.5,8|0,0:0|0:0,0:0:0:0:
53,310,6620,6,0,L|40:226,2,85,8|0|0,0:0|0:0|0:0,0:0:0:0:
133,210,7220,2,0,L|146:126,2,85,8|0|0,0:0|0:0|0:0,0:0:0:0:
53,110,7820,1,0,0:0:0:0:
53,110,7920,1,0,0:0:0:0:
53,110,8020,1,0,0:0:0:0:
160,41,8220,5,0,0:0:0:0:
256,125,8420,2,0,P|338:129|428:66,1,170,8|0,0:0|0:0,0:0:0:0:
512,165,9020,2,0,L|485:249,1,85,8|0,0:0|0:0,0:0:0:0:
358,257,9420,2,0,L|331:341,1,85,8|0,0:0|0:0,0:0:0:0:
204,349,9820,6,0,P|162:355|119:354,2,85,8|0|0,0:0|0:0|0:0,0:0:0:0:
204,220,10420,2,0,P|161:213|119:214,2,85,8|0|0,0:0|0:0|0:0,0:0:0:0:
256,104,11020,1,0,0:0:0:0:
256,104,11120,1,0,0:0:0:0:
256,104,11220,1,0,0:0:0:0:
308,220,11420,5,0,0:0:0:0:
383,117,11620,2,0,P|424:174|425:273,1,170,8|0,0:0|0:0,0:0:0:0:
322,346,12220,2,0,L|268:337,1,42.5,8|0,0:0|0:0,0:0:0:0:
246,313,12420,6,0,L|162:329,2,85,8|0|0,0:0|0:0|0:0,0:0:0:0:
181,203,13020,2,0,L|97:187,2,85,8|0|0,0:0|0:0|0:0,0:0:0:0:
158,75,13620,1,0,0:0:0:0:
158,75,13720,1,0,0:0:0:0:
158,75,13820,1,0,0:0:0:0:
281,120,14020,5,0,0:0:0:0:
381,37,14220,2,0,L|431:202,1,170,8|0,0:0|0:0,0:0:0:0:
465,322,14820,2,0,P|423:341|371:343,1,85,8|0,0:0|0:0,0:0:0:0:
260,311,15220,2,0,P|222:284|194:240,1,85,8|0,0:0|0:0,0:0:0:0:
167,127,15620,6,0,P|171:81|195:35,2,85,8|0|0,0:0|0:0|0:0,0:0:0:0:
295,126,16220,2,0,P|290:80|266:34,2,85,8|0|0,0:0|0:0|0:0,0:0:0:0:
231,237,16820,1,0,0:0:0:0:
231,237,16920,1,0,0:0:0:0:
231,237,17020,1,0,0:0:0:0:
104,237,17220,5,0,0:0:0:0:
168,347,17420,2,0,P|246:363|325:324,1,170,8|0,0:0|0:0,0:0:0:0:
403,223,18020,2,0,L|434:178,1,42.5,8|0,0:0|0:0,0:0:0:0:
434,145,18220,6,0,L|383:78,1,85,8|0,0:0|0:0,0:0:0:0:
286,161,18620,1,0,0:0:0:0:
159,145,18820,2,0,L|108:78,1,85,8|0,0:0|0:0,0:0:0:0:
11,161,19220,1,0,0:0:0:0:
96,256,19420,2,0,L|83:296,1,42.5,8|0,0:0|0:0,0:0:0:0:
66,336,19620,6,0,P|145:363|234:342,1,170,8|0,0:0|0:0,0:0:0:0:
321,259,20220,2,0,P|403:241|482:268,1,170,8|0,0:0|0:0,0:0:0:0:
396,363,20820,1,0,0:0:0:0:
396,363,20920,1,0,0:0:0:0:
396,363,21020,1,0,0:0:0:0:
321,259,21220,5,0,0:0:0:0:
321,259,21420,2,0,P|303:176|330:97,1,170,8|0,0:0|0:0,0:0:0:0:
430,18,22020,2,0,P|447:100|420:179,1,170,8|8,0:0|0:0,0:0:0:0:
321,259,22620,1,0,0:0:0:0:
208,198,22820,6,0,P|128:170|46:188,1,170,8|0,0:0|0:0,0:0:0:0:
133,281,23420,2,0,P|160:201|142:119,1,170,8|0,0:0|0:0,0:0:0:0:
206,8,24020,1,0,0:0:0:0:
206,8,24120,1,0,0:0:0:0:
206,8,24220,1,0,0:0:0:0:
254,122,24420,5,0,0:0:0:0:
254,122,24620,2,0,P|336:139|415:111,1,170,8|0,0:0|0:0,0:0:0:0:
510,198,25220,2,0,L|501:240,1,42.5
491,281,25420,6,0,P|408:298|329:270,1,170,8|0,0:0|0:0,0:0:0:0:
202,271,26020,2,0,P|122:243|40:260,1,170,8|0,0:0|0:0,0:0:0:0:
115,364,26620,1,0,0:0:0:0:
115,364,26720,1,0,0:0:0:0:
115,364,26820,1,0,0:0:0:0:
202,271,27020,5,0,0:0:0:0:
202,271,27220,2,0,P|218:188|190:109,1,170,8|0,0:0|0:0,0:0:0:0:
325,109,27820,2,0,P|297:188|314:271,1,170,8|8,0:0|0:0,0:0:0:0:
401,364,28420,1,0,0:0:0:0:
438,242,28620,6,0,P|454:159|426:80,1,170,8|0,0:0|0:0,0:0:0:0:
304,118,29220,2,0,P|224:145|142:129,1,170,8|0,0:0|0:0,0:0:0:0:
33,62,29820,1,0,0:0:0:0:
33,62,29920,1,0,0:0:0:0:
33,62,30020,1,0,0:0:0:0:
28,189,30220,5,0,0:0:0:0:
23,316,30420,2,0,P|102:288|184:304,1,170,8|0,0:0|0:0,0:0:0:0:
299,361,31020,2,0,L|341:357,1,42.5
369,325,31220,6,0,P|396:245|380:163,1,170,8|0,0:0|0:0,0:0:0:0:
292,70,31820,2,0,P|265:149|281:232,1,170,8|0,0:0|0:0,0:0:0:0:
369,325,32420,1,0,0:0:0:0:
369,325,32520,1,0,0:0:0:0:
369,325,32620,1,0,0:0:0:0:
245,355,32820,5,0,0:0:0:0:
245,355,33020,2,0,P|166:327|84:343,1,170,8|0,0:0|0:0,0:0:0:0:
3,243,33620,2,0,P|62:184|143:164,1,170,8|8,0:0|0:0,0:0:0:0:
258,222,34220,1,0,0:0:0:0:
371,164,34420,6,0,P|453:184|513:243,1,170,8|0,0:0|0:0,0:0:0:0:
394,289,35020,2,0,L|478:139,1,170,8|0,0:0|0:0,0:0:0:0:
397,39,35620,1,0,0:0:0:0:
397,39,35720,1,0,0:0:0:0:
397,39,35820,1,0,0:0:0:0:
280,90,36020,5,0,0:0:0:0:
280,90,36220,2,0,P|200:117|118:101,1,170,8|0,0:0|0:0,0:0:0:0:
13,174,36820,2,0,L|20:215,1,42.5,8|0,0:0|0:0,0:0:0:0:
50,246,37020,6,0,L|101:313,1,85,8|0,0:0|0:0,0:0:0:0:
198,230,37420,1,0,0:0:0:0:
325,246,37620,2,0,L|376:313,1,85,8|0,0:0|0:0,0:0:0:0:
473,230,38020,1,0,0:0:0:0:
388,135,38220,2,0,L|401:95,1,42.5,8|0,0:0|0:0,0:0:0:0:
392,53,38420,6,0,L|308:41,1,85,8|0,0:0|0:0,0:0:0:0:
298,168,38820,1,0,0:0:0:0:
197,247,39020,2,0,L|113:235,1,85,8|0,0:0|0:0,0:0:0:0:
104,363,39420,1,0,0:0:0:0:
231,370,39620,2,0,L|269:353,1,42.5,8|0,0:0|0:0,0:0:0:0:
309,335,39820,6,0,L|393:347,2,85,8|0|0,0:0|0:0|0:0,0:0:0:0:
447,246,40420,2,0,L|363:258,2,85,8|0|0,0:0|0:0|0:0,0:0:0:0:
309,157,41020,1,0,0:0:0:0:
309,157,41120,1,0,0:0:0:0:
309,157,41220,1,0,0:0:0:0:
447,68,41420,5,0,0:0:0:0:
447,68,41620,2,0,L|363:80,2,85,8|0|0,0:0|0:0|0:0,0:0:0:0:
309,157,42220,2,0,L|224:157,1,85,8|0,0:0|0:0,0:0:0:0:
78,71,42620,2,0,L|162:83,1,85,8|0,0:0|0:0,0:0:0:0:
20,160,43020,6,0,L|48:80,2,85,8|0|0,0:0|0:0|0:0,0:0:0:0:
140,245,43620,2,0,L|112:165,2,85,8|0|0,0:0|0:0|0:0,0:0:0:0:
155,377,44220,1,0,0:0:0:0:
155,377,44320,1,0,0:0:0:0:
155,377,44420,1,0,0:0:0:0:
270,322,44620,5,0,0:0:0:0:
270,322,44820,2,0,L|355:313,2,85,8|0|0,0:0|0:0|0:0,0:0:0:0:
433,301,45420,2,0,L|473:288,1,42.5,8|0,0:0|0:0,0:0:0:0:
484,247,45620,6,0,L|489:162,2,85,8|0|0,0:0|0:0|0:0,0:0:0:0:
398,59,46220,2,0,L|403:144,2,85,8|0|0,0:0|0:0|0:0,0:0:0:0:
310,198,46820,1,0,0:0:0:0:
310,198,46920,1,0,0:0:0:0:
310,198,47020,1,0,0:0:0:0:
226,59,47220,5,0,0:0:0:0:
226,59,47420,2,0,L|231:144,2,85,8|0|0,0:0|0:0|0:0,0:0:0:0:
96,155,48020,2,0,L|101:240,1,85,8|0,0:0|0:0,0:0:0:0:
241,311,48420,2,0,L|236:226,1,85,8|0,0:0|0:0,0:0:0:0:
312,78,48820,6,0,L|396:90,2,85,8|0|0,0:0|0:0|0:0,0:0:0:0:
450,167,49420,2,0,L|366:179,2,85,8|0|0,0:0|0:0|0:0,0:0:0:0:
312,256,50020,1,0,0:0:0:0:
312,256,50120,1,0,0:0:0:0:
312,256,50220,1,0,0:0:0:0:
403,331,50420,5,0,0:0:0:0:
403,331,50620,2,0,L|319:343,2,85,8|0|0,0:0|0:0|0:0,0:0:0:0:
238,311,51220,2,0,L|206:338,1,42.5,8|0,0:0|0:0,0:0:0:0:
165,351,51420,6,0,P|88:330|30:264,1,170,8|0,0:0|0:0,0:0:0:0:
119,68,52020,2,0,P|160:140|152:223,1,170,8|0,0:0|0:0,0:0:0:0:
38,166,52620,1,0,0:0:0:0:
38,166,52720,1,0,0:0:0:0:
38,166,52820,1,0,0:0:0:0:
119,68,53020,5,0,0:0:0:0:
119,68,53220,2,0,L|203:76,2,85,8|0|0,0:0|0:0|0:0,0:0:0:0:
313,76,53820,2,0,L|396:68,1,85,8|0,0:0|0:0,0:0:0:0:
258,145,54220,2,0,L|258:230,1,85,8|0,0:0|0:0,0:0:0:0:
397,285,54620,6,0,B|415:203|415:203|381:164|339:177,1,170,2|0,0:0|0:0,0:0:0:0:
397,68,55220,2,0,B|415:151|415:151|381:190|339:177,1,170,2|0,0:0|0:0,0:0:0:0:
210,177,55820,1,0,0:0:0:0:
210,177,55920,1,0,0:0:0:0:
210,177,56020,1,0,0:0:0:0:
132,277,56220,5,0,0:0:0:0:
132,277,56420,2,0,L|61:224,2,85,2|0|0,0:0|0:0|0:0,0:0:0:0:
63,143,57020,2,0,L|103:114,1,42.5,2|0,0:0|0:0,0:0:0:0:
135,98,57220,6,0,B|183:153|183:153|236:160|278:131,1,170,2|0,0:0|0:0,0:0:0:0:
396,88,57820,2,0,B|348:33|348:33|295:26|255:53,1,170,2|0,0:0|0:0,0:0:0:0:
374,214,58420,1,0,0:0:0:0:
374,214,58520,1,0,0:0:0:0:
374,214,58620,1,0,0:0:0:0:
473,296,58820,5,0,0:0:0:0:
473,296,59020,2,0,L|399:340,2,85,2|0|0,0:0|0:0|0:0,0:0:0:0:
312,296,59620,2,0,L|238:340,1,85,2|0,0:0|0:0,0:0:0:0:
77,339,60020,2,0,L|151:296,1,85,2|0,0:0|0:0,0:0:0:0:
85,186,60420,6,0,B|47:146|57:76|57:76|107:88,1,170,2|0,0:0|0:0,0:0:0:0:
214,186,61020,2,0,B|252:146|242:76|242:76|192:88,1,170,2|0,0:0|0:0,0:0:0:0:
151,296,61620,1,0,0:0:0:0:
151,296,61720,1,0,0:0:0:0:
151,296,61820,1,0,0:0:0:0:
278,296,62020,5,0,0:0:0:0:
278,296,62220,2,0,L|352:340,2,85,2|0|0,0:0|0:0|0:0,0:0:0:0:
434,297,62820,2,0,L|476:322,1,42.5,2|0,0:0|0:0,0:0:0:0:
510,341,63020,5,14,0:0:0:0:
483,216,63220,1,0,0:0:0:0:
456,91,63420,1,0,0:0:0:0:
456,91,63620,5,12,0:0:0:0:
387,198,63820,1,0,0:0:0:0:
318,306,64020,1,0,0:0:0:0:
258,192,64220,2,0,L|258:138,2,42.5
198,306,64620,1,0,0:0:0:0:
198,306,64820,5,12,0:0:0:0:
129,198,65020,1,0,0:0:0:0:
60,91,65220,1,0,0:0:0:0:
33,216,65420,2,0,P|50:257|74:297,1,85,12|0,0:0|0:0,0:0:0:0:
198,306,65820,2,0,P|219:269|235:230,1,85,12|0,0:0|0:0,0:0:0:0:
322,136,66220,6,0,P|358:124|410:120,2,85,12|0|0,0:0|0:0|0:0,0:0:0:0:
194,136,66820,2,0,P|158:148|106:152,2,85,12|0|0,0:0|0:0|0:0,0:0:0:0:
258,25,67420,2,0,L|258:67,2,42.5
322,136,67820,5,0,0:0:0:0:
258,247,68020,1,12,0:0:0:0:
321,357,68220,2,0,P|362:370|404:374,1,85
235,365,68620,6,0,L|194:357,3,42.5,2|2|2|2,0:2|0:2|0:2|0:2,0:2:0:0:
154,343,69020,5,8,0:0:0:0:
149,312,69120,1,0,0:0:0:0:
143,281,69220,1,0,0:0:0:0:
137,249,69320,1,0,0:0:0:0:
132,218,69420,5,4,0:1:0:0:
256,192,69520,12,0,75220,0:0:0:0:
