osu file format v14

[General]
AudioFilename: audio.mp3
AudioLeadIn: 0
PreviewTime: -1
Countdown: 0
SampleSet: None
StackLeniency: 0.7
Mode: 0
LetterboxInBreaks: 0
WidescreenStoryboard: 0

[Editor]
DistanceSpacing: 0.6
BeatDivisor: 4
GridSize: 4
TimelineZoom: 1

[Metadata]
Title:gravey444rd (prod. fadedblackid)
TitleUnicode:gravey444rd (prod. fadedblackid)
Artist:David Shawty
ArtistUnicode:David Shawty
Creator:- titan
Version:tooth paste !
Source:
Tags:
BeatmapID:2073399
BeatmapSetID:991413

[Difficulty]
HPDrainRate:9
CircleSize:3
OverallDifficulty:9
ApproachRate:9
SliderMultiplier:2
SliderTickRate:2

[Events]
//Background and Video events
0,0,"grave.jpg",0,0
//Break Periods
//Storyboard Layer 0 (Background)
//Storyboard Layer 1 (Fail)
//Storyboard Layer 2 (Pass)
//Storyboard Layer 3 (Foreground)
//Storyboard Sound Samples

[TimingPoints]
65,400,4,2,0,40,1,0
12865,-100,4,2,0,70,0,0
25665,-100,4,2,0,90,0,0
38465,-100,4,2,0,60,0,0

[HitObjects]
256,192,9665,12,8,12065,0:0:0:0:
128,316,12865,6,0,L|132:264,1,50,0|0,1:0|0:0,0:0:0:0:
88,156,13065,2,0,L|84:104,1,50
176,32,13265,5,0,0:0:0:0:
348,80,13465,1,0,0:0:0:0:
256,200,13665,6,0,P|268:248|292:292,1,100,8|0,0:0|0:0,0:0:0:0:
404,196,14065,1,0,0:0:0:0:
404,196,14165,1,0,0:0:0:0:
404,196,14265,1,0,0:0:0:0:
200,120,14465,5,0,0:0:0:0:
376,64,14665,1,0,0:0:0:0:
316,272,14865,6,0,L|320:372,1,100,0|0,1:0|0:0,0:0:0:0:
428,172,15265,5,8,0:0:0:0:
456,168,15365,1,0,0:0:0:0:
484,164,15465,1,0,0:0:0:0:
228,124,15665,5,0,1:0:0:0:
200,120,15765,1,0,0:0:0:0:
172,116,15865,1,0,0:0:0:0:
336,64,16065,6,0,L|340:12,1,50,0|0,1:0|0:0,0:0:0:0:
392,152,16265,2,0,L|396:204,1,50
488,128,16465,5,0,0:0:0:0:
304,200,16665,1,0,0:0:0:0:
456,272,16865,6,0,B|452:312|452:312|416:368,1,100,8|0,0:0|0:0,0:0:0:0:
320,184,17265,1,0,1:0:0:0:
320,184,17365,1,0,0:0:0:0:
320,184,17465,1,0,0:0:0:0:
156,64,17665,5,0,0:0:0:0:
208,204,17865,1,0,0:0:0:0:
116,320,18065,5,0,1:0:0:0:
64,180,18265,1,0,0:0:0:0:
192,40,18465,6,0,L|244:44,1,50,8|0,0:0|0:0,0:0:0:0:
88,84,18665,2,0,P|44:84|-12:116,1,100,0|0,1:0|0:0,0:0:0:0:
68,184,18965,1,0,0:0:0:0:
68,184,19065,1,0,0:0:0:0:
32,348,19265,6,0,L|84:352,1,50,0|0,1:0|0:0,0:0:0:0:
192,308,19465,2,0,L|244:304,1,50
380,192,19665,5,0,0:0:0:0:
416,24,19865,1,0,0:0:0:0:
272,276,20065,6,0,P|284:324|308:368,1,100,8|0,0:0|0:0,0:0:0:0:
416,272,20465,1,0,0:0:0:0:
344,216,20565,5,0,0:0:0:0:
344,216,20665,1,0,0:0:0:0:
468,96,20865,5,0,0:0:0:0:
296,56,21065,1,0,0:0:0:0:
172,184,21265,5,0,1:0:0:0:
0,144,21465,1,0,0:0:0:0:
192,20,21665,5,8,0:0:0:0:
148,100,21765,5,0,0:0:0:0:
148,100,21865,1,0,0:0:0:0:
332,192,22065,5,0,1:0:0:0:
376,112,22165,5,0,0:0:0:0:
376,112,22265,1,0,0:0:0:0:
184,288,22465,6,0,L|188:340,1,50,0|0,1:0|0:0,0:0:0:0:
12,232,22665,2,0,L|16:180,1,50
180,72,22865,6,0,B|176:112|176:112|140:168,1,100
320,352,23265,5,8,0:0:0:0:
364,208,23465,1,0,0:0:0:0:
292,16,23665,5,0,1:0:0:0:
260,100,23765,5,0,0:0:0:0:
348,88,23865,5,0,0:0:0:0:
144,28,24065,2,0,L|44:32,1,100
8,188,24465,5,0,1:0:0:0:
84,332,24665,1,0,0:0:0:0:
288,256,24865,5,0,0:0:0:0:
268,128,24965,5,0,0:0:0:0:
280,88,25065,1,0,1:0:0:0:
400,316,25265,5,0,0:0:0:0:
420,188,25365,5,0,0:0:0:0:
408,148,25465,1,0,0:0:0:0:
152,56,25665,5,0,1:0:0:0:
124,80,26465,5,8,0:0:0:0:
280,168,26665,1,0,0:0:0:0:
452,112,26865,5,0,0:0:0:0:
452,112,26965,1,0,0:0:0:0:
452,112,27065,1,0,0:0:0:0:
212,240,27265,2,0,P|212:288|216:348,1,100
424,224,27665,6,0,P|416:136|332:60,1,200,0|8,1:0|0:0,0:0:0:0:
296,68,28165,1,0,0:0:0:0:
256,72,28265,1,0,0:0:0:0:
356,248,28465,5,0,1:0:0:0:
396,252,28565,1,0,0:0:0:0:
436,256,28665,1,0,0:0:0:0:
292,117,28865,6,0,L|296:65,1,50,0|0,1:0|0:0,0:0:0:0:
472,180,29065,2,0,L|476:232,1,50
324,280,29265,5,0,0:0:0:0:
420,64,29465,1,0,0:0:0:0:
416,348,29665,5,0,0:0:0:0:
384,176,29865,1,0,0:0:0:0:
512,0,30065,5,0,1:0:0:0:
436,200,30165,5,0,0:0:0:0:
444,84,30265,5,0,0:0:0:0:
464,332,30465,6,0,P|464:284|460:232,1,100
208,120,30865,5,0,1:0:0:0:
272,300,31065,1,0,0:0:0:0:
436,200,31265,5,8,0:0:0:0:
436,200,32065,5,0,1:0:0:0:
392,288,32165,5,0,0:0:0:0:
336,208,32265,5,0,0:0:0:0:
380,120,32365,5,0,0:0:0:0:
484,12,32465,6,0,P|480:60|480:112,1,100
396,348,32865,1,8,0:0:0:0:
242,194,33065,5,0,0:0:0:0:
452,138,33265,2,0,L|416:176,1,50
275,315,33465,5,0,0:0:0:0:
331,106,33665,1,0,0:0:0:0:
131,40,33865,5,0,0:0:0:0:
68,244,34065,2,0,L|168:252,1,100,0|0,1:0|0:0,0:0:0:0:
387,178,34465,5,8,0:0:0:0:
419,94,34565,5,0,0:0:0:0:
331,106,34665,5,0,0:0:0:0:
410,198,34865,5,0,1:0:0:0:
424,64,34965,5,0,0:0:0:0:
301,115,35065,5,0,0:0:0:0:
272,332,35265,5,0,1:0:0:0:
232,336,35365,1,0,0:0:0:0:
128,280,35465,5,0,0:0:0:0:
88,276,35565,1,0,0:0:0:0:
0,200,35665,6,0,B|-12:152|-12:108|24:136,1,100
280,232,36065,2,0,B|292:280|292:324|256:296,1,100,8|0,0:0|0:0,0:0:0:0:
104,68,36465,6,0,B|128:62|150:62|138:78,2,50,0|0|0,1:0|0:0|0:0,0:0:0:0:
100,164,38465,6,0,L|104:216,1,50,0|0,1:0|0:0,0:0:0:0:
160,300,38665,2,0,L|156:352,1,50
296,332,38865,6,0,P|296:284|300:232,1,100
212,48,39265,2,0,P|212:96|216:148,1,100,8|0,0:0|0:0,0:0:0:0:
352,100,39665,5,0,0:0:0:0:
352,100,39765,1,0,0:0:0:0:
352,100,39865,1,0,0:0:0:0:
276,260,40065,6,0,L|160:264,1,100
92,80,40465,2,0,L|208:84,1,100
316,248,40865,6,0,P|316:272|312:300,2,50,8|0|0,0:0|0:0|0:0,0:0:0:0:
204,344,41265,2,0,P|204:320|200:292,2,50
416,344,41665,6,0,L|420:292,1,50,0|0,1:0|0:0,0:0:0:0:
476,208,41865,2,0,L|472:156,1,50
352,24,42065,6,0,P|352:72|356:124,1,100
248,280,42465,2,0,P|248:232|244:180,1,100,8|0,0:0|0:0,0:0:0:0:
128,336,42865,5,0,1:0:0:0:
128,336,42965,1,0,0:0:0:0:
128,336,43065,1,0,0:0:0:0:
360,252,43265,6,0,L|476:256,1,100
268,144,43665,2,0,L|384:140,1,100,0|0,1:0|0:0,0:0:0:0:
256,348,44065,5,0,0:0:0:0:
216,352,44165,1,0,0:0:0:0:
176,356,44265,6,0,B|124:348|124:348|76:324,1,100,0|0,1:0|0:0,0:0:0:0:
164,232,44565,1,0,0:0:0:0:
164,232,44665,1,0,0:0:0:0:
