osu file format v14

[General]
AudioFilename: True Survivor.mp3
AudioLeadIn: 0
PreviewTime: 86839
Countdown: 1
SampleSet: Soft
StackLeniency: 0.7
Mode: 0
LetterboxInBreaks: 1
WidescreenStoryboard: 1

[Editor]
Bookmarks: 61269,68115
DistanceSpacing: 1
BeatDivisor: 4
GridSize: 4
TimelineZoom: 1.1

[Metadata]
Title:True Survivor
TitleUnicode:True Survivor
Artist:David Hasselhoff
ArtistUnicode:David Hasselhoff
Creator:Crimmi
Version:ezek's Hard
Source:Kung Fury
Tags:ezek Cancel Blue Dragon mtmcl whymeman Tari jyvii Kyshiro ktgster Laser Unicorns 80's Tribute Mitch Murder Jorgen Elofsson Synthwave
BeatmapID:715092
BeatmapSetID:321460

[Difficulty]
HPDrainRate:6
CircleSize:4
OverallDifficulty:6
ApproachRate:7
SliderMultiplier:1.6
SliderTickRate:2

[Events]
//Background and Video events
Video,0,"True Survivor (From Kung Fury).avi"
0,0,"kungfury-bc8fde63705f5d5b.png",0,0
//Break Periods
2,114423,118154
//Storyboard Layer 0 (Background)
//Storyboard Layer 1 (Fail)
//Storyboard Layer 2 (Pass)
//Storyboard Layer 3 (Foreground)
//Storyboard Sound Samples

[TimingPoints]
43350,402.684563758389,4,2,1,75,1,0
48182,-100,4,3,1,75,0,0
49792,-100,4,2,1,75,0,0
54625,-100,4,3,0,75,0,0
56034,-100,4,2,1,75,0,0
61269,-100,4,3,0,75,0,0
62678,-100,4,2,1,75,0,0
68115,-100,4,3,0,50,0,0
68920,-100,4,2,1,75,0,0
74155,-100,4,3,0,50,0,0
75564,-100,4,2,1,75,0,0
88450,-100,4,2,1,75,0,1
99725,-100,4,3,0,50,0,1
101336,-100,4,2,1,75,0,1
114222,-100,4,2,1,75,0,0
119054,-100,4,3,0,50,0,0
120665,-100,4,2,1,75,0,0
126101,-100,4,3,0,50,0,0
127108,-100,4,2,1,75,0,0
131940,-100,4,3,0,50,0,0
133551,-100,4,2,1,75,0,1
145027,-100,4,3,0,50,0,1
146437,-100,4,2,1,75,0,1
159323,-100,4,2,1,75,0,0
164407,-100,4,3,0,50,0,0
165766,-100,4,2,1,75,0,0
170799,-100,4,3,0,50,0,0
172209,-100,4,2,1,75,0,0
185094,-100,4,2,1,75,0,1
196772,-100,4,3,0,50,0,1
197980,-100,4,2,1,75,0,1
203215,-100,4,3,0,50,0,1
204423,-100,4,2,1,75,0,1
216101,-100,4,3,0,50,0,1
217309,-100,4,2,1,75,0,1
222343,-100,4,3,0,50,0,1
223752,-100,4,2,1,75,0,0

[Colours]
Combo1 : 238,238,238
Combo2 : 255,0,128
Combo3 : 0,255,128
Combo4 : 0,255,255

[HitObjects]
216,352,43349,5,0,0:0:0:0:
296,352,43551,1,0,0:0:0:0:
256,284,43752,2,0,L|256:124,1,160,2|0,0:0|0:0,0:0:0:0:
216,56,44356,2,0,B|168:32|168:32|60:32,1,160,2|0,0:0|0:0,0:0:0:0:
20,100,44960,1,0,0:0:0:0:
20,100,45162,1,0,0:0:0:0:
60,200,45363,2,0,B|104:224|140:208|172:192|216:216,1,160,2|0,0:0|0:0,0:0:0:0:
296,216,45967,2,0,B|340:192|372:208|408:224|452:200,1,160,2|0,0:0|0:0,0:0:0:0:
404,136,46571,5,0,0:0:0:0:
256,344,46974,1,2,0:0:0:0:
108,136,47376,1,0,0:0:0:0:
152,68,47578,1,2,0:0:0:0:
232,84,47779,1,0,0:0:0:0:
244,164,47980,1,0,0:0:0:0:
168,192,48182,5,8,0:0:0:0:
144,268,48383,2,0,L|120:348,1,80,0|4,0:0|0:0,0:0:0:0:
56,296,48786,1,0,0:0:0:0:
48,280,48886,1,0,0:0:0:0:
40,264,48987,1,4,0:0:0:0:
28,160,49188,1,0,0:0:0:0:
28,160,49390,1,2,0:0:0:0:
256,192,49792,6,0,L|256:112,1,80,4|0,0:0|0:0,0:0:0:0:
188,68,50195,2,0,P|256:32|324:68,2,160,10|0|10,0:0|0:0|0:0,0:0:0:0:
36,292,51403,1,0,0:0:0:0:
96,344,51605,1,0,0:0:0:0:
160,296,51806,1,10,0:0:0:0:
140,220,52007,1,0,0:0:0:0:
60,216,52209,1,0,0:0:0:0:
60,216,52410,1,0,0:0:0:0:
92,96,52611,2,0,L|172:84,1,80,8|0,0:0|0:0,0:0:0:0:
280,28,53014,6,0,B|304:64|292:104|292:104|376:96,1,160,0|8,0:0|0:0,0:0:0:0:
452,92,53618,1,0,0:0:0:0:
452,92,53819,2,0,P|476:160|432:232,1,160,0|8,0:0|0:0,0:0:0:0:
368,260,54625,1,4,0:0:0:0:
368,260,54725,1,0,0:0:0:0:
224,328,54927,1,0,0:0:0:0:
224,328,55027,1,4,0:0:0:0:
284,276,55229,1,0,0:0:0:0:
168,228,55430,2,0,B|120:224|92:196,1,80,0|4,0:0|0:0,0:0:0:0:
84,88,55833,2,0,B|132:92|160:120,1,80
264,220,56235,6,0,B|372:240|372:240|424:232,1,160,4|8,0:0|0:0,0:0:0:0:
484,184,56839,1,0,0:0:0:0:
428,128,57041,2,0,B|320:108|320:108|268:116,1,160,0|8,0:0|0:0,0:0:0:0:
196,140,57645,1,2,0:0:0:0:
56,324,58047,1,2,0:0:0:0:
68,248,58450,1,2,0:0:0:0:
144,240,58853,1,2,0:0:0:0:
172,308,59256,1,2,0:0:0:0:
120,356,59658,5,2,0:0:0:0:
244,304,59860,2,0,L|324:308,1,80,8|0,0:0|0:0,0:0:0:0:
360,236,60262,2,0,L|280:232,1,80
252,156,60665,2,0,L|336:160,2,80,8|0|0,0:0|0:0|0:0,0:0:0:0:
116,132,61269,1,0,0:0:0:0:
268,64,61470,1,4,0:0:0:0:
132,44,61672,1,0,0:0:0:0:
252,156,61873,1,4,0:0:0:0:
252,156,62276,1,4,0:0:0:0:
304,304,62477,1,0,0:0:0:0:
304,304,62678,6,0,P|256:300|228:280,1,80,4|0,0:0|0:0,0:0:0:0:
160,244,63081,2,0,P|88:264|64:340,2,160,8|0|8,0:0|0:0|0:0,0:0:0:0:
448,200,64289,2,0,P|476:160|476:128,1,80
396,140,64692,2,0,P|372:176|368:212,1,80,8|0,0:0|0:0,0:0:0:0:
388,288,65094,1,0,0:0:0:0:
388,288,65296,2,0,L|308:296,1,80,0|8,0:0|0:0,0:0:0:0:
172,304,65698,1,0,0:0:0:0:
96,280,65900,6,0,P|64:264|40:224,2,80,0|0|8,0:0|0:0|0:0,0:0:0:0:
248,320,66504,1,0,0:0:0:0:
200,216,66705,2,0,L|248:64,2,160,0|8|0,0:0|0:0|0:0,0:0:0:0:
352,44,67913,1,8,0:0:0:0:
428,72,68115,1,0,0:0:0:0:
360,152,68316,1,4,0:0:0:0:
472,216,68517,1,0,0:0:0:0:
372,300,68719,1,4,0:0:0:0:
256,232,68920,1,0,0:0:0:0:
136,148,69121,6,0,P|92:204|108:288,1,160,4|8,0:0|0:0,0:0:0:0:
208,352,69725,1,0,0:0:0:0:
252,284,69927,2,0,B|364:276|364:276|412:288,1,160,0|8,0:0|0:0,0:0:0:0:
460,348,70531,2,0,B|492:320|500:268|460:224|460:224|440:220,1,160
360,208,71135,1,8,0:0:0:0:
220,188,71336,2,0,B|176:220|124:232|124:232|72:212,1,160
12,160,71940,1,8,0:0:0:0:
72,108,72141,2,0,B|124:88|124:88|180:68|224:92,1,160
288,140,72745,6,0,B|332:164|388:144|388:144|440:124,2,160,8|0|8,0:0|0:0|0:0,0:0:0:0:
256,352,73954,1,0,0:0:0:0:
308,292,74155,1,0,0:0:0:0:
204,292,74356,1,4,0:0:0:0:
348,228,74558,1,0,0:0:0:0:
164,228,74759,1,4,0:0:0:0:
256,200,75162,1,4,0:0:0:0:
152,136,75564,6,0,B|184:136|232:124|328:208|468:4|256:-124|44:4|184:208|280:124|328:136|360:136,1,480,4|2,0:0|0:0,0:0:0:0:
420,84,76974,2,0,B|452:128|448:172|416:208|380:216|348:216|348:216|440:308,1,320,2|0,0:0|0:0,0:0:0:0:
496,360,77980,1,8,0:0:0:0:
180,300,78383,1,2,0:0:0:0:
112,260,78584,1,2,0:0:0:0:
48,212,78786,6,0,B|76:180|116:172|152:192|152:192|172:200|196:188,1,160,2|2,0:0|0:0,0:0:0:0:
264,144,79390,1,8,0:0:0:0:
468,108,79792,1,2,0:0:0:0:
400,304,80195,2,0,B|364:344|308:348|256:308|256:308|204:348|148:344|112:304,1,320,2|0,0:0|0:0,0:0:0:0:
56,248,81202,1,8,0:0:0:0:
308,76,81605,2,0,P|348:60|388:64,1,80,2|0,0:0|0:0,0:0:0:0:
456,100,82007,5,8,0:0:0:0:
328,168,82209,2,0,P|248:144|216:80,1,160,0|8,0:0|0:0,0:0:0:0:
16,216,83014,1,0,0:0:0:0:
60,288,83215,1,2,0:0:0:0:
112,228,83417,2,0,B|148:268|136:312|136:312|192:352,1,160,2|2,0:0|0:0,0:0:0:0:
480,184,84222,1,2,0:0:0:0:
480,176,84423,2,0,L|304:120,1,160,8|2,0:0|0:0,0:0:0:0:
252,100,85027,1,2,0:0:0:0:
180,64,85229,6,0,P|40:260|276:188,1,640,0|4,0:0|0:0,0:0:0:0:
276,180,87041,1,0,0:0:0:0:
272,76,87242,1,2,0:0:0:0:
272,76,87443,1,0,0:0:0:0:
368,116,87645,1,4,0:0:0:0:
368,116,87846,1,0,0:0:0:0:
468,160,88047,1,2,0:0:0:0:
468,160,88249,1,0,0:0:0:0:
440,260,88450,5,4,0:0:0:0:
72,260,88853,1,4,0:0:0:0:
64,144,89054,5,0,0:0:0:0:
112,80,89256,1,0,0:0:0:0:
188,100,89457,1,0,0:0:0:0:
224,28,89658,1,8,0:0:0:0:
148,172,89860,6,0,P|168:248|240:268,1,160
308,228,90464,1,8,0:0:0:0:
408,160,90665,2,0,P|444:144|484:148,1,80
456,260,91068,2,0,P|420:275|380:272,1,80,0|8,0:0|0:0,0:0:0:0:
260,240,91470,1,0,0:0:0:0:
260,240,91672,2,0,B|204:208|156:224|104:244,1,160,0|8,0:0|0:0,0:0:0:0:
108,324,92276,2,0,P|40:288|32:208,1,160
72,144,92880,1,8,0:0:0:0:
368,136,93282,6,0,L|448:148,1,80
436,228,93685,2,0,L|356:216,1,80,8|0,0:0|0:0,0:0:0:0:
384,60,94088,2,0,L|464:72,2,80,0|0|8,0:0|0:0|0:0,0:0:0:0:
292,44,94692,1,0,0:0:0:0:
368,136,94893,5,4,0:0:0:0:
36,296,95296,1,4,0:0:0:0:
168,296,95497,5,0,0:0:0:0:
216,232,95698,1,0,0:0:0:0:
296,232,95900,1,0,0:0:0:0:
344,296,96101,1,8,0:0:0:0:
168,296,96303,6,0,P|136:224|180:160,1,160
256,148,96907,1,8,0:0:0:0:
380,132,97108,2,0,P|424:144|452:164,1,80
408,264,97511,2,0,P|364:252|336:232,1,80,0|8,0:0|0:0,0:0:0:0:
256,148,97913,1,0,0:0:0:0:
256,148,98115,2,0,P|216:88|132:76,1,160,0|8,0:0|0:0,0:0:0:0:
56,52,98719,2,0,B|36:96|72:148|116:156|116:156|132:172,1,160
184,236,99323,1,8,0:0:0:0:
400,324,99725,6,0,P|420:292|416:252,1,80,4|0,0:0|0:0,0:0:0:0:
360,192,100128,1,4,0:0:0:0:
348,180,100531,2,0,L|264:168,1,80,4|0,0:0|0:0,0:0:0:0:
192,152,100933,1,4,0:0:0:0:
192,152,101135,1,0,0:0:0:0:
64,116,101336,2,0,P|108:60|192:56,1,160,4|8,0:0|0:0,0:0:0:0:
256,104,101940,1,0,0:0:0:0:
320,56,102141,2,0,P|404:60|448:116,1,160,0|8,0:0|0:0,0:0:0:0:
460,196,102745,1,0,0:0:0:0:
460,196,102947,5,0,0:0:0:0:
184,336,103349,1,8,0:0:0:0:
72,312,103551,1,0,0:0:0:0:
156,232,103752,1,0,0:0:0:0:
156,232,104155,1,8,0:0:0:0:
76,184,104558,6,0,P|132:140|216:160,1,160,0|8,0:0|0:0,0:0:0:0:
272,212,105162,1,0,0:0:0:0:
336,260,105363,2,0,P|396:304|476:284,1,160,0|8,0:0|0:0,0:0:0:0:
504,212,105967,1,0,0:0:0:0:
504,132,106168,2,0,P|448:88|364:108,1,160,0|8,0:0|0:0,0:0:0:0:
192,340,106974,1,0,0:0:0:0:
192,340,107376,1,8,0:0:0:0:
440,192,107779,5,4,0:0:0:0:
72,192,108182,1,4,0:0:0:0:
156,96,108383,6,0,L|236:80,1,80
312,104,108786,2,0,L|392:88,1,80,0|8,0:0|0:0,0:0:0:0:
256,164,109188,6,0,B|296:196|356:180|356:180|424:164,1,160
488,148,109792,1,8,0:0:0:0:
460,224,109994,2,0,L|448:304,1,80
409,167,110396,2,0,L|421:87,1,80,0|8,0:0|0:0,0:0:0:0:
340,200,110799,1,0,0:0:0:0:
340,200,111001,2,0,B|284:236|240:248|192:216,1,160,0|8,0:0|0:0,0:0:0:0:
128,168,111605,1,0,0:0:0:0:
128,168,112007,1,0,0:0:0:0:
256,192,112209,12,4,114223,0:0:0:0:
220,136,119054,6,0,L|220:96,1,40,0|8,0:0|0:0,0:0:0:0:
292,248,119356,2,0,L|292:288,1,40,0|4,0:0|0:0,0:0:0:0:
292,176,119658,1,0,0:0:0:0:
292,96,119860,2,0,P|328:68|368:64,2,80,0|0|8,0:0|0:0|0:0,0:0:0:0:
356,144,120464,1,0,0:0:0:0:
416,196,120665,2,0,P|376:220|340:220,1,80,4|0,0:0|0:0,0:0:0:0:
236,184,121068,1,8,0:0:0:0:
184,124,121269,1,0,0:0:0:0:
184,124,121470,2,0,P|156:184|208:256,1,160,0|8,0:0|0:0,0:0:0:0:
456,312,122276,6,0,P|472:284|480:236,1,80
376,200,122678,2,0,P|360:228|352:276,1,80,8|0,0:0|0:0,0:0:0:0:
456,312,123081,2,0,P|472:284|480:236,2,80,0|0|8,0:0|0:0|0:0,0:0:0:0:
320,352,123685,5,0,0:0:0:0:
192,352,123886,1,0,0:0:0:0:
128,240,124088,1,0,0:0:0:0:
192,128,124289,1,8,0:0:0:0:
320,128,124490,1,0,0:0:0:0:
384,240,124692,1,0,0:0:0:0:
128,240,125094,6,0,L|48:240,1,80,8|0,0:0|0:0,0:0:0:0:
192,128,125497,2,0,B|188:88|188:88|164:56,1,80
320,128,125900,2,0,B|324:88|324:88|348:56,1,80,8|0,0:0|0:0,0:0:0:0:
384,240,126303,2,0,L|464:240,1,80,4|0,0:0|0:0,0:0:0:0:
256,244,126705,1,0,0:0:0:0:
256,244,126907,1,0,0:0:0:0:
156,144,127108,6,0,B|112:88|88:104|64:120|20:64,1,160,4|8,0:0|0:0,0:0:0:0:
100,28,127712,2,0,B|108:92|84:100|60:108|72:180,1,160
96,312,128316,1,8,0:0:0:0:
96,312,128517,2,0,P|160:348|244:332,1,160
312,292,129121,1,8,0:0:0:0:
312,292,129323,1,0,0:0:0:0:
304,68,129725,1,0,0:0:0:0:
88,128,130128,1,0,0:0:0:0:
88,128,130531,1,0,0:0:0:0:
64,240,130732,6,0,L|20:308,1,80,8|0,0:0|0:0,0:0:0:0:
136,256,131135,2,0,L|180:188,1,80
200,296,131537,2,0,L|156:364,1,80,8|0,0:0|0:0,0:0:0:0:
240,232,131940,5,2,0:0:0:0:
240,232,132141,1,0,0:0:0:0:
284,144,132343,1,4,0:0:0:0:
284,144,132544,1,0,0:0:0:0:
336,60,132745,1,2,0:0:0:0:
336,60,132946,1,0,0:0:0:0:
432,100,133148,1,4,0:0:0:0:
432,100,133349,1,0,0:0:0:0:
440,216,133551,5,4,0:0:0:0:
72,216,133954,1,4,0:0:0:0:
148,312,134155,5,0,0:0:0:0:
216,352,134356,1,0,0:0:0:0:
296,352,134558,1,0,0:0:0:0:
364,312,134759,1,8,0:0:0:0:
256,216,134960,6,0,L|256:56,1,160
184,92,135564,1,8,0:0:0:0:
328,92,135766,1,0,0:0:0:0:
184,168,135967,2,0,P|136:152|116:124,1,80
328,168,136370,2,0,P|376:152|396:124,1,80,8|0,0:0|0:0,0:0:0:0:
256,56,136772,2,0,L|256:216,1,160,0|8,0:0|0:0,0:0:0:0:
188,260,137376,2,0,P|256:296|324:260,1,160
360,188,137980,1,8,0:0:0:0:
124,280,138383,6,0,B|84:268|84:268|44:268,1,80
24,192,138786,2,0,L|108:192,1,80,8|0,0:0|0:0,0:0:0:0:
124,104,139188,2,0,B|84:116|84:116|44:116,2,80,0|0|8,0:0|0:0|0:0,0:0:0:0:
208,64,139792,1,0,0:0:0:0:
340,36,139994,5,4,0:0:0:0:
480,352,140396,1,4,0:0:0:0:
336,344,140598,5,0,0:0:0:0:
256,328,140799,1,0,0:0:0:0:
180,308,141001,1,0,0:0:0:0:
104,288,141202,1,8,0:0:0:0:
20,180,141403,6,0,B|52:120|52:120|140:96,1,160
220,76,142007,1,8,0:0:0:0:
344,48,142209,2,0,B|384:36|384:36|420:48,1,80
508,144,142612,2,0,B|468:156|468:156|432:144,1,80,0|8,0:0|0:0,0:0:0:0:
300,112,143015,1,0,0:0:0:0:
300,112,143215,2,0,B|256:116|224:144|224:144|176:152|152:176,1,160,0|8,0:0|0:0,0:0:0:0:
88,216,143819,2,0,P|88:284|160:328,1,160
240,316,144423,1,8,0:0:0:0:
240,316,144826,6,0,L|256:236,1,80
328,204,145229,2,0,L|344:124,2,80,8|0|4,0:0|0:0|0:0,0:0:0:0:
316,284,145833,1,0,0:0:0:0:
260,152,146034,1,2,0:0:0:0:
412,184,146235,1,0,0:0:0:0:
384,316,146437,2,0,P|340:356|252:324,1,160,4|8,0:0|0:0,0:0:0:0:
316,284,147041,1,0,0:0:0:0:
248,252,147242,2,0,P|292:212|380:244,2,160,0|8|0,0:0|0:0|0:0,0:0:0:0:
24,44,148450,5,8,0:0:0:0:
112,120,148652,1,0,0:0:0:0:
212,56,148853,1,0,0:0:0:0:
212,56,149256,1,8,0:0:0:0:
284,36,149658,6,0,B|292:96|240:124|240:124|296:160,1,160,0|8,0:0|0:0,0:0:0:0:
360,184,150262,1,0,0:0:0:0:
436,208,150464,2,0,P|452:268|400:348,1,160,0|8,0:0|0:0,0:0:0:0:
324,352,151068,1,0,0:0:0:0:
208,324,151269,2,0,B|164:312|128:324|128:324|88:336|48:320,1,160,0|8,0:0|0:0,0:0:0:0:
292,152,152074,2,0,B|336:140|372:152|372:152|412:164|452:148,1,160,0|8,0:0|0:0,0:0:0:0:
144,136,152880,5,4,0:0:0:0:
476,296,153283,1,4,0:0:0:0:
344,328,153484,5,0,0:0:0:0:
296,264,153685,1,0,0:0:0:0:
216,264,153886,1,0,0:0:0:0:
168,328,154088,1,8,0:0:0:0:
48,256,154289,6,0,B|20:216|28:168|28:168|40:96,1,160
100,48,154893,1,8,0:0:0:0:
204,112,155094,2,0,P|240:128|284:124,1,80
348,40,155497,2,0,P|312:24|268:28,2,80,0|8|0,0:0|0:0|0:0,0:0:0:0:
448,116,156101,2,0,B|420:168|420:168|384:192|384:192|360:244,1,160,0|8,0:0|0:0,0:0:0:0:
328,320,156705,1,0,0:0:0:0:
328,320,157108,1,0,0:0:0:0:
256,192,157309,12,0,158920,0:0:0:0:
24,48,159323,6,0,B|92:48|92:48|120:64|120:64|180:64,1,160,4|8,0:0|0:0,0:0:0:0:
256,88,159927,1,0,0:0:0:0:
332,64,160128,2,0,B|392:64|392:64|420:48|420:48|488:48,1,160,0|8,0:0|0:0,0:0:0:0:
496,172,160732,1,0,0:0:0:0:
460,280,160933,1,0,0:0:0:0:
460,280,161135,2,0,P|424:312|392:320,1,80,0|8,0:0|0:0,0:0:0:0:
316,304,161537,1,0,0:0:0:0:
244,272,161739,2,0,P|160:264|116:324,1,160,0|8,0:0|0:0,0:0:0:0:
196,336,162343,1,0,0:0:0:0:
64,260,162544,6,0,B|52:200|52:200|76:100,1,160,0|8,0:0|0:0,0:0:0:0:
112,32,163148,1,0,0:0:0:0:
188,60,163349,2,0,B|224:68|256:100|256:100|288:68|324:60,1,160,0|8,0:0|0:0,0:0:0:0:
396,24,163954,2,0,P|404:56|392:100,1,80
340,192,164356,2,0,P|332:224|344:268,1,80,0|8,0:0|0:0,0:0:0:0:
188,352,164860,1,0,0:0:0:0:
188,352,164960,1,8,0:0:0:0:
88,288,165162,1,0,0:0:0:0:
208,236,165363,1,2,0:0:0:0:
208,236,165766,6,0,P|220:160|160:116,1,160,4|8,0:0|0:0,0:0:0:0:
144,196,166370,1,0,0:0:0:0:
144,196,166571,2,0,L|296:144,1,160,0|8,0:0|0:0,0:0:0:0:
408,100,167175,1,0,0:0:0:0:
408,100,167376,2,0,P|460:156|460:236,1,160,0|8,0:0|0:0,0:0:0:0:
420,304,167980,1,0,0:0:0:0:
356,352,168182,1,0,0:0:0:0:
232,324,168383,5,2,0:0:0:0:
160,304,168786,1,2,0:0:0:0:
160,228,169188,1,2,0:0:0:0:
228,204,169591,1,2,0:0:0:0:
280,260,169994,1,2,0:0:0:0:
216,264,170396,1,2,0:0:0:0:
344,192,170799,6,0,L|368:116,1,80
256,108,171202,2,0,L|256:24,1,80,0|4,0:0|0:0,0:0:0:0:
168,192,171605,2,0,L|144:116,1,80,0|8,0:0|0:0,0:0:0:0:
136,344,172209,6,0,B|176:364|216:352|236:324|256:180|256:180|276:324|296:352|336:364|376:344,1,480,4|2,0:0|0:0,0:0:0:0:
444,320,173618,1,2,0:0:0:0:
216,36,175027,5,2,0:0:0:0:
296,36,175229,1,2,0:0:0:0:
256,104,175430,2,0,L|256:264,1,160,2|2,0:0|0:0,0:0:0:0:
256,344,176034,1,2,0:0:0:0:
364,224,176437,1,2,0:0:0:0:
148,224,176839,1,2,0:0:0:0:
216,352,178249,5,2,0:0:0:0:
296,348,178450,1,2,0:0:0:0:
256,280,178652,2,0,L|256:40,1,240,4|2,0:0|0:0,0:0:0:0:
336,88,179860,5,2,0:0:0:0:
368,160,180061,2,0,P|412:104|384:28,1,160,2|2,0:0|0:0,0:0:0:0:
336,88,180866,2,0,B|300:112|276:136|276:200|320:240|372:236|372:236|400:252|400:252,1,240,2|2,0:0|0:0,0:0:0:0:
452,304,181672,1,2,0:0:0:0:
216,332,183484,6,0,P|180:344|140:332,1,80,4|0,0:0|0:0,0:0:0:0:
296,264,183886,2,0,P|332:252|372:264,1,80,2|0,0:0|0:0,0:0:0:0:
180,268,184289,1,4,0:0:0:0:
184,240,184490,1,0,0:0:0:0:
332,328,184692,1,2,0:0:0:0:
328,356,184893,1,0,0:0:0:0:
440,240,185094,5,4,0:0:0:0:
72,240,185497,1,4,0:0:0:0:
116,140,185698,5,0,0:0:0:0:
192,112,185900,1,0,0:0:0:0:
256,160,186101,1,0,0:0:0:0:
320,112,186303,1,8,0:0:0:0:
396,140,186505,1,0,0:0:0:0:
440,240,186705,2,0,B|428:288|372:304|328:272|328:272|320:292,1,160,0|8,0:0|0:0,0:0:0:0:
256,340,187309,1,0,0:0:0:0:
192,292,187511,2,0,B|184:272|184:272|140:304|84:288|72:240,1,160,0|8,0:0|0:0,0:0:0:0:
136,192,188115,5,0,0:0:0:0:
72,144,188316,2,0,B|84:96|140:80|184:112|184:112|192:92,1,160,0|8,0:0|0:0,0:0:0:0:
256,44,188920,1,0,0:0:0:0:
320,92,189122,2,0,B|328:112|328:112|372:80|428:96|440:144,2,160,0|8|0,0:0|0:0|0:0,0:0:0:0:
256,344,190329,1,8,0:0:0:0:
200,276,190531,1,0,0:0:0:0:
312,276,190732,1,0,0:0:0:0:
256,200,190933,1,0,0:0:0:0:
256,200,191135,1,8,0:0:0:0:
256,120,191336,1,0,0:0:0:0:
324,76,191537,6,0,P|256:40|188:76,1,160,4|4,0:0|0:0,0:0:0:0:
120,168,192141,2,0,L|40:168,2,80
152,240,192745,1,8,0:0:0:0:
216,288,192947,1,0,0:0:0:0:
296,288,193148,1,0,0:0:0:0:
360,240,193350,1,0,0:0:0:0:
392,168,193552,2,0,L|472:168,2,80,8|0|0,0:0|0:0|0:0,0:0:0:0:
312,168,194155,1,0,0:0:0:0:
312,168,194356,6,0,L|312:88,2,80,8|0|0,0:0|0:0|0:0,0:0:0:0:
256,212,194960,2,0,L|256:292,2,80,0|8|0,0:0|0:0|0:0,0:0:0:0:
200,168,195564,2,0,L|200:88,2,80,0|0|8,0:0|0:0|0:0,0:0:0:0:
256,192,196168,12,8,197578,0:0:0:0:
72,260,197980,5,4,0:0:0:0:
440,260,198383,1,4,0:0:0:0:
448,144,198584,5,0,0:0:0:0:
400,80,198786,1,0,0:0:0:0:
324,100,198987,1,0,0:0:0:0:
288,28,199188,1,8,0:0:0:0:
364,172,199390,6,0,P|344:248|272:268,1,160
204,228,199994,1,8,0:0:0:0:
104,160,200195,2,0,P|68:144|28:148,1,80
56,260,200598,2,0,P|92:275|132:272,1,80,0|8,0:0|0:0,0:0:0:0:
252,240,201000,1,0,0:0:0:0:
252,240,201202,2,0,B|308:208|356:224|408:244,1,160,0|8,0:0|0:0,0:0:0:0:
404,324,201806,2,0,P|472:288|480:208,1,160
440,144,202410,1,8,0:0:0:0:
144,136,202812,6,0,L|64:148,1,80
76,228,203215,2,0,L|156:216,1,80
128,60,203618,2,0,L|48:72,2,80
220,44,204222,1,0,0:0:0:0:
144,136,204423,5,4,0:0:0:0:
476,296,204826,1,4,0:0:0:0:
344,296,205027,5,0,0:0:0:0:
296,232,205228,1,0,0:0:0:0:
216,232,205430,1,0,0:0:0:0:
168,296,205631,1,8,0:0:0:0:
344,296,205833,2,0,P|376:224|332:160,1,160
256,148,206437,1,8,0:0:0:0:
132,132,206638,2,0,P|88:144|60:164,1,80
104,264,207041,2,0,P|148:252|176:232,1,80,0|8,0:0|0:0,0:0:0:0:
256,148,207443,5,0,0:0:0:0:
256,148,207645,2,0,P|296:88|380:76,1,160,0|8,0:0|0:0,0:0:0:0:
456,52,208249,2,0,B|476:96|440:148|396:156|396:156|380:172,1,160
328,236,208853,1,8,0:0:0:0:
112,324,209255,6,0,P|92:292|96:252,1,80
152,192,209658,1,8,0:0:0:0:
164,180,210061,2,0,L|248:168,1,80
320,152,210463,1,8,0:0:0:0:
320,152,210665,1,0,0:0:0:0:
448,116,210866,6,0,P|404:60|320:56,1,160,4|8,0:0|0:0,0:0:0:0:
256,104,211470,1,0,0:0:0:0:
192,56,211671,2,0,P|108:60|64:116,1,160,0|8,0:0|0:0,0:0:0:0:
52,196,212275,1,0,0:0:0:0:
52,196,212477,1,0,0:0:0:0:
328,336,212879,1,8,0:0:0:0:
440,312,213081,1,0,0:0:0:0:
356,232,213282,1,0,0:0:0:0:
356,232,213685,1,8,0:0:0:0:
436,184,214088,6,0,P|380:140|296:160,1,160,0|8,0:0|0:0,0:0:0:0:
240,212,214692,1,0,0:0:0:0:
176,260,214893,2,0,P|116:304|36:284,1,160,0|8,0:0|0:0,0:0:0:0:
8,212,215497,1,0,0:0:0:0:
8,132,215698,2,0,P|64:88|148:108,1,160
320,340,216504,1,8,0:0:0:0:
216,312,216705,1,0,0:0:0:0:
296,240,216907,1,4,0:0:0:0:
72,192,217309,5,4,0:0:0:0:
440,192,217712,1,4,0:0:0:0:
356,96,217913,6,0,L|276:80,1,80
200,104,218316,2,0,L|120:88,1,80,0|8,0:0|0:0,0:0:0:0:
256,164,218718,6,0,B|216:196|156:180|156:180|88:164,1,160
24,148,219322,1,8,0:0:0:0:
52,224,219524,2,0,L|64:304,1,80
103,167,219926,2,0,L|91:87,1,80,0|8,0:0|0:0,0:0:0:0:
172,200,220329,5,0,0:0:0:0:
172,200,220531,2,0,B|228:236|272:248|320:216,1,160,0|8,0:0|0:0,0:0:0:0:
384,168,221135,1,0,0:0:0:0:
384,168,221537,1,0,0:0:0:0:
256,192,221739,12,4,223753,0:0:0:0:
