osu file format v14

[General]
AudioFilename: True Survivor.mp3
AudioLeadIn: 0
PreviewTime: 86839
Countdown: 1
SampleSet: Soft
StackLeniency: 0.7
Mode: 0
LetterboxInBreaks: 1
WidescreenStoryboard: 1

[Editor]
DistanceSpacing: 1
BeatDivisor: 4
GridSize: 4
TimelineZoom: 1.8

[Metadata]
Title:True Survivor
TitleUnicode:True Survivor
Artist:David Hasselhoff
ArtistUnicode:David Hasselhoff
Creator:Crimmi
Version:Tough
Source:Kung Fury
Tags:ezek Cancel Blue Dragon mtmcl whymeman Tari jyvii Kyshiro ktgster Laser Unicorns 80's Tribute Mitch Murder Jorgen Elofsson Synthwave
BeatmapID:881191
BeatmapSetID:321460

[Difficulty]
HPDrainRate:8
CircleSize:6
OverallDifficulty:9
ApproachRate:9
SliderMultiplier:1.8
SliderTickRate:2

[Events]
//Background and Video events
Video,0,"True Survivor (From Kung Fury).avi"
0,0,"kungfury-bc8fde63705f5d5b.png",0,0
//Break Periods
2,114422,118454
//Storyboard Layer 0 (Background)
//Storyboard Layer 1 (Fail)
//Storyboard Layer 2 (Pass)
//Storyboard Layer 3 (Foreground)
//Storyboard Sound Samples

[TimingPoints]
43350,402.684563758389,4,2,1,75,1,0
48182,-100,4,3,0,75,0,0
49792,-100,4,2,1,75,0,0
54625,-100,4,3,0,75,0,0
56034,-100,4,2,1,75,0,0
61269,-100,4,3,0,75,0,0
62678,-100,4,2,1,75,0,0
68115,-100,4,3,0,50,0,0
68920,-100,4,2,1,75,0,0
74155,-100,4,3,0,50,0,0
75564,-100,4,2,1,75,0,0
85229,-100,4,2,1,20,0,0
85631,-100,4,2,1,30,0,0
86034,-100,4,2,1,40,0,0
86437,-100,4,2,1,50,0,0
86839,-100,4,2,1,60,0,0
87242,-100,4,2,1,70,0,0
87645,-100,4,2,1,80,0,0
88047,-100,4,2,1,90,0,0
88450,-100,4,2,1,75,0,1
99725,-100,4,3,0,50,0,1
101336,-100,4,2,1,75,0,1
114222,-100,4,2,1,75,0,0
119054,-100,4,3,0,50,0,0
120665,-100,4,2,1,75,0,0
126101,-100,4,3,0,50,0,0
127108,-100,4,2,1,75,0,0
131940,-100,4,3,0,50,0,0
133551,-100,4,2,1,75,0,1
145027,-100,4,3,0,50,0,1
146437,-100,4,2,1,75,0,1
159323,-100,4,2,1,75,0,0
164407,-100,4,3,0,50,0,0
165766,-100,4,2,1,75,0,0
170799,-100,4,3,0,50,0,0
172209,-100,4,2,1,75,0,0
185094,-100,4,2,1,75,0,1
196772,-100,4,3,0,50,0,1
197980,-100,4,2,1,75,0,1
203215,-100,4,3,0,50,0,1
204423,-100,4,2,1,75,0,1
216101,-100,4,3,0,50,0,1
217309,-100,4,2,1,75,0,1
222343,-100,4,3,0,50,0,1
223752,-100,4,2,1,75,0,0

[Colours]
Combo1 : 238,238,238
Combo2 : 255,0,128
Combo3 : 0,255,128
Combo4 : 0,255,255

[HitObjects]
133,155,43349,5,0,0:0:0:0:
378,228,43551,1,0,0:0:0:0:
256,32,43752,2,0,P|208:56|128:176,1,180,2|0,0:0|0:0,0:0:0:0:
256,352,44356,2,0,P|304:328|384:208,1,180,2|0,0:0|0:0,0:0:0:0:
254,30,44960,1,0,0:0:0:0:
255,351,45162,1,0,0:0:0:0:
377,154,45363,2,0,P|330:78|255:31,1,180,2|0,0:0|0:0,0:0:0:0:
133,228,45967,2,0,P|180:304|256:352,1,180,2|0,0:0|0:0,0:0:0:0:
432,272,46571,5,0,0:0:0:0:
256,192,46772,1,0,0:0:0:0:
256,352,46974,2,0,P|320:288|344:192,1,180,2|0,0:0|0:0,0:0:0:0:
176,112,47578,2,0,P|108:170|78:254,1,180,2|0,0:0|0:0,0:0:0:0:
88,272,48081,1,2,0:0:0:0:
96,288,48182,5,8,0:0:0:0:
264,168,48383,1,4,0:0:0:0:
280,368,48584,1,8,0:0:0:0:
96,288,48786,1,0,0:0:0:0:
104,272,48886,1,0,0:0:0:0:
112,256,48987,1,8,0:0:0:0:
344,304,49188,1,0,0:0:0:0:
136,160,49390,1,2,0:0:0:0:
368,208,49591,1,0,0:0:0:0:
280,200,49792,6,0,P|304:152|352:128,1,90,4|0,0:0|0:0,0:0:0:0:
368,208,50195,2,0,P|328:272|288:288,1,90,2|0,0:0|0:0,0:0:0:0:
384,336,50598,2,0,L|200:264,1,180,0|2,0:0|0:0,0:0:0:0:
136,232,51202,1,0,0:0:0:0:
136,320,51403,2,0,L|96:144,1,180,0|2,0:0|0:0,0:0:0:0:
72,56,52007,2,0,B|128:80|184:40|184:40|264:72,1,180
328,88,52611,1,2,0:0:0:0:
264,152,52813,1,0,0:0:0:0:
240,64,53014,6,0,P|184:112|200:224,1,180,0|2,0:0|0:0,0:0:0:0:
264,152,53618,1,0,0:0:0:0:
312,232,53819,2,0,L|104:248,1,180,0|2,0:0|0:0,0:0:0:0:
40,248,54423,1,0,0:0:0:0:
88,176,54625,2,0,L|136:152,1,45,4|0,0:0|0:0,0:0:0:0:
152,72,54927,2,0,L|216:112,1,45,0|8,0:0|0:0,0:0:0:0:
240,168,55229,2,0,L|312:144,1,45,0|4,0:0|0:0,0:0:0:0:
324,136,55430,1,4,0:0:0:0:
480,60,55631,1,8,0:0:0:0:
464,236,55833,1,2,0:0:0:0:
324,136,56034,6,0,P|288:104|156:160,1,180,4|0,0:0|0:0,0:0:0:0:
104,192,56638,1,2,0:0:0:0:
72,108,56839,2,0,L|104:304,1,180
120,372,57443,1,2,0:0:0:0:
180,304,57645,2,0,B|236:288|280:344|280:344|368:320,1,180
232,204,58249,1,0,0:0:0:0:
304,96,58450,1,2,0:0:0:0:
468,220,58853,1,0,0:0:0:0:
208,244,59256,2,0,P|168:272|48:224,1,180
136,192,59860,5,2,0:0:0:0:
216,148,60061,1,0,0:0:0:0:
212,236,60262,2,0,L|304:272,1,90
456,248,60665,2,0,L|336:208,1,90,2|0,0:0|0:0,0:0:0:0:
292,188,61068,1,0,0:0:0:0:
368,140,61269,2,0,P|320:104|204:156,1,180,4|0,0:0|0:0,0:0:0:0:
396,220,61873,2,0,P|440:172|400:68,1,180,8|2,0:0|0:0,0:0:0:0:
352,144,62477,1,0,0:0:0:0:
308,224,62678,6,0,L|220:204,1,90,4|0,0:0|0:0,0:0:0:0:
156,140,63081,2,0,P|128:204|136:256,1,90,2|0,0:0|0:0,0:0:0:0:
52,272,63484,2,0,L|252:328,1,180,0|2,0:0|0:0,0:0:0:0:
312,296,64088,1,0,0:0:0:0:
396,328,64289,2,0,P|388:260|352:216,1,90
292,136,64692,2,0,P|300:204|336:248,1,90,2|0,0:0|0:0,0:0:0:0:
368,172,65094,1,0,0:0:0:0:
336,292,65296,1,0,0:0:0:0:
420,256,65497,2,0,L|232:208,1,180,2|0,0:0|0:0,0:0:0:0:
160,188,66101,5,0,0:0:0:0:
180,276,66303,1,2,0:0:0:0:
96,244,66504,1,0,0:0:0:0:
180,276,66705,2,0,B|224:256|288:304|288:304|368:280,1,180,0|2,0:0|0:0,0:0:0:0:
432,252,67309,1,0,0:0:0:0:
356,200,67511,2,0,P|348:140|352:104,2,90,0|0|2,0:0|0:0|0:0,0:0:0:0:
432,156,68115,1,4,0:0:0:0:
272,152,68316,1,0,0:0:0:0:
356,272,68517,1,8,0:0:0:0:
352,40,68719,1,2,0:0:0:0:
272,152,68920,6,0,P|240:184|192:56,1,270,4|0,0:0|0:0,0:0:0:0:
212,120,69725,2,0,L|56:256,2,180,2|0|2,0:0|0:0|0:0,0:0:0:0:
356,12,70933,1,0,0:0:0:0:
284,64,71135,1,0,0:0:0:0:
368,100,71336,2,0,P|316:148|200:92,1,180,2|0,0:0|0:0,0:0:0:0:
196,36,71940,1,0,0:0:0:0:
284,64,72141,6,0,P|296:144|200:220,1,180
156,260,72745,2,0,L|248:288,1,90,2|0,0:0|0:0,0:0:0:0:
332,288,73148,2,0,L|440:272,2,90,0|0|2,0:0|0:0|0:0,0:0:0:0:
240,292,73752,1,0,0:0:0:0:
148,300,73954,1,0,0:0:0:0:
60,308,74155,1,8,0:0:0:0:
44,128,74356,1,0,0:0:0:0:
148,300,74558,1,0,0:0:0:0:
0,252,74759,1,4,0:0:0:0:
144,152,74960,1,0,0:0:0:0:
0,252,75162,1,8,0:0:0:0:
164,256,75564,6,0,P|212:220|320:292,1,180,4|0,0:0|0:0,0:0:0:0:
244,324,76168,2,0,P|196:360|88:288,1,180,8|0,0:0|0:0,0:0:0:0:
40,244,76772,1,0,0:0:0:0:
116,196,76974,2,0,B|80:152|20:152|20:152|112:96,1,180,2|0,0:0|0:0,0:0:0:0:
160,72,77578,1,2,0:0:0:0:
240,28,77779,1,0,0:0:0:0:
160,72,77980,2,0,P|216:120|316:84,1,180,8|0,0:0|0:0,0:0:0:0:
376,32,78584,1,0,0:0:0:0:
312,92,78786,6,0,P|344:128|352:264,1,180,2|0,0:0|0:0,0:0:0:0:
248,136,79390,2,0,P|236:76|352:20,1,180,8|0,0:0|0:0,0:0:0:0:
332,104,79994,1,2,0:0:0:0:
328,192,80195,2,0,L|144:144,2,180,0|2|0,0:0|0:0|0:0,0:0:0:0:
412,220,81202,1,8,0:0:0:0:
288,348,81605,2,0,B|244:336|184:344,1,90,2|0,0:0|0:0,0:0:0:0:
108,352,82007,6,0,P|128:296|232:232,1,180,4|0,0:0|0:0,0:0:0:0:
308,192,82611,2,0,L|108:184,1,180,8|0,0:0|0:0,0:0:0:0:
36,180,83215,1,2,0:0:0:0:
52,268,83417,2,0,L|88:88,2,180,0|2|0,0:0|0:0|0:0,0:0:0:0:
32,356,84423,1,8,0:0:0:0:
112,312,84625,1,0,0:0:0:0:
192,352,84826,1,2,0:0:0:0:
112,312,85027,1,0,0:0:0:0:
184,256,85229,5,0,0:0:0:0:
332,296,85430,1,0,0:0:0:0:
280,168,85631,1,2,0:0:0:0:
200,172,85833,1,0,0:0:0:0:
240,312,86034,1,0,0:0:0:0:
352,212,86235,1,0,0:0:0:0:
312,112,86437,1,2,0:0:0:0:
156,256,86638,1,0,0:0:0:0:
344,324,86839,5,0,0:0:0:0:
196,156,87041,1,0,0:0:0:0:
408,224,87242,1,2,0:0:0:0:
408,224,87443,1,0,0:0:0:0:
196,156,87645,5,0,0:0:0:0:
416,92,87846,1,0,0:0:0:0:
196,156,88047,1,2,0:0:0:0:
196,156,88249,1,0,0:0:0:0:
416,92,88450,6,0,P|432:136|400:276,1,180,0|4,0:0|0:0,0:0:0:0:
364,340,89054,1,0,0:0:0:0:
312,264,89256,2,0,L|208:312,1,90
152,348,89658,1,8,0:0:0:0:
168,260,89860,2,0,P|144:212|216:108,1,180
228,196,90464,1,8,0:0:0:0:
284,124,90665,1,0,0:0:0:0:
340,192,90866,2,0,L|416:144,1,90
284,124,91269,2,0,P|260:172|276:240,1,90,8|0,0:0|0:0,0:0:0:0:
320,276,91672,6,0,L|152:176,1,180,0|8,0:0|0:0,0:0:0:0:
152,96,92276,2,0,P|88:152|108:252,1,180
140,320,92880,1,8,0:0:0:0:
196,248,93081,1,0,0:0:0:0:
228,332,93282,2,0,P|280:288|332:276,1,90
388,260,93685,2,0,L|196:200,1,180,8|0,0:0|0:0,0:0:0:0:
132,176,94289,1,0,0:0:0:0:
200,120,94490,1,8,0:0:0:0:
216,208,94692,1,0,0:0:0:0:
236,296,94893,6,0,P|280:264|272:144,1,180,0|4,0:0|0:0,0:0:0:0:
220,80,95497,1,0,0:0:0:0:
160,148,95698,1,0,0:0:0:0:
136,60,95900,1,0,0:0:0:0:
220,80,96101,1,8,0:0:0:0:
160,148,96303,2,0,P|216:172|304:108,1,180
216,96,96907,2,0,L|68:240,1,180,8|0,0:0|0:0,0:0:0:0:
24,284,97511,1,0,0:0:0:0:
108,312,97712,1,8,0:0:0:0:
88,224,97913,1,0,0:0:0:0:
172,256,98115,2,0,P|192:304|100:392,1,180,0|8,0:0|0:0,0:0:0:0:
88,224,98719,2,0,P|120:180|248:208,1,180
304,136,99323,2,0,P|320:192|308:248,1,90,8|0,0:0|0:0,0:0:0:0:
252,284,99725,2,0,L|364:312,1,90,8|0,0:0|0:0,0:0:0:0:
316,220,100128,2,0,P|256:204|156:296,1,180,4|0,0:0|0:0,0:0:0:0:
164,266,100732,1,2,0:0:0:0:
108,96,101135,1,0,0:0:0:0:
108,96,101336,6,0,P|168:72|276:104,1,180,4|8,0:0|0:0,0:0:0:0:
348,156,101940,1,0,0:0:0:0:
368,68,102141,2,0,P|420:104|388:240,1,180,0|8,0:0|0:0,0:0:0:0:
348,156,102745,1,0,0:0:0:0:
304,236,102947,2,0,L|120:268,1,180,0|8,0:0|0:0,0:0:0:0:
36,284,103551,1,0,0:0:0:0:
92,352,103752,2,0,L|52:160,1,180,0|8,0:0|0:0,0:0:0:0:
40,88,104356,1,0,0:0:0:0:
120,132,104558,6,0,P|184:84|296:128,1,180,0|8,0:0|0:0,0:0:0:0:
340,168,105162,1,0,0:0:0:0:
376,88,105363,2,0,L|212:216,1,180,0|8,0:0|0:0,0:0:0:0:
164,252,105967,1,0,0:0:0:0:
120,172,106168,1,0,0:0:0:0:
388,192,106571,1,8,0:0:0:0:
176,324,106974,1,0,0:0:0:0:
248,88,107376,1,8,0:0:0:0:
312,324,107779,6,0,P|360:352|480:276,1,180,0|4,0:0|0:0,0:0:0:0:
384,276,108383,1,0,0:0:0:0:
300,240,108584,2,0,L|192:196,1,90
132,172,108987,1,8,0:0:0:0:
156,260,109188,2,0,L|168:80,1,180
84,116,109792,1,8,0:0:0:0:
168,80,109994,1,0,0:0:0:0:
252,116,110195,1,0,0:0:0:0:
336,84,110396,1,0,0:0:0:0:
420,120,110598,2,0,L|380:208,1,90,8|0,0:0|0:0,0:0:0:0:
472,196,111001,6,0,P|500:128|448:32,1,180,0|8,0:0|0:0,0:0:0:0:
428,124,111605,2,0,P|400:172|468:292,1,180
508,344,112209,1,2,0:0:0:0:
420,352,112410,1,0,0:0:0:0:
256,192,112611,12,4,114222,0:0:0:0:
344,48,119054,6,0,L|316:104,1,45,4|0,0:0|0:0,0:0:0:0:
152,48,119356,2,0,L|180:104,1,45,0|8,0:0|0:0,0:0:0:0:
208,172,119658,1,0,0:0:0:0:
304,172,119860,1,2,0:0:0:0:
152,232,120061,1,4,0:0:0:0:
356,232,120262,1,2,0:0:0:0:
204,292,120464,1,0,0:0:0:0:
304,292,120665,6,0,P|356:312|432:224,1,180,4|2,0:0|0:0,0:0:0:0:
356,232,121269,1,0,0:0:0:0:
268,232,121470,2,0,L|176:232,1,90
88,228,121873,1,2,0:0:0:0:
140,300,122074,1,0,0:0:0:0:
88,228,122276,2,0,L|28:148,2,90,0|0|2,0:0|0:0|0:0,0:0:0:0:
140,300,122880,2,0,P|180:272|292:320,1,180
356,380,123484,1,2,0:0:0:0:
368,292,123685,1,0,0:0:0:0:
408,212,123886,6,0,P|308:232|296:336,1,180,0|2,0:0|0:0,0:0:0:0:
368,292,124490,1,0,0:0:0:0:
460,292,124692,2,0,L|276:372,1,180,0|2,0:0|0:0,0:0:0:0:
208,336,125296,1,0,0:0:0:0:
120,328,125497,2,0,P|140:284|188:252,1,90
260,244,125900,2,0,L|172:168,1,90,2|8,0:0|0:0,0:0:0:0:
92,36,126303,1,0,0:0:0:0:
8,192,126504,1,4,0:0:0:0:
188,184,126705,1,2,0:0:0:0:
48,116,126907,6,0,P|128:112|176:24,1,180
88,44,127511,1,2,0:0:0:0:
48,116,127712,2,0,P|36:180|132:244,1,180
212,276,128316,1,2,0:0:0:0:
172,196,128517,2,0,P|232:188|300:292,1,180
256,348,129121,1,2,0:0:0:0:
212,272,129323,2,0,L|120:104,2,180
252,352,130329,6,0,P|296:304|244:192,1,180,0|2,0:0|0:0,0:0:0:0:
212,132,130933,1,0,0:0:0:0:
292,172,131135,1,0,0:0:0:0:
372,212,131336,1,0,0:0:0:0:
360,124,131537,1,2,0:0:0:0:
276,88,131739,1,0,0:0:0:0:
200,136,131940,2,0,L|144:208,1,90,0|8,0:0|0:0,0:0:0:0:
88,276,132343,1,0,0:0:0:0:
80,364,132544,1,8,0:0:0:0:
164,320,132745,2,0,L|232:236,1,90,8|0,0:0|0:0,0:0:0:0:
280,180,133148,1,4,0:0:0:0:
192,192,133349,1,0,0:0:0:0:
316,264,133551,6,0,P|368:208|324:104,1,180,0|4,0:0|0:0,0:0:0:0:
284,48,134155,1,0,0:0:0:0:
268,136,134356,2,0,L|176:168,1,90
96,192,134759,1,8,0:0:0:0:
120,104,134960,2,0,P|60:112|24:240,1,180
44,296,135564,1,8,0:0:0:0:
100,228,135766,1,0,0:0:0:0:
136,308,135967,1,0,0:0:0:0:
100,228,136168,2,0,P|149:223|190:265,2,90,0|8|0,0:0|0:0|0:0,0:0:0:0:
136,308,136772,6,0,P|192:324|264:208,1,180,0|8,0:0|0:0,0:0:0:0:
180,244,137376,2,0,L|388:244,1,180
452,244,137980,1,8,0:0:0:0:
396,172,138182,1,0,0:0:0:0:
484,168,138383,1,0,0:0:0:0:
432,96,138584,1,0,0:0:0:0:
344,108,138786,2,0,P|320:152|320:200,1,90,8|0,0:0|0:0,0:0:0:0:
380,256,139188,1,0,0:0:0:0:
408,172,139390,2,0,P|428:116|336:24,1,180
272,44,139994,6,0,L|96:128,1,180,0|4,0:0|0:0,0:0:0:0:
28,164,140598,1,0,0:0:0:0:
112,220,140799,1,0,0:0:0:0:
60,68,141001,1,0,0:0:0:0:
188,152,141202,1,8,0:0:0:0:
152,56,141403,2,0,P|200:56|288:152,1,180
368,180,142007,2,0,L|168:192,1,180,8|0,0:0|0:0,0:0:0:0:
100,192,142611,1,0,0:0:0:0:
148,116,142813,1,8,0:0:0:0:
60,120,143014,1,0,0:0:0:0:
148,116,143215,6,0,P|168:76|288:112,1,180,0|8,0:0|0:0,0:0:0:0:
368,64,143819,2,0,L|212:192,1,180
160,240,144423,1,8,0:0:0:0:
248,248,144625,1,0,0:0:0:0:
248,248,144826,2,0,P|224:296|176:332,1,90
160,148,145229,2,0,P|184:108|240:64,1,90,8|0,0:0|0:0,0:0:0:0:
288,28,145631,1,4,0:0:0:0:
244,156,145833,1,0,0:0:0:0:
356,80,146034,1,0,0:0:0:0:
332,160,146235,1,0,0:0:0:0:
276,92,146437,6,0,P|248:144|312:248,1,180,4|8,0:0|0:0,0:0:0:0:
376,288,147041,1,0,0:0:0:0:
376,200,147242,2,0,L|200:300,1,180,0|8,0:0|0:0,0:0:0:0:
144,336,147846,1,0,0:0:0:0:
232,356,148047,2,0,L|80:208,1,180,0|8,0:0|0:0,0:0:0:0:
32,176,148652,1,0,0:0:0:0:
116,144,148853,2,0,P|176:124|276:224,1,180,0|8,0:0|0:0,0:0:0:0:
320,256,149457,1,0,0:0:0:0:
380,192,149658,6,0,L|184:240,1,180,0|8,0:0|0:0,0:0:0:0:
116,256,150262,2,0,P|156:300|212:320,1,90
272,328,150665,1,0,0:0:0:0:
352,292,150866,1,8,0:0:0:0:
284,236,151068,1,0,0:0:0:0:
368,200,151269,2,0,P|320:152|204:192,1,180,0|8,0:0|0:0,0:0:0:0:
352,292,151873,1,0,0:0:0:0:
352,292,152074,2,0,P|440:264|440:152,1,180,0|8,0:0|0:0,0:0:0:0:
436,100,152678,1,0,0:0:0:0:
396,180,152880,6,0,P|336:160|196:188,1,180,0|4,0:0|0:0,0:0:0:0:
148,224,153484,1,0,0:0:0:0:
148,136,153685,1,0,0:0:0:0:
148,224,153886,1,0,0:0:0:0:
152,316,154088,1,8,0:0:0:0:
228,248,154289,2,0,P|276:224|368:308,1,180
456,296,154893,2,0,L|248:316,1,180,8|0,0:0|0:0,0:0:0:0:
188,324,155497,1,0,0:0:0:0:
100,336,155698,1,8,0:0:0:0:
176,284,155900,1,0,0:0:0:0:
256,244,156101,2,0,P|212:212|92:264,1,180,0|8,0:0|0:0,0:0:0:0:
180,288,156705,2,0,P|240:328|344:276,1,180
396,228,157309,1,2,0:0:0:0:
460,164,157511,1,0,0:0:0:0:
256,192,157611,12,0,159121,0:0:0:0:
296,156,159323,6,0,P|244:212|284:324,1,180,4|8,0:0|0:0,0:0:0:0:
324,376,159927,1,0,0:0:0:0:
356,292,160128,2,0,L|160:320,1,180,2|8,0:0|0:0,0:0:0:0:
88,336,160732,1,0,0:0:0:0:
128,256,160933,2,0,P|88:184|128:88,1,180,0|8,0:0|0:0,0:0:0:0:
168,172,161537,2,0,P|68:168|36:84,1,180,2|0,0:0|0:0,0:0:0:0:
124,88,162141,1,8,0:0:0:0:
212,64,162343,1,0,0:0:0:0:
124,88,162544,6,0,P|160:136|292:116,1,180,0|8,0:0|0:0,0:0:0:0:
352,96,163148,1,0,0:0:0:0:
328,184,163349,2,0,P|280:216|136:208,1,180,2|8,0:0|0:0,0:0:0:0:
76,188,163954,1,0,0:0:0:0:
92,276,164155,1,0,0:0:0:0:
76,188,164356,1,8,0:0:0:0:
52,56,164558,1,4,0:0:0:0:
176,108,164760,1,0,0:0:0:0:
176,108,164860,1,0,0:0:0:0:
176,108,164961,1,4,0:0:0:0:
76,188,165162,1,0,0:0:0:0:
80,336,165363,1,8,0:0:0:0:
200,240,165564,1,0,0:0:0:0:
112,264,165766,6,0,P|128:204|240:160,1,180,4|8,0:0|0:0,0:0:0:0:
308,200,166370,1,0,0:0:0:0:
292,112,166571,2,0,L|400:256,1,180,2|8,0:0|0:0,0:0:0:0:
460,324,167175,1,0,0:0:0:0:
484,236,167376,2,0,L|288:308,1,180,0|8,0:0|0:0,0:0:0:0:
232,336,167980,2,0,P|236:268|336:204,2,180,0|2|0,0:0|0:0|0:0,0:0:0:0:
408,308,169188,1,2,0:0:0:0:
300,112,169591,1,2,0:0:0:0:
208,312,169994,1,2,0:0:0:0:
408,308,170396,6,0,P|436:260|392:132,1,180,2|4,0:0|0:0,0:0:0:0:
248,232,171001,1,8,0:0:0:0:
256,52,171202,1,0,0:0:0:0:
408,148,171403,1,4,0:0:0:0:
228,144,171605,1,0,0:0:0:0:
380,240,171806,1,2,0:0:0:0:
256,52,172007,1,0,0:0:0:0:
228,144,172209,6,0,P|276:140|344:8,1,180,4|0,0:0|0:0,0:0:0:0:
256,52,172813,2,0,L|200:248,1,180,2|0,0:0|0:0,0:0:0:0:
180,312,173417,1,0,0:0:0:0:
268,288,173618,2,0,P|204:224|92:332,1,270
268,288,174625,1,2,0:0:0:0:
448,264,175027,1,0,0:0:0:0:
360,276,175229,1,0,0:0:0:0:
416,348,175430,6,0,L|380:148,1,180
472,188,176034,2,0,P|432:232|296:212,1,180,2|0,0:0|0:0,0:0:0:0:
200,96,176839,2,0,P|140:56|88:192,1,270
172,164,177645,2,0,L|40:304,1,180,2|0,0:0|0:0,0:0:0:0:
48,294,178249,1,2,0:0:0:0:
224,336,178652,6,0,L|356:188,1,180,4|0,0:0|0:0,0:0:0:0:
424,240,179256,2,0,P|428:168|312:120,1,180,2|0,0:0|0:0,0:0:0:0:
256,132,179860,1,0,0:0:0:0:
292,52,180061,2,0,L|136:196,1,180
88,232,180665,1,0,0:0:0:0:
176,248,180866,2,0,P|144:304|12:292,1,180,2|0,0:0|0:0,0:0:0:0:
88,232,181470,1,0,0:0:0:0:
140,156,181672,1,0,0:0:0:0:
52,148,181873,6,0,P|84:96|124:72,1,90
184,32,182276,1,2,0:0:0:0:
184,32,182477,1,0,0:0:0:0:
240,100,182678,2,0,P|296:120|360:120,1,90
416,124,183081,1,2,0:0:0:0:
416,124,183282,1,0,0:0:0:0:
488,68,183484,2,0,P|504:124|488:184,1,90,4|0,0:0|0:0,0:0:0:0:
484,244,183886,1,2,0:0:0:0:
500,154,184088,1,0,0:0:0:0:
412,192,184289,2,0,L|288:204,1,90,4|0,0:0|0:0,0:0:0:0:
232,212,184692,1,2,0:0:0:0:
324,200,184893,1,0,0:0:0:0:
272,128,185094,6,0,P|216:128|148:244,1,180,4|8,0:0|0:0,0:0:0:0:
232,212,185698,2,0,P|156:136|80:168,1,180
24,208,186303,1,8,0:0:0:0:
96,152,186504,2,0,P|116:104|232:64,1,180
320,76,187108,1,8,0:0:0:0:
408,92,187309,2,0,L|212:140,1,180
148,160,187913,1,8,0:0:0:0:
224,204,188115,6,0,P|184:240|64:192,1,180
148,160,188719,1,8,0:0:0:0:
224,204,188920,2,0,L|396:304,1,180
456,340,189524,1,8,0:0:0:0:
456,252,189725,2,0,B|364:280|372:364|372:364|256:292,1,270,0|8,0:0|0:0,0:0:0:0:
196,348,190531,2,0,P|188:288|304:224,1,180
368,204,191135,1,8,0:0:0:0:
273,218,191336,1,0,0:0:0:0:
348,280,191537,6,0,P|408:272|436:164,1,180,0|4,0:0|0:0,0:0:0:0:
368,204,192141,1,0,0:0:0:0:
388,116,192343,2,0,P|320:128|288:256,1,180,0|8,0:0|0:0,0:0:0:0:
368,204,192947,2,0,L|168:248,1,180
104,260,193551,1,8,0:0:0:0:
136,116,193752,1,0,0:0:0:0:
192,242,193954,1,0,0:0:0:0:
72,180,194155,1,0,0:0:0:0:
216,160,194356,1,8,0:0:0:0:
104,260,194558,1,0,0:0:0:0:
192,242,194759,6,0,P|244:234|280:100,1,180,0|8,0:0|0:0,0:0:0:0:
256,48,195363,2,0,L|392:200,1,180
436,248,195967,1,8,0:0:0:0:
348,260,196168,2,0,P|368:308|516:228,1,270,0|4,0:0|0:0,0:0:0:0:
436,248,196974,1,0,0:0:0:0:
312,348,197175,1,0,0:0:0:0:
256,192,197376,1,4,0:0:0:0:
384,68,197578,1,0,0:0:0:0:
436,248,197779,1,0,0:0:0:0:
256,192,197980,6,0,P|200:176|80:260,1,180,0|4,0:0|0:0,0:0:0:0:
44,304,198584,1,0,0:0:0:0:
16,216,198786,2,0,L|216:264,1,180,0|8,0:0|0:0,0:0:0:0:
168,344,199390,2,0,P|244:324|272:220,1,180
208,176,199994,2,0,L|384:252,1,180,8|0,0:0|0:0,0:0:0:0:
456,284,200598,1,0,0:0:0:0:
400,216,200799,1,8,0:0:0:0:
368,300,201001,1,0,0:0:0:0:
456,284,201202,6,0,P|488:224|412:132,1,180,0|8,0:0|0:0,0:0:0:0:
484,64,201806,2,0,L|336:188,1,180
276,236,202410,1,8,0:0:0:0:
364,256,202611,1,0,0:0:0:0:
316,180,202813,2,0,P|260:168|224:280,1,180,0|4,0:0|0:0,0:0:0:0:
364,256,203417,1,0,0:0:0:0:
296,372,203618,1,8,0:0:0:0:
364,256,203819,1,4,0:0:0:0:
212,262,204021,1,2,0:0:0:0:
296,372,204222,1,0,0:0:0:0:
380,340,204423,6,0,P|424:312|404:184,1,180,0|4,0:0|0:0,0:0:0:0:
360,128,205027,1,0,0:0:0:0:
420,196,205229,2,0,P|440:144|368:40,1,180,0|8,0:0|0:0,0:0:0:0:
360,128,205833,2,0,P|336:176|400:284,1,180
480,296,206437,2,0,L|264:288,1,180,8|0,0:0|0:0,0:0:0:0:
208,288,207041,1,0,0:0:0:0:
120,284,207242,1,8,0:0:0:0:
208,288,207443,1,0,0:0:0:0:
152,360,207645,6,0,L|124:164,1,180,0|8,0:0|0:0,0:0:0:0:
48,224,208249,2,0,P|48:144|128:100,1,180
188,32,208853,2,0,L|224:136,1,90,8|0,0:0|0:0,0:0:0:0:
304,96,209256,6,0,P|296:152|168:184,1,180,0|8,0:0|0:0,0:0:0:0:
104,180,209860,1,0,0:0:0:0:
144,260,210061,1,0,0:0:0:0:
144,260,210162,1,0,0:0:0:0:
144,260,210262,1,0,0:0:0:0:
52,264,210464,1,8,0:0:0:0:
104,336,210665,2,0,P|168:344|220:228,1,180
136,260,211269,2,0,L|336:256,1,180,8|0,0:0|0:0,0:0:0:0:
408,252,211873,1,0,0:0:0:0:
372,336,212074,2,0,P|452:336|496:236,1,180,8|0,0:0|0:0,0:0:0:0:
412,240,212678,1,0,0:0:0:0:
420,152,212880,1,8,0:0:0:0:
428,72,213081,1,0,0:0:0:0:
488,136,213282,2,0,P|392:164|344:96,1,180,0|8,0:0|0:0,0:0:0:0:
312,28,213886,1,0,0:0:0:0:
396,60,214088,6,0,L|260:200,1,180,0|8,0:0|0:0,0:0:0:0:
236,272,214692,2,0,P|304:240|352:248,1,90
404,212,215094,1,0,0:0:0:0:
440,296,215296,1,8,0:0:0:0:
352,316,215497,1,0,0:0:0:0:
264,336,215698,1,0,0:0:0:0:
176,352,215900,1,0,0:0:0:0:
216,224,216101,1,4,0:0:0:0:
96,280,216303,1,0,0:0:0:0:
228,300,216504,1,8,0:0:0:0:
132,204,216705,1,0,0:0:0:0:
228,300,216907,1,4,0:0:0:0:
344,232,217108,1,0,0:0:0:0:
332,320,217309,6,0,P|392:304|420:184,1,180,0|4,0:0|0:0,0:0:0:0:
328,140,217913,1,0,0:0:0:0:
412,104,218115,1,0,0:0:0:0:
328,140,218316,1,0,0:0:0:0:
244,172,218517,1,8,0:0:0:0:
328,140,218719,2,0,P|280:88|176:112,1,180
128,36,219323,2,0,L|208:236,1,180,8|0,0:0|0:0,0:0:0:0:
224,304,219927,1,0,0:0:0:0:
300,224,220128,1,8,0:0:0:0:
196,204,220329,1,0,0:0:0:0:
300,224,220531,6,0,P|360:204|320:96,1,180,0|8,0:0|0:0,0:0:0:0:
300,224,221135,2,0,P|264:272|332:364,1,180
368,284,221739,1,8,0:0:0:0:
428,352,221940,1,0,0:0:0:0:
368,284,222141,2,0,L|284:324,1,90,0|4,0:0|0:0,0:0:0:0:
428,352,222544,2,0,P|464:296|404:196,1,180,8|0,0:0|0:0,0:0:0:0:
488,144,223148,2,0,L|300:244,1,180,2|0,0:0|0:0,0:0:0:0:
329,228,223752,1,4,0:0:0:0:
