osu file format v14

[General]
AudioFilename: True Survivor.mp3
AudioLeadIn: 0
PreviewTime: 86839
Countdown: 1
SampleSet: Soft
StackLeniency: 0.7
Mode: 0
LetterboxInBreaks: 1
WidescreenStoryboard: 1

[Editor]
Bookmarks: 61269,68115
DistanceSpacing: 0.8
BeatDivisor: 4
GridSize: 4
TimelineZoom: 1.1

[Metadata]
Title:True Survivor
TitleUnicode:True Survivor
Artist:David Hasselhoff
ArtistUnicode:David Hasselhoff
Creator:Crimmi
Version:Normal
Source:Kung Fury
Tags:ezek Cancel Blue Dragon mtmcl whymeman Tari jyvii Kyshiro ktgster Laser Unicorns 80's Tribute Mitch Murder Jorgen Elofsson Synthwave
BeatmapID:715093
BeatmapSetID:321460

[Difficulty]
HPDrainRate:4.5
CircleSize:3
OverallDifficulty:3.4
ApproachRate:4
SliderMultiplier:1.3
SliderTickRate:2

[Events]
//Background and Video events
Video,0,"True Survivor (From Kung Fury).avi"
0,0,"kungfury-bc8fde63705f5d5b.png",0,0
//Break Periods
2,114422,119345
2,159523,168875
//Storyboard Layer 0 (Background)
//Storyboard Layer 1 (Fail)
//Storyboard Layer 2 (Pass)
//Storyboard Layer 3 (Foreground)
//Storyboard Sound Samples

[TimingPoints]
43350,402.684563758389,4,2,1,75,1,0
49792,-100,4,2,1,75,0,0
54625,-100,4,3,0,75,0,0
56034,-100,4,2,1,75,0,0
61269,-100,4,3,0,75,0,0
62678,-100,4,2,1,75,0,0
68115,-100,4,3,0,50,0,0
68920,-100,4,2,1,75,0,0
74155,-100,4,3,0,50,0,0
75564,-100,4,2,1,75,0,0
88450,-100,4,2,1,75,0,1
99725,-100,4,3,0,50,0,1
101336,-100,4,2,1,75,0,1
114222,-100,4,2,1,75,0,0
119054,-100,4,3,0,50,0,0
120665,-100,4,2,1,75,0,0
126101,-100,4,3,0,50,0,0
127108,-100,4,2,1,75,0,0
131940,-100,4,3,0,50,0,0
133551,-100,4,2,1,75,0,1
145027,-100,4,3,0,50,0,1
146437,-100,4,2,1,75,0,1
159323,-100,4,2,1,75,0,0
164407,-100,4,3,0,50,0,0
165766,-100,4,2,1,75,0,0
170799,-100,4,3,0,50,0,0
172209,-100,4,2,1,75,0,0
185094,-100,4,2,1,75,0,1
196772,-100,4,3,0,50,0,1
197980,-100,4,2,1,75,0,1
203215,-100,4,3,0,50,0,1
204423,-100,4,2,1,75,0,1
216101,-100,4,3,0,50,0,1
217309,-100,4,2,1,75,0,1
222343,-100,4,3,0,50,0,1
223752,-100,4,2,1,75,0,0

[Colours]
Combo1 : 238,238,238
Combo2 : 255,0,128
Combo3 : 0,255,128
Combo4 : 0,255,255

[HitObjects]
456,336,49792,6,0,P|408:296|336:288,1,130,4|8,0:0|0:0,0:0:0:0:
224,312,50598,1,0,0:0:0:0:
264,200,51001,1,10,0:0:0:0:
152,232,51403,2,0,L|96:272,2,65,0|0|8,0:0|0:0|0:0,0:0:0:0:
64,160,52209,2,0,P|104:128|184:120,1,130,0|8,0:0|0:0,0:0:0:0:
256,32,53014,6,0,P|288:80|280:168,1,130,0|8,0:0|0:0,0:0:0:0:
224,248,53819,2,0,B|288:272|336:248|336:248|448:344,1,260,0|4,0:0|0:0,0:0:0:0:
464,224,55027,1,0,0:0:0:0:
420,100,55430,2,0,L|452:36,2,65
368,140,56034,6,0,P|312:92|184:116,1,195,4|8,0:0|0:0,0:0:0:0:
144,140,56839,2,0,P|168:196|112:308,1,195,2|8,0:0|0:0,0:0:0:0:
56,340,57645,1,2,0:0:0:0:
68,212,58047,1,0,0:0:0:0:
72,84,58450,1,2,0:0:0:0:
180,160,58853,1,0,0:0:0:0:
184,28,59256,6,0,P|232:60|304:76,1,130,2|0,0:0|0:0,0:0:0:0:
324,136,59860,1,8,0:0:0:0:
408,36,60262,1,0,0:0:0:0:
408,36,60464,2,0,L|432:116,1,65,0|8,0:0|0:0,0:0:0:0:
460,224,61068,1,0,0:0:0:0:
460,224,61269,6,0,L|372:240,1,65,8|4,0:0|0:0,0:0:0:0:
264,280,61873,2,0,L|256:192,1,65,4|8,0:0|0:0,0:0:0:0:
248,160,62276,1,2,0:0:0:0:
232,40,62678,6,0,L|176:96,2,65,4|0|8,0:0|0:0|0:0,0:0:0:0:
336,88,63484,2,0,P|368:112|456:88,1,130,0|8,0:0|0:0,0:0:0:0:
472,208,64289,2,0,L|464:280,2,65,0|0|8,0:0|0:0|0:0,0:0:0:0:
352,224,65094,2,0,L|224:264,1,130,0|8,0:0|0:0,0:0:0:0:
112,272,65900,2,0,L|56:224,2,65,0|0|8,0:0|0:0|0:0,0:0:0:0:
176,176,66705,2,0,P|192:144|160:56,1,130,0|8,0:0|0:0,0:0:0:0:
72,128,67511,6,0,L|0:136,2,65,0|0|8,0:0|0:0|0:0,0:0:0:0:
128,152,68115,1,8,0:0:0:0:
176,176,68316,1,0,0:0:0:0:
280,112,68719,1,4,0:0:0:0:
280,112,68920,2,0,P|328:80|440:144,1,195,4|8,0:0|0:0,0:0:0:0:
440,192,69725,6,0,P|408:216|424:320,2,130,2|0|2,0:0|0:0|0:0,0:0:0:0:
320,200,70933,1,0,0:0:0:0:
200,208,71336,1,2,0:0:0:0:
80,216,71739,1,0,0:0:0:0:
80,336,72141,6,0,P|120:296|208:312,1,130
232,336,72745,1,8,0:0:0:0:
352,336,73148,1,0,0:0:0:0:
408,336,73349,1,0,0:0:0:0:
464,336,73551,1,8,0:0:0:0:
456,160,74155,6,0,L|376:136,1,65,8|4,0:0|0:0,0:0:0:0:
288,192,74759,2,0,L|368:224,1,65,4|8,0:0|0:0,0:0:0:0:
400,240,75162,1,0,0:0:0:0:
400,360,75564,6,0,B|320:296|232:336|232:336|168:256,1,260,4|2,0:0|0:0,0:0:0:0:
96,192,76772,1,0,0:0:0:0:
96,192,76974,2,8,B|176:128|264:192|264:192|384:104,1,325,0|10,0:0|0:0,0:0:0:0:
464,24,78383,1,0,0:0:0:0:
464,80,78584,1,0,0:0:0:0:
464,136,78786,2,0,L|440:264,1,130,2|0,0:0|0:0,0:0:0:0:
440,320,79390,2,0,P|376:304|296:328,1,130,8|0,0:0|0:0,0:0:0:0:
280,208,80195,6,0,B|200:248|200:344|200:344|96:304,1,260
56,288,81202,1,8,0:0:0:0:
40,168,81605,1,0,0:0:0:0:
72,120,81806,1,0,0:0:0:0:
104,72,82007,6,0,L|200:72,1,65,4|0,0:0|0:0,0:0:0:0:
256,136,82611,1,10,0:0:0:0:
176,216,83014,1,0,0:0:0:0:
104,304,83417,2,0,P|160:336|232:320,1,130
328,272,84222,1,0,0:0:0:0:
328,272,84423,1,10,0:0:0:0:
232,208,84826,1,0,0:0:0:0:
256,192,85027,12,2,87645,0:0:0:0:
440,352,88450,6,0,L|416:216,1,130,0|4,0:0|0:0,0:0:0:0:
392,112,89256,2,0,L|448:72,2,65,0|0|10,0:0|0:0|0:0,0:0:0:0:
336,112,89860,2,0,P|272:144|224:96,1,130
168,112,90464,1,10,0:0:0:0:
80,192,90866,1,0,0:0:0:0:
80,192,91068,1,0,0:0:0:0:
80,192,91269,1,10,0:0:0:0:
56,304,91672,6,0,B|144:304|176:232|176:232|240:256,1,195
304,328,92678,2,0,P|336:264|320:200,1,130,2|0,0:0|0:0,0:0:0:0:
288,160,93282,1,0,0:0:0:0:
392,96,93685,1,10,0:0:0:0:
408,208,94088,2,0,L|472:168,2,65,0|0|10,0:0|0:0|0:0,0:0:0:0:
296,256,94893,6,0,P|280:216|200:176,1,130,0|4,0:0|0:0,0:0:0:0:
184,288,95698,1,0,0:0:0:0:
128,264,95900,1,0,0:0:0:0:
72,240,96101,1,10,0:0:0:0:
16,216,96303,2,0,P|24:176|8:72,1,130
8,32,96907,1,10,0:0:0:0:
112,88,97309,2,0,L|176:136,1,65
208,160,97712,1,10,0:0:0:0:
176,272,98115,6,0,B|232:224|296:264|296:264|368:216,1,195,0|2,0:0|0:0,0:0:0:0:
448,160,99121,1,0,0:0:0:0:
448,160,99323,1,10,0:0:0:0:
344,112,99725,1,10,0:0:0:0:
240,56,100128,1,0,0:0:0:0:
240,176,100531,2,0,L|216:248,1,65,8|0,0:0|0:0,0:0:0:0:
272,272,100933,2,0,L|336:224,1,65,4|0,0:0|0:0,0:0:0:0:
368,192,101336,6,0,P|400:168|408:72,2,130,4|10|0,0:0|0:0|0:0,0:0:0:0:
296,96,102544,1,10,0:0:0:0:
256,208,102947,1,0,0:0:0:0:
176,128,103349,2,0,P|152:184|168:264,2,130,10|0|10,0:0|0:0|0:0,0:0:0:0:
72,80,104558,1,0,0:0:0:0:
48,192,104960,2,0,L|56:264,2,65,8|0|0,0:0|0:0|0:0,0:0:0:0:
160,224,105766,2,0,L|152:144,2,65,8|0|0,0:0|0:0|0:0,0:0:0:0:
160,344,106571,2,0,P|232:312|272:256,2,130,8|0|8,0:0|0:0|0:0,0:0:0:0:
160,224,107779,6,0,L|264:144,1,130,4|4,0:0|0:0,0:0:0:0:
352,72,108584,1,0,0:0:0:0:
368,128,108786,1,0,0:0:0:0:
384,184,108987,1,8,0:0:0:0:
400,240,109188,2,0,P|352:256|296:320,1,130
256,352,109792,1,10,0:0:0:0:
168,272,110195,2,0,L|136:216,2,65,0|0|10,0:0|0:0|0:0,0:0:0:0:
256,192,111001,6,0,P|224:136|280:88,1,130,4|0,0:0|0:0,0:0:0:0:
320,96,111605,1,2,0:0:0:0:
256,192,112007,12,4,114222,0:0:0:0:
32,296,120665,6,0,P|64:248|56:216,2,65,4|0|8,0:0|0:0|0:0,0:0:0:0:
136,344,121470,2,0,P|152:296|232:256,1,130,0|8,0:0|0:0,0:0:0:0:
296,344,122276,2,0,L|224:344,2,65,0|0|8,0:0|0:0|0:0,0:0:0:0:
376,248,123081,1,0,0:0:0:0:
376,248,123282,1,0,0:0:0:0:
376,248,123484,1,8,0:0:0:0:
456,328,123886,6,0,L|472:256,1,65
464,208,124289,2,0,L|440:144,1,65,8|0,0:0|0:0,0:0:0:0:
424,96,124692,2,0,B|352:72|320:144|320:144|184:96,1,260
88,64,125900,1,0,0:0:0:0:
88,64,126101,2,0,B|40:128|96:168|96:168|64:240,1,195,8|8,0:0|0:0,0:0:0:0:
184,248,127108,6,0,P|248:216|208:112,2,195,4|2|8,0:0|0:0|0:0,0:0:0:0:
128,256,128517,2,0,P|120:304|48:216,1,260
112,144,129725,1,2,0:0:0:0:
184,56,130128,1,0,0:0:0:0:
256,144,130531,1,0,0:0:0:0:
256,144,130732,2,0,L|304:80,2,65,8|0|0,0:0|0:0|0:0,0:0:0:0:
184,232,131537,1,8,0:0:0:0:
112,144,131940,6,0,L|192:32,1,130,0|4,0:0|0:0,0:0:0:0:
272,120,132745,1,8,0:0:0:0:
336,24,133148,1,2,0:0:0:0:
440,80,133551,6,0,P|472:136|424:200,1,130,0|4,0:0|0:0,0:0:0:0:
328,192,134356,2,0,L|352:264,2,65,0|0|8,0:0|0:0|0:0,0:0:0:0:
312,136,134960,2,0,P|272:104|184:128,1,130
144,144,135564,1,8,0:0:0:0:
48,208,135967,2,0,L|88:272,2,65,0|0|8,0:0|0:0|0:0,0:0:0:0:
48,88,136772,6,0,P|80:56|176:40,1,130,0|8,0:0|0:0,0:0:0:0:
216,64,137376,2,0,P|288:88|344:56,2,130,0|2|0,0:0|0:0|0:0,0:0:0:0:
192,120,138383,2,0,L|136:240,1,130,0|8,0:0|0:0,0:0:0:0:
80,344,139188,1,0,0:0:0:0:
200,344,139591,2,0,P|208:296|296:240,1,130,8|0,0:0|0:0,0:0:0:0:
360,176,140396,5,4,0:0:0:0:
424,80,140799,1,0,0:0:0:0:
456,128,141001,1,0,0:0:0:0:
456,184,141202,1,8,0:0:0:0:
424,232,141403,2,0,B|372:280|307:246|307:246|272:320,1,195,0|10,0:0|0:0,0:0:0:0:
168,264,142410,2,0,L|208:192,2,65,0|0|8,0:0|0:0|0:0,0:0:0:0:
48,264,143215,6,0,P|56:192|40:120,1,130,0|10,0:0|0:0,0:0:0:0:
88,96,143819,2,0,P|128:72|208:104,1,130
240,136,144423,1,8,0:0:0:0:
344,80,144826,2,0,P|352:136|328:208,1,130,0|8,0:0|0:0,0:0:0:0:
288,312,145631,1,4,0:0:0:0:
208,232,146034,2,0,L|136:200,2,65,0|0|4,0:0|0:0|0:0,0:0:0:0:
216,112,146839,5,10,0:0:0:0:
256,72,147041,1,0,0:0:0:0:
304,40,147242,2,0,P|360:56|432:40,1,130,0|10,0:0|0:0,0:0:0:0:
424,160,148047,1,0,0:0:0:0:
408,280,148450,1,8,0:0:0:0:
360,248,148652,1,0,0:0:0:0:
304,224,148853,2,0,L|160:224,1,130,0|10,0:0|0:0,0:0:0:0:
56,224,149658,5,0,0:0:0:0:
104,120,150061,2,0,L|48:64,2,65,8|0|0,0:0|0:0|0:0,0:0:0:0:
216,144,150866,1,10,0:0:0:0:
176,256,151269,2,0,L|104:368,2,130,0|10|0,0:0|0:0|0:0,0:0:0:0:
288,288,152477,1,10,0:0:0:0:
400,248,152880,6,0,P|416:296|416:336,2,65,0|0|4,0:0|0:0|0:0,0:0:0:0:
304,184,153685,1,0,0:0:0:0:
304,184,153886,1,0,0:0:0:0:
304,184,154088,1,8,0:0:0:0:
304,184,154289,2,0,P|376:144|304:80,1,195,0|10,0:0|0:0,0:0:0:0:
192,100,155296,2,0,L|104:124,1,65
68,136,155698,1,8,0:0:0:0:
64,240,156101,6,0,L|200:264,1,130,4|0,0:0|0:0,0:0:0:0:
256,276,156705,1,2,0:0:0:0:
256,192,157108,12,4,159323,0:0:0:0:
256,192,170195,12,8,171403,0:0:0:0:
48,272,172209,6,0,P|96:192|152:312,1,260,4|2,0:0|0:0,0:0:0:0:
272,232,173417,1,0,0:0:0:0:
272,232,173618,2,0,P|321:330|368:200,1,325,0|2,0:0|0:0,0:0:0:0:
296,112,175027,1,0,0:0:0:0:
240,112,175229,1,0,0:0:0:0:
184,112,175430,2,0,P|152:168|40:104,1,195,0|2,0:0|0:0,0:0:0:0:
24,248,176437,1,0,0:0:0:0:
88,344,176839,2,0,B|112:288|200:288|200:288|272:368|376:312,1,325,0|2,0:0|0:0,0:0:0:0:
296,224,178249,1,0,0:0:0:0:
176,216,178652,6,0,P|192:152|264:112,1,130,4|0,0:0|0:0,0:0:0:0:
304,120,179256,1,2,0:0:0:0:
464,192,179860,1,0,0:0:0:0:
408,168,180061,2,0,P|400:96|376:40,2,130,0|0|2,0:0|0:0|0:0,0:0:0:0:
256,256,181470,1,0,0:0:0:0:
256,256,181672,2,0,P|200:296|232:168,1,325,0|2,0:0|0:0,0:0:0:0:
336,144,183081,1,0,0:0:0:0:
336,256,183484,6,0,L|192:272,1,130,4|2,0:0|0:0,0:0:0:0:
96,288,184289,2,0,L|48:160,1,130,4|2,0:0|0:0,0:0:0:0:
32,48,185094,6,0,L|176:48,1,130,0|12,0:0|0:0,0:0:0:0:
256,112,185900,1,0,0:0:0:0:
216,160,186101,1,0,0:0:0:0:
176,200,186303,1,8,0:0:0:0:
136,240,186504,2,0,P|160:272|304:224,1,195,0|10,0:0|0:0,0:0:0:0:
352,256,187309,2,0,P|376:216|360:64,1,195,0|10,0:0|0:0,0:0:0:0:
328,32,188115,6,0,P|264:64|136:24,1,195,0|10,0:0|0:0,0:0:0:0:
96,64,188920,2,0,P|80:104|104:264,1,195,0|10,0:0|0:0,0:0:0:0:
104,312,189725,2,0,P|168:304|304:352,1,195,0|8,0:0|0:0,0:0:0:0:
368,256,190732,1,0,0:0:0:0:
400,208,190933,1,0,0:0:0:0:
344,208,191135,1,8,0:0:0:0:
224,208,191537,5,0,0:0:0:0:
288,112,191940,2,0,P|232:96|152:120,2,130,4|0|8,0:0|0:0|0:0,0:0:0:0:
344,112,192947,6,0,P|400:88|464:136,1,130
456,176,193551,2,0,L|456:264,1,65,8|0,0:0|0:0,0:0:0:0:
456,360,194155,2,0,L|408:304,1,65,0|8,0:0|0:0,0:0:0:0:
344,216,194759,1,0,0:0:0:0:
288,304,195162,1,10,0:0:0:0:
232,320,195363,2,0,P|184:336|192:232,1,195,0|8,0:0|0:0,0:0:0:0:
240,224,196168,6,0,P|272:192|176:136,1,195,0|8,0:0|0:0,0:0:0:0:
72,168,197175,1,8,0:0:0:0:
72,168,197376,1,4,0:0:0:0:
128,272,197779,1,0,0:0:0:0:
128,272,197980,1,0,0:0:0:0:
176,160,198383,6,0,P|236:188|292:164,1,130,4|0,0:0|0:0,0:0:0:0:
356,84,199188,1,8,0:0:0:0:
356,84,199390,2,0,P|388:140|332:260,1,195,0|10,0:0|0:0,0:0:0:0:
256,328,200396,2,0,L|328:336,2,65,0|0|8,0:0|0:0|0:0,0:0:0:0:
144,288,201202,2,0,P|184:256|104:160,1,195,0|2,0:0|0:0,0:0:0:0:
24,224,202209,2,0,P|8:144|80:56,1,195
192,64,203215,1,8,0:0:0:0:
256,168,203618,2,8,L|272:240,1,65,0|4,0:0|0:0,0:0:0:0:
152,224,204222,2,0,L|136:152,1,65
112,48,204826,5,4,0:0:0:0:
224,72,205229,2,0,P|280:88|360:72,1,130,0|10,0:0|0:0,0:0:0:0:
408,64,205833,2,0,P|432:128|424:208,1,130
408,248,206437,2,0,P|344:232|256:256,1,130,8|0,0:0|0:0,0:0:0:0:
168,280,207242,1,8,0:0:0:0:
64,232,207645,6,0,P|96:200|192:168,1,130,0|10,0:0|0:0,0:0:0:0:
232,184,208249,2,0,P|272:216|248:96,1,325,0|2,0:0|0:0,0:0:0:0:
144,64,209658,1,10,0:0:0:0:
32,40,210061,1,0,0:0:0:0:
32,96,210262,1,8,0:0:0:0:
32,208,210665,1,2,0:0:0:0:
32,264,210866,6,0,P|72:248|160:272,1,130,4|8,0:0|0:0,0:0:0:0:
256,320,211672,1,0,0:0:0:0:
256,320,212074,1,10,0:0:0:0:
480,264,212880,6,0,P|440:248|352:272,1,130,8|0,0:0|0:0,0:0:0:0:
256,320,213686,1,10,0:0:0:0:
256,200,214088,1,0,0:0:0:0:
160,264,214490,2,0,L|88:264,2,65,8|0|0,0:0|0:0|0:0,0:0:0:0:
256,200,215296,2,0,L|256:120,2,65,8|0|0,0:0|0:0|0:0,0:0:0:0:
352,264,216101,2,0,L|416:264,2,65,4|0|0,0:0|0:0|0:0,0:0:0:0:
256,336,216907,1,8,0:0:0:0:
144,320,217309,6,0,P|192:256|168:200,1,130,0|4,0:0|0:0,0:0:0:0:
88,144,218115,1,0,0:0:0:0:
200,112,218517,1,0,0:0:0:0:
112,40,218920,1,0,0:0:0:0:
200,112,219323,1,8,0:0:0:0:
288,40,219725,2,0,L|360:40,3,65,0|0|8|0,0:0|0:0|0:0|0:0,0:0:0:0:
408,40,220531,6,0,P|440:120|376:216,1,195,4|2,0:0|0:0,0:0:0:0:
320,116,221537,2,0,P|264:100|192:204,1,195,0|2,0:0|0:0,0:0:0:0:
256,192,222343,12,4,223752,0:0:0:0:
