osu file format v14

[General]
AudioFilename: True Survivor.mp3
AudioLeadIn: 0
PreviewTime: 86839
Countdown: 1
SampleSet: Soft
StackLeniency: 0.7
Mode: 0
LetterboxInBreaks: 1
WidescreenStoryboard: 1

[Editor]
DistanceSpacing: 1
BeatDivisor: 4
GridSize: 4
TimelineZoom: 1.8

[Metadata]
Title:True Survivor
TitleUnicode:True Survivor
Artist:David Hasselhoff
ArtistUnicode:David Hasselhoff
Creator:Crimmi
Version:Insane
Source:Kung Fury
Tags:ezek Cancel Blue Dragon mtmcl whymeman Tari jyvii Kyshiro ktgster Laser Unicorns 80's Tribute Mitch Murder Jorgen Elofsson Synthwave
BeatmapID:715094
BeatmapSetID:321460

[Difficulty]
HPDrainRate:8
CircleSize:4.5
OverallDifficulty:8
ApproachRate:8
SliderMultiplier:1.7
SliderTickRate:2

[Events]
//Background and Video events
Video,0,"True Survivor (From Kung Fury).avi"
0,0,"kungfury-bc8fde63705f5d5b.png",0,0
//Break Periods
2,114422,118304
//Storyboard Layer 0 (Background)
//Storyboard Layer 1 (Fail)
//Storyboard Layer 2 (Pass)
//Storyboard Layer 3 (Foreground)
//Storyboard Sound Samples

[TimingPoints]
43350,402.684563758389,4,2,1,75,1,0
48182,-100,4,3,0,75,0,0
49792,-100,4,2,1,75,0,0
54625,-100,4,3,0,75,0,0
56034,-100,4,2,1,75,0,0
61269,-100,4,3,0,75,0,0
62678,-100,4,2,1,75,0,0
68115,-100,4,3,0,50,0,0
68920,-100,4,2,1,75,0,0
74155,-100,4,3,0,50,0,0
75564,-100,4,2,1,75,0,0
85229,-100,4,2,1,20,0,0
85631,-100,4,2,1,30,0,0
86034,-100,4,2,1,40,0,0
86437,-100,4,2,1,50,0,0
86839,-100,4,2,1,60,0,0
87242,-100,4,2,1,70,0,0
87645,-100,4,2,1,80,0,0
88047,-100,4,2,1,90,0,0
88450,-100,4,2,1,75,0,1
99725,-100,4,3,0,50,0,1
101336,-100,4,2,1,75,0,1
114222,-100,4,2,1,75,0,0
119054,-100,4,3,0,50,0,0
120665,-100,4,2,1,75,0,0
126101,-100,4,3,0,50,0,0
127108,-100,4,2,1,75,0,0
131940,-100,4,3,0,50,0,0
133551,-100,4,2,1,75,0,1
145027,-100,4,3,0,50,0,1
146437,-100,4,2,1,75,0,1
159323,-100,4,2,1,75,0,0
164407,-100,4,3,0,50,0,0
165766,-100,4,2,1,75,0,0
170799,-100,4,3,0,50,0,0
172209,-100,4,2,1,75,0,0
185094,-100,4,2,1,75,0,1
196772,-100,4,3,0,50,0,1
197980,-100,4,2,1,75,0,1
203215,-100,4,3,0,50,0,1
204423,-100,4,2,1,75,0,1
216101,-100,4,3,0,50,0,1
217309,-100,4,2,1,75,0,1
222343,-100,4,3,0,50,0,1
223752,-100,4,2,1,75,0,0

[Colours]
Combo1 : 238,238,238
Combo2 : 255,0,128
Combo3 : 0,255,128
Combo4 : 0,255,255

[HitObjects]
224,272,43349,5,0,0:0:0:0:
344,184,43551,1,0,0:0:0:0:
208,136,43752,2,0,P|160:168|112:88,1,170,2|0,0:0|0:0,0:0:0:0:
401,91,44356,2,0,P|375:163|304:136,1,170,2|0,0:0|0:0,0:0:0:0:
256,64,44960,1,0,0:0:0:0:
256,208,45162,1,0,0:0:0:0:
256,344,45363,2,0,P|280:304|416:280,1,170,2|0,0:0|0:0,0:0:0:0:
256,344,45967,2,0,P|232:304|86:290,1,170,2|0,0:0|0:0,0:0:0:0:
80,208,46571,5,0,0:0:0:0:
32,272,46772,1,0,0:0:0:0:
119,133,46974,2,0,P|157:221|114:277,1,170,2|0,0:0|0:0,0:0:0:0:
80,208,47578,2,0,L|280:200,1,170,2|0,0:0|0:0,0:0:0:0:
328,200,48182,1,8,0:0:0:0:
456,104,48383,1,0,0:0:0:0:
336,96,48584,1,4,0:0:0:0:
440,216,48786,1,0,0:0:0:0:
440,216,48886,1,0,0:0:0:0:
440,216,48987,1,4,0:0:0:0:
368,304,49188,1,0,0:0:0:0:
328,200,49390,1,2,0:0:0:0:
256,288,49591,1,0,0:0:0:0:
216,192,49792,5,4,0:0:0:0:
144,272,49994,1,0,0:0:0:0:
104,176,50195,1,10,0:0:0:0:
176,104,50396,1,0,0:0:0:0:
276,116,50598,1,0,0:0:0:0:
216,192,50799,1,0,0:0:0:0:
256,288,51001,1,10,0:0:0:0:
328,200,51202,1,0,0:0:0:0:
368,296,51403,2,0,P|400:256|416:216,1,85
392,128,51806,1,10,0:0:0:0:
328,200,52007,2,0,P|304:144|304:96,2,85
424,208,52611,1,8,0:0:0:0:
392,128,52813,1,0,0:0:0:0:
480,136,53014,6,0,P|464:88|424:48,1,85
360,48,53417,2,0,P|320:72|272:72,1,85,8|0,0:0|0:0,0:0:0:0:
216,32,53819,2,0,P|202:79|288:152,1,170,0|8,0:0|0:0,0:0:0:0:
256,232,54423,1,0,0:0:0:0:
232,312,54625,1,4,0:0:0:0:
216,320,54725,1,0,0:0:0:0:
200,328,54826,1,0,0:0:0:0:
112,368,55027,1,4,0:0:0:0:
120,272,55229,1,0,0:0:0:0:
120,256,55329,1,0,0:0:0:0:
120,240,55430,1,0,0:0:0:0:
128,144,55631,1,4,0:0:0:0:
216,192,55833,1,0,0:0:0:0:
208,88,56034,6,0,P|256:96|288:144,1,85,0|4,0:0|0:0,0:0:0:0:
314,193,56437,1,0,0:0:0:0:
216,192,56638,1,10,0:0:0:0:
314,193,56839,2,0,P|282:258|157:262,1,170
216,192,57443,1,10,0:0:0:0:
216,192,57645,2,0,P|184:144|104:200,2,170,0|2|0,0:0|0:0|0:0,0:0:0:0:
256,104,58652,1,0,0:0:0:0:
296,192,58853,2,0,P|328:144|408:200,2,170,0|2|0,0:0|0:0|0:0,0:0:0:0:
256,288,59860,5,10,0:0:0:0:
296,355,60061,2,0,P|248:366|200:342,2,85
296,219,60665,2,0,P|256:207|216:219,1,85,10|0,0:0|0:0,0:0:0:0:
160,288,61068,1,0,0:0:0:0:
256,288,61269,1,8,0:0:0:0:
352,288,61470,1,0,0:0:0:0:
304,200,61672,1,0,0:0:0:0:
208,200,61873,1,4,0:0:0:0:
256,120,62074,1,0,0:0:0:0:
184,80,62276,1,2,0:0:0:0:
326,78,62477,1,0,0:0:0:0:
184,80,62678,6,0,P|220:48|336:96,1,170,4|10,0:0|0:0,0:0:0:0:
384,136,63282,1,0,0:0:0:0:
408,56,63484,2,0,P|445:83|435:201,1,170,0|10,0:0|0:0,0:0:0:0:
376,256,64088,1,0,0:0:0:0:
445,302,64289,2,0,B|388:361|328:320|328:320|272:344,1,170,0|10,0:0|0:0,0:0:0:0:
376,256,64893,1,0,0:0:0:0:
304,208,65094,2,0,B|361:149|421:190|421:190|477:166,1,170,0|10,0:0|0:0,0:0:0:0:
424,96,65698,1,0,0:0:0:0:
384,24,65900,2,0,P|344:64|336:96,1,85
256,80,66303,1,10,0:0:0:0:
168,72,66504,1,0,0:0:0:0:
80,64,66705,2,0,P|96:120|208:152,1,170,0|10,0:0|0:0,0:0:0:0:
256,216,67309,5,0,0:0:0:0:
296,296,67511,1,0,0:0:0:0:
344,176,67712,1,0,0:0:0:0:
384,264,67913,1,10,0:0:0:0:
424,136,68115,2,0,P|376:96|272:128,1,170,8|4,0:0|0:0,0:0:0:0:
184,56,68719,1,0,0:0:0:0:
128,152,68920,1,0,0:0:0:0:
200,136,69121,6,0,P|184:200|76:207,1,170,4|10,0:0|0:0,0:0:0:0:
128,152,69725,2,0,L|240:312,1,170
456,288,70531,1,0,0:0:0:0:
256,192,70933,1,2,0:0:0:0:
456,80,71336,1,0,0:0:0:0:
456,288,71739,1,2,0:0:0:0:
296,112,72141,2,0,P|336:168|296:272,1,170
256,192,72745,5,10,0:0:0:0:
208,264,72947,1,0,0:0:0:0:
168,192,73148,1,2,0:0:0:0:
120,264,73349,1,0,0:0:0:0:
80,192,73551,1,10,0:0:0:0:
120,120,73752,1,0,0:0:0:0:
208,120,73954,1,0,0:0:0:0:
256,192,74155,1,8,0:0:0:0:
480,192,74356,1,0,0:0:0:0:
312,304,74558,1,0,0:0:0:0:
368,104,74759,1,4,0:0:0:0:
432,304,74960,1,0,0:0:0:0:
368,104,75162,1,2,0:0:0:0:
256,192,75564,6,0,P|199:243|106:211,1,170,4|2,0:0|0:0,0:0:0:0:
176,168,76168,1,8,0:0:0:0:
312,72,76571,1,0,0:0:0:0:
360,144,76772,1,0,0:0:0:0:
408,216,76974,2,0,P|336:224|292:320,1,170
376,296,77578,1,2,0:0:0:0:
464,288,77779,1,0,0:0:0:0:
464,288,77980,2,0,P|488:240|432:128,1,170,8|0,0:0|0:0,0:0:0:0:
384,80,78584,1,0,0:0:0:0:
320,24,78786,6,0,P|301:91|376:168,1,170,0|2,0:0|0:0,0:0:0:0:
384,80,79390,2,0,L|208:136,1,170,8|0,0:0|0:0,0:0:0:0:
144,160,79994,1,0,0:0:0:0:
64,176,80195,2,0,B|96:264|192:232|192:232|136:328,1,255
224,336,81001,1,2,0:0:0:0:
304,352,81202,1,8,0:0:0:0:
440,248,81605,1,0,0:0:0:0:
376,304,81806,1,0,0:0:0:0:
304,352,82007,6,0,L|288:232,1,85,4|0,0:0|0:0,0:0:0:0:
264,96,82611,1,8,0:0:0:0:
136,208,83014,1,0,0:0:0:0:
120,124,83215,1,0,0:0:0:0:
112,40,83417,1,2,0:0:0:0:
264,96,83819,1,0,0:0:0:0:
416,168,84222,2,0,P|352:164|312:180,1,85,2|8,0:0|0:0,0:0:0:0:
292,244,84625,1,0,0:0:0:0:
376,240,84826,1,0,0:0:0:0:
344,320,85027,1,2,0:0:0:0:
256,320,85229,5,4,0:0:0:0:
176,336,85430,1,2,0:0:0:0:
272,240,85631,1,0,0:0:0:0:
120,280,85833,1,2,0:0:0:0:
296,168,86034,1,0,0:0:0:0:
64,224,86235,1,2,0:0:0:0:
328,100,86437,1,0,0:0:0:0:
12,168,86638,1,0,0:0:0:0:
48,80,86839,5,4,0:0:0:0:
112,136,87041,1,0,0:0:0:0:
120,32,87242,1,2,0:0:0:0:
184,88,87443,1,0,0:0:0:0:
256,32,87645,1,4,0:0:0:0:
256,136,87846,1,0,0:0:0:0:
328,88,88047,1,2,0:0:0:0:
392,32,88249,1,0,0:0:0:0:
392,144,88450,6,0,B|360:176|326:179|326:179|328:272,1,170,0|4,0:0|0:0,0:0:0:0:
416,280,89054,1,0,0:0:0:0:
376,352,89256,1,0,0:0:0:0:
288,352,89457,1,0,0:0:0:0:
248,280,89658,1,10,0:0:0:0:
336,280,89860,2,0,P|320:232|208:200,1,170
248,280,90464,1,10,0:0:0:0:
336,280,90665,1,0,0:0:0:0:
288,352,90866,2,0,P|208:352|168:272,1,170,0|10,0:0|0:0,0:0:0:0:
80,280,91470,1,0,0:0:0:0:
128,208,91672,6,0,P|48:200|0:272,1,170,0|10,0:0|0:0,0:0:0:0:
80,280,92276,2,0,L|16:104,1,170
104,88,92880,1,10,0:0:0:0:
184,56,93081,1,0,0:0:0:0:
168,136,93282,1,0,0:0:0:0:
248,112,93484,2,0,P|239:173|206:215,2,85,0|10|0,0:0|0:0|0:0,0:0:0:0:
264,32,94088,1,0,0:0:0:0:
328,88,94289,1,0,0:0:0:0:
344,8,94490,1,10,0:0:0:0:
408,64,94692,1,0,0:0:0:0:
328,88,94893,6,0,B|352:160|432:152|432:152|440:208,1,170,0|4,0:0|0:0,0:0:0:0:
384,256,95497,1,0,0:0:0:0:
472,264,95698,1,0,0:0:0:0:
424,336,95900,1,0,0:0:0:0:
336,336,96101,1,10,0:0:0:0:
296,256,96303,2,0,B|248:288|248:352|248:352|168:328,1,170
112,312,96907,1,10,0:0:0:0:
168,248,97108,1,0,0:0:0:0:
88,232,97309,2,0,P|120:184|230:197,1,170,0|10,0:0|0:0,0:0:0:0:
216,104,97913,1,0,0:0:0:0:
288,144,98115,6,0,P|336:152|400:48,1,170,0|10,0:0|0:0,0:0:0:0:
320,72,98719,2,0,P|264:24|152:24,1,170
216,104,99323,1,10,0:0:0:0:
208,192,99524,1,0,0:0:0:0:
136,144,99725,1,4,0:0:0:0:
128,232,99927,1,0,0:0:0:0:
240,360,100128,1,8,0:0:0:0:
336,232,100531,5,8,0:0:0:0:
352,152,100732,1,0,0:0:0:0:
416,208,100933,1,4,0:0:0:0:
432,128,101135,1,0,0:0:0:0:
289,100,101336,6,0,P|348:75|433:130,1,170,4|10,0:0|0:0,0:0:0:0:
352,152,101940,1,0,0:0:0:0:
272,184,102141,2,0,P|224:160|224:48,1,170,0|10,0:0|0:0,0:0:0:0:
128,56,102745,1,0,0:0:0:0:
88,136,102947,1,0,0:0:0:0:
32,296,103349,1,10,0:0:0:0:
64,216,103551,1,0,0:0:0:0:
112,288,103752,2,0,P|152:312|248:240,1,170,0|10,0:0|0:0,0:0:0:0:
168,232,104356,1,0,0:0:0:0:
216,160,104558,1,0,0:0:0:0:
384,160,104960,5,10,0:0:0:0:
296,160,105162,1,0,0:0:0:0:
216,160,105363,2,0,P|232:112|344:96,1,170,0|10,0:0|0:0,0:0:0:0:
296,160,105967,1,0,0:0:0:0:
336,232,106168,2,0,P|288:240|216:152,2,170,0|10|0,0:0|0:0|0:0,0:0:0:0:
424,232,107175,1,0,0:0:0:0:
376,160,107376,1,10,0:0:0:0:
464,160,107578,1,0,0:0:0:0:
416,88,107779,6,0,P|344:80|296:176,1,170,0|4,0:0|0:0,0:0:0:0:
376,160,108383,1,0,0:0:0:0:
344,240,108584,2,0,L|296:328,2,85,0|0|10,0:0|0:0|0:0,0:0:0:0:
432,240,109188,2,0,P|464:184|432:80,1,170
376,160,109792,2,0,P|296:168|280:184,2,85,10|0|0,0:0|0:0|0:0,0:0:0:0:
400,80,110396,1,0,0:0:0:0:
312,80,110598,2,0,L|192:80,1,85,10|0,0:0|0:0,0:0:0:0:
144,80,111001,6,0,P|160:128|208:160,1,85,4|0,0:0|0:0,0:0:0:0:
256,192,111403,1,0,0:0:0:0:
184,240,111605,1,2,0:0:0:0:
256,192,111705,12,4,114222,0:0:0:0:
32,192,119054,5,0,0:0:0:0:
32,192,119155,1,8,0:0:0:0:
176,88,119356,1,0,0:0:0:0:
176,88,119457,1,4,0:0:0:0:
176,256,119658,1,0,0:0:0:0:
100,227,119860,2,0,P|136:184|240:208,1,170,0|8,0:0|0:0,0:0:0:0:
256,288,120464,1,0,0:0:0:0:
336,320,120665,6,0,B|344:256|304:216|304:216|384:192,1,170,4|10,0:0|0:0,0:0:0:0:
440,176,121269,1,0,0:0:0:0:
480,104,121470,2,0,B|424:80|376:120|376:120|304:80,1,170,0|10,0:0|0:0,0:0:0:0:
256,48,122074,1,0,0:0:0:0:
264,136,122276,2,0,P|208:120|176:16,1,170,0|10,0:0|0:0,0:0:0:0:
256,48,122880,2,0,L|112:168,1,170
56,200,123484,1,10,0:0:0:0:
96,280,123685,1,0,0:0:0:0:
168,240,123886,5,0,0:0:0:0:
128,160,124088,1,0,0:0:0:0:
248,200,124289,1,10,0:0:0:0:
200,120,124490,1,0,0:0:0:0:
319,169,124692,2,0,B|335:248|271:273|271:273|295:329,1,170,0|10,0:0|0:0,0:0:0:0:
216,352,125296,1,0,0:0:0:0:
176,280,125497,1,0,0:0:0:0:
128,352,125698,1,0,0:0:0:0:
88,280,125900,1,10,0:0:0:0:
40,352,126101,2,0,P|8:304|48:200,1,170,4|0,0:0|0:0,0:0:0:0:
88,280,126705,1,0,0:0:0:0:
128,352,126907,6,0,P|192:336|240:352,1,85,0|4,0:0|0:0,0:0:0:0:
292,344,127309,1,0,0:0:0:0:
352,296,127511,1,10,0:0:0:0:
280,256,127712,2,0,P|328:216|432:272,1,170
456,320,128316,1,10,0:0:0:0:
456,320,128517,2,0,P|492:264|436:168,1,170
420,108,129121,2,0,P|384:144|388:192,1,85,8|0,0:0|0:0,0:0:0:0:
421,248,129524,1,0,0:0:0:0:
336,224,129725,2,0,P|344:280|376:320,2,85,0|10|0,0:0|0:0|0:0,0:0:0:0:
184,152,130531,1,0,0:0:0:0:
264,192,130732,5,10,0:0:0:0:
256,104,130933,1,0,0:0:0:0:
336,136,131135,1,0,0:0:0:0:
320,56,131336,1,0,0:0:0:0:
240,24,131537,1,10,0:0:0:0:
168,72,131739,1,0,0:0:0:0:
184,152,131940,5,0,0:0:0:0:
184,152,132141,1,4,0:0:0:0:
112,256,132343,1,0,0:0:0:0:
256,264,132544,1,0,0:0:0:0:
256,264,132745,1,4,0:0:0:0:
160,360,132947,1,0,0:0:0:0:
160,360,133148,1,0,0:0:0:0:
112,256,133349,1,0,0:0:0:0:
40,304,133551,6,0,P|32:248|104:168,1,170,0|4,0:0|0:0,0:0:0:0:
88,88,134155,1,0,0:0:0:0:
168,120,134356,2,0,P|184:80|312:88,1,170,0|10,0:0|0:0,0:0:0:0:
248,136,134960,2,0,P|296:152|384:72,1,170
448,136,135564,1,10,0:0:0:0:
416,216,135766,1,0,0:0:0:0:
376,288,135967,1,0,0:0:0:0:
328,360,136168,1,0,0:0:0:0:
296,280,136370,1,10,0:0:0:0:
336,208,136571,1,0,0:0:0:0:
368,128,136772,6,0,P|312:128|256:216,1,170,0|10,0:0|0:0,0:0:0:0:
216,288,137376,1,0,0:0:0:0:
216,288,137578,1,0,0:0:0:0:
176,216,137779,2,0,P|144:140|64:127,1,170,2|0,0:0|0:0,0:0:0:0:
88,208,138383,2,0,L|208:72,1,170,2|10,0:0|0:0,0:0:0:0:
256,16,138987,1,0,0:0:0:0:
296,88,139188,1,0,0:0:0:0:
344,16,139390,1,0,0:0:0:0:
384,88,139591,1,10,0:0:0:0:
424,16,139792,1,0,0:0:0:0:
472,88,139994,6,0,P|448:144|344:160,1,170,0|4,0:0|0:0,0:0:0:0:
296,88,140598,1,0,0:0:0:0:
384,88,140799,2,0,L|464:248,1,170,0|10,0:0|0:0,0:0:0:0:
504,312,141403,2,0,B|424:336|384:272|384:272|320:296,1,170
272,312,142007,1,10,0:0:0:0:
296,232,142209,1,0,0:0:0:0:
216,256,142410,1,0,0:0:0:0:
240,176,142611,1,0,0:0:0:0:
160,200,142813,1,10,0:0:0:0:
136,280,143014,1,0,0:0:0:0:
200,336,143215,6,0,P|144:360|56:288,1,170,0|10,0:0|0:0,0:0:0:0:
136,280,143819,2,0,B|89:203|21:238|21:238|64:104,1,255,0|10,0:0|0:0,0:0:0:0:
88,48,144625,1,0,0:0:0:0:
136,120,144826,1,0,0:0:0:0:
176,48,145027,2,0,P|208:80|208:144,1,85,0|8,0:0|0:0,0:0:0:0:
184,240,145430,1,0,0:0:0:0:
304,200,145631,2,0,L|400:160,2,85,4|0|2,0:0|0:0|0:0,0:0:0:0:
184,240,146235,1,0,0:0:0:0:
256,280,146437,6,0,P|200:320|112:280,1,170,4|10,0:0|0:0,0:0:0:0:
184,240,147041,1,0,0:0:0:0:
104,216,147242,2,0,P|144:168|256:192,1,170,0|10,0:0|0:0,0:0:0:0:
320,216,147846,1,0,0:0:0:0:
312,128,148047,2,0,P|360:144|400:256,1,170,0|10,0:0|0:0,0:0:0:0:
320,216,148652,1,0,0:0:0:0:
328,304,148853,2,0,B|250:299|234:226|234:226|176:248,1,170,0|10,0:0|0:0,0:0:0:0:
120,272,149457,1,0,0:0:0:0:
112,184,149658,5,0,0:0:0:0:
72,112,149860,1,0,0:0:0:0:
128,48,150061,1,10,0:0:0:0:
208,80,150262,1,0,0:0:0:0:
192,168,150464,1,0,0:0:0:0:
256,328,150866,1,10,0:0:0:0:
224,248,151068,5,0,0:0:0:0:
288,192,151269,1,0,0:0:0:0:
360,240,151470,1,0,0:0:0:0:
336,320,151672,1,10,0:0:0:0:
256,328,151873,2,0,P|181:318|152:288,1,85
124,244,152276,1,0,0:0:0:0:
224,248,152477,1,10,0:0:0:0:
184,168,152678,1,0,0:0:0:0:
152,88,152880,6,0,P|208:88|265:179,1,170,0|4,0:0|0:0,0:0:0:0:
312,248,153484,1,0,0:0:0:0:
352,176,153685,2,0,P|385:235|351:331,1,170,0|10,0:0|0:0,0:0:0:0:
312,248,154289,2,0,P|280:296|176:336,1,170
96,336,154893,1,10,0:0:0:0:
48,264,155094,1,0,0:0:0:0:
144,264,155296,1,0,0:0:0:0:
96,192,155497,1,0,0:0:0:0:
184,192,155698,6,0,L|152:112,2,85,10|0|4,0:0|0:0|0:0,0:0:0:0:
232,264,156303,1,0,0:0:0:0:
272,192,156504,1,10,0:0:0:0:
320,264,156705,1,2,0:0:0:0:
256,192,157108,12,2,158920,0:0:0:0:
32,192,159323,6,0,P|88:152|40:80,1,170,4|10,0:0|0:0,0:0:0:0:
112,32,159927,1,0,0:0:0:0:
176,88,160128,1,0,0:0:0:0:
248,48,160329,2,0,P|248:112|216:160,1,85,0|10,0:0|0:0,0:0:0:0:
192,200,160732,1,0,0:0:0:0:
152,272,160933,2,0,B|216:280|216:280|264:304,1,85
312,320,161336,1,10,0:0:0:0:
368,256,161537,2,0,B|328:216|328:216|304:160,1,85
280,112,161940,2,0,L|376:80,2,85,0|10|0,0:0|0:0|0:0,0:0:0:0:
208,64,162544,6,0,P|200:136|272:200,1,170,4|10,0:0|0:0,0:0:0:0:
208,264,163148,2,0,B|288:296|336:240|336:240|408:336,1,255,0|10,0:0|0:0,0:0:0:0:
448,256,163954,1,0,0:0:0:0:
448,168,164155,1,0,0:0:0:0:
448,80,164356,5,0,0:0:0:0:
312,176,164558,1,8,0:0:0:0:
320,48,164759,1,0,0:0:0:0:
320,48,164859,1,0,0:0:0:0:
320,48,164960,1,8,0:0:0:0:
176,136,165162,1,0,0:0:0:0:
312,176,165363,1,2,0:0:0:0:
208,264,165564,1,0,0:0:0:0:
136,312,165766,6,0,P|192:344|294:285,1,170,4|10,0:0|0:0,0:0:0:0:
208,264,166370,2,0,P|256:232|360:264,1,170
384,344,166974,2,0,P|432:304|440:248,1,85,10|0,0:0|0:0,0:0:0:0:
440,200,167376,2,0,B|376:160|376:160|336:64,1,170,0|10,0:0|0:0,0:0:0:0:
280,136,167980,2,0,P|248:96|136:112,2,170,0|2|0,0:0|0:0|0:0,0:0:0:0:
200,168,168987,2,0,P|240:216|344:200,1,170,0|10,0:0|0:0,0:0:0:0:
368,288,169591,2,0,P|336:200|360:112,1,170
392,56,170195,1,10,0:0:0:0:
304,56,170396,2,0,P|248:96|232:128,1,85
200,184,170799,5,8,0:0:0:0:
48,104,171001,1,0,0:0:0:0:
56,280,171202,1,0,0:0:0:0:
208,344,171403,1,4,0:0:0:0:
200,184,171605,1,0,0:0:0:0:
360,272,171806,1,8,0:0:0:0:
200,184,172007,1,0,0:0:0:0:
280,224,172209,6,0,P|288:160|208:96,1,170,4|0,0:0|0:0,0:0:0:0:
200,184,172813,2,0,L|376:104,1,170,2|0,0:0|0:0,0:0:0:0:
432,80,173417,1,0,0:0:0:0:
424,164,173618,2,0,P|384:232|448:324,1,170,2|0,0:0|0:0,0:0:0:0:
468,240,174222,2,0,P|383:211|287:243,1,170,0|2,0:0|0:0,0:0:0:0:
228,256,174826,1,0,0:0:0:0:
148,224,175027,1,0,0:0:0:0:
228,256,175229,1,0,0:0:0:0:
216,168,175430,5,0,0:0:0:0:
264,96,175631,1,0,0:0:0:0:
176,96,175833,1,0,0:0:0:0:
136,168,176034,2,0,P|176:240|264:232,1,170,2|0,0:0|0:0,0:0:0:0:
304,168,176638,1,0,0:0:0:0:
216,168,176839,2,0,L|136:328,2,170,0|0|2,0:0|0:0|0:0,0:0:0:0:
304,168,177846,2,0,L|408:168,1,85
472,168,178249,1,2,0:0:0:0:
432,240,178450,1,0,0:0:0:0:
464,320,178652,6,0,B|384:328|360:272|360:272|288:296,1,170,4|0,0:0|0:0,0:0:0:0:
232,312,179256,1,2,0:0:0:0:
152,336,179457,1,0,0:0:0:0:
176,256,179658,1,0,0:0:0:0:
256,232,179860,1,0,0:0:0:0:
192,176,180061,2,0,P|136:184|96:280,1,170,4|0,0:0|0:0,0:0:0:0:
232,312,180665,1,2,0:0:0:0:
176,256,180866,2,0,P|112:168|152:104,1,170
192,176,181470,1,0,0:0:0:0:
208,96,181672,6,0,P|272:160|256:232,1,170,4|0,0:0|0:0,0:0:0:0:
312,296,182276,1,2,0:0:0:0:
376,360,182477,1,0,0:0:0:0:
440,296,182678,1,0,0:0:0:0:
376,232,182880,1,0,0:0:0:0:
440,160,183081,1,2,0:0:0:0:
312,160,183282,1,0,0:0:0:0:
376,88,183484,5,4,0:0:0:0:
376,88,183685,1,0,0:0:0:0:
256,40,183886,1,0,0:0:0:0:
256,40,184088,1,2,0:0:0:0:
128,88,184289,1,4,0:0:0:0:
128,88,184490,1,0,0:0:0:0:
256,144,184692,1,0,0:0:0:0:
256,144,184893,1,2,0:0:0:0:
183,185,185094,6,0,P|238:221|335:167,1,170,0|14,0:0|0:0,0:0:0:0:
376,112,185698,2,0,P|408:176|352:272,1,170
256,320,186303,1,10,0:0:0:0:
141,260,186504,2,0,P|103:187|136:112,1,170
256,48,187108,1,10,0:0:0:0:
344,56,187309,2,0,P|360:136|344:224,1,170
256,264,187913,1,10,0:0:0:0:
167,222,188115,6,0,P|151:138|168:56,1,170
240,104,188719,1,8,0:0:0:0:
316,140,188920,2,0,L|168:224,1,170
108,284,189524,1,8,0:0:0:0:
176,344,189725,2,0,P|208:304|320:344,1,170,0|10,0:0|0:0,0:0:0:0:
384,280,190329,1,0,0:0:0:0:
312,232,190531,1,0,0:0:0:0:
384,192,190732,2,0,P|344:160|272:160,1,85,10|8,0:0|0:0,0:0:0:0:
240,192,191135,2,0,P|232:128|248:96,2,85,10|0|0,0:0|0:0|0:0,0:0:0:0:
160,224,191739,1,0,0:0:0:0:
80,256,191940,6,0,P|112:296|224:288,1,170,4|0,0:0|0:0,0:0:0:0:
160,224,192544,1,0,0:0:0:0:
88,168,192745,1,10,0:0:0:0:
168,144,192947,2,0,P|120:93|16:128,2,170,0|2|0,0:0|0:0|0:0,0:0:0:0:
248,120,193954,1,0,0:0:0:0:
328,96,194155,1,0,0:0:0:0:
304,176,194356,1,10,0:0:0:0:
224,200,194558,1,0,0:0:0:0:
288,256,194759,6,0,P|344:248|384:152,1,170,0|10,0:0|0:0,0:0:0:0:
304,176,195363,2,0,L|432:288,1,170
496,344,195967,1,10,0:0:0:0:
416,368,196168,2,0,P|352:336|256:360,1,170,0|10,0:0|0:0,0:0:0:0:
192,304,196772,5,8,0:0:0:0:
72,184,196974,1,0,0:0:0:0:
240,144,197175,1,0,0:0:0:0:
192,304,197376,1,4,0:0:0:0:
360,264,197578,1,8,0:0:0:0:
240,144,197779,1,0,0:0:0:0:
216,224,197980,6,0,P|264:264|240:368,1,170,0|14,0:0|0:0,0:0:0:0:
192,304,198584,1,0,0:0:0:0:
136,240,198786,2,0,B|128:192|168:152|168:152|120:88,1,170,0|10,0:0|0:0,0:0:0:0:
200,56,199390,2,0,P|232:104|344:96,1,170
280,40,199994,1,10,0:0:0:0:
335,103,200195,1,0,0:0:0:0:
392,168,200396,1,0,0:0:0:0:
448,232,200598,2,0,P|400:248|336:232,1,85,0|10,0:0|0:0,0:0:0:0:
312,184,201001,1,0,0:0:0:0:
256,120,201202,6,0,P|232:200|311:273,1,170,0|10,0:0|0:0,0:0:0:0:
312,184,201806,2,0,L|128:216,1,170
64,224,202410,1,10,0:0:0:0:
104,152,202611,1,0,0:0:0:0:
24,152,202813,6,0,P|48:96|152:88,1,170,0|8,0:0|0:0,0:0:0:0:
240,200,203417,1,0,0:0:0:0:
288,56,203618,1,0,0:0:0:0:
384,176,203819,1,8,0:0:0:0:
336,320,204021,1,0,0:0:0:0:
240,200,204222,1,0,0:0:0:0:
256,280,204423,6,0,P|208:272|168:160,1,170,0|14,0:0|0:0,0:0:0:0:
224,112,205027,1,0,0:0:0:0:
240,200,205229,2,0,L|72:288,1,170,0|10,0:0|0:0,0:0:0:0:
8,312,205833,2,0,B|0:240|56:200|56:200|40:136,1,170
16,80,206437,1,10,0:0:0:0:
96,56,206638,1,0,0:0:0:0:
128,136,206839,1,0,0:0:0:0:
208,104,207041,1,0,0:0:0:0:
176,24,207242,1,10,0:0:0:0:
208,104,207443,1,0,0:0:0:0:
240,184,207645,6,0,P|288:144|264:40,1,170,0|10,0:0|0:0,0:0:0:0:
360,40,208249,2,0,P|376:104|272:256,1,255,0|10,0:0|0:0,0:0:0:0:
192,248,209054,2,0,L|224:328,2,85
144,176,209658,1,10,0:0:0:0:
104,248,209860,2,0,P|64:200|64:160,2,85,0|0|10,0:0|0:0|0:0,0:0:0:0:
192,248,210464,1,0,0:0:0:0:
144,176,210665,1,0,0:0:0:0:
232,176,210866,6,0,P|264:216|272:272,1,85,4|0,0:0|0:0,0:0:0:0:
360,248,211269,2,0,P|352:200|360:152,1,85,10|0,0:0|0:0,0:0:0:0:
432,208,211672,2,0,P|432:144|352:80,1,170,0|10,0:0|0:0,0:0:0:0:
264,96,212276,1,0,0:0:0:0:
280,16,212477,2,0,P|232:24|191:127,1,170,0|10,0:0|0:0,0:0:0:0:
264,96,213081,1,0,0:0:0:0:
251,178,213282,2,0,P|320:152|336:56,1,170,0|10,0:0|0:0,0:0:0:0:
264,96,213886,1,0,0:0:0:0:
251,178,214088,6,0,P|211:258|195:338,1,170,0|10,0:0|0:0,0:0:0:0:
137,270,214692,2,0,P|217:270|332:236,1,170
384,224,215296,1,10,0:0:0:0:
360,304,215497,1,0,0:0:0:0:
440,288,215698,2,0,P|466:202|405:140,1,170,0|8,0:0|0:0,0:0:0:0:
384,224,216303,1,0,0:0:0:0:
272,104,216504,1,0,0:0:0:0:
192,248,216705,1,4,0:0:0:0:
80,112,216907,1,0,0:0:0:0:
16,272,217108,1,0,0:0:0:0:
192,248,217309,6,0,P|216:304|328:304,1,170,0|14,0:0|0:0,0:0:0:0:
272,248,217913,1,0,0:0:0:0:
232,184,218115,2,0,P|266:172|348:260,1,170,0|10,0:0|0:0,0:0:0:0:
432,264,218719,2,0,P|424:216|400:160,2,85
456,344,219323,1,10,0:0:0:0:
376,328,219524,1,0,0:0:0:0:
352,248,219725,2,0,B|304:280|304:280|280:328,1,85
216,272,220128,2,0,B|240:232|240:232|240:192,1,85,10|0,0:0|0:0,0:0:0:0:
320,152,220531,5,4,0:0:0:0:
248,104,220732,1,0,0:0:0:0:
328,72,220933,2,0,P|272:24|168:80,1,170
248,104,221537,2,0,P|176:128|104:64,1,170,0|2,0:0|0:0,0:0:0:0:
40,128,222141,5,10,0:0:0:0:
64,208,222343,1,0,0:0:0:0:
120,296,222544,1,4,0:0:0:0:
144,136,222745,1,0,0:0:0:0:
224,280,222947,1,0,0:0:0:0:
240,176,223148,1,12,0:0:0:0:
368,288,223551,5,0,0:0:0:0:
240,176,223752,1,4,0:0:0:0:
