osu file format v14

[General]
AudioFilename: True Survivor.mp3
AudioLeadIn: 0
PreviewTime: 86839
Countdown: 1
SampleSet: None
StackLeniency: 0.7
Mode: 0
LetterboxInBreaks: 1
WidescreenStoryboard: 1

[Editor]
Bookmarks: 43383,76772,76974,77980,80195,81202,85027,86839,99725,114222
DistanceSpacing: 1.3
BeatDivisor: 4
GridSize: 4
TimelineZoom: 4.199998

[Metadata]
Title:True Survivor
TitleUnicode:True Survivor
Artist:David Hasselhoff
ArtistUnicode:David Hasselhoff
Creator:Crimmi
Version:Insane Survivors
Source:Kung Fury
Tags:ezek Cancel Blue Dragon mtmcl whymeman Tari jyvii Kyshiro ktgster Laser Unicorns 80's Tribute Mitch Murder Jorgen Elofsson Synthwave
BeatmapID:737878
BeatmapSetID:321460

[Difficulty]
HPDrainRate:7
CircleSize:5
OverallDifficulty:7
ApproachRate:8
SliderMultiplier:1.7
SliderTickRate:2

[Events]
//Background and Video events
Video,0,"True Survivor (From Kung Fury).avi"
0,0,"kungfury-bc8fde63705f5d5b.png",0,0
//Break Periods
2,114422,118304
//Storyboard Layer 0 (Background)
//Storyboard Layer 1 (Fail)
//Storyboard Layer 2 (Pass)
//Storyboard Layer 3 (Foreground)
Sprite,Foreground,Centre,"Not-accepted.png",320,240 M,0,42947,,465,393 S,0,42947,,0.4346666 F,0,42947,43349,0,1 F,0,43349,112209,1 F,0,112209,112611,1,0 F,0,112611,113014,0,1 F,0,113014,113417,1,0 F,0,113417,113819,0,1 F,0,113819,114222,1,0
Sprite,Foreground,Centre,"WTF Is This.png",320,240 M,0,118652,,135,401 S,0,118652,,0.4453334 F,0,118652,119054,0,1 F,0,119054,144826,1 F,0,144826,145229,1,0 F,0,145229,145631,0,1 F,0,145631,146034,1,0
Sprite,Foreground,Centre,"AtariConsole.png",320,240 M,0,146034,,501,395 S,0,146034,,0.4986667 F,0,146034,146437,0,1 F,0,146437,183081,1 F,0,183081,183484,1,0 F,0,183484,183886,0,1 F,0,183886,184289,1,0 F,0,184289,184692,0,1 F,0,184692,185094,1,0
Sprite,Foreground,Centre,"This Guy.png",320,240 M,0,185094,,481,91 S,0,185094,,0.4240002 F,0,185094,185497,0,1 F,0,185497,221739,1 F,0,221739,222141,1,0 F,0,222141,222544,0,1 F,0,222544,222947,1,0 F,0,222947,223349,0,1 F,0,223349,223752,1,0
//Storyboard Sound Samples

[TimingPoints]
43350,402.684563758389,4,2,1,75,1,0
48081,-100,4,2,1,20,0,0
48115,-100,4,2,1,40,0,0
48148,-100,4,2,1,60,0,0
48182,-100,4,3,0,75,0,0
49792,-83.3333333333333,4,2,1,75,0,0
54625,-83.3333333333333,4,3,0,75,0,0
56034,-83.3333333333333,4,2,1,75,0,0
61269,-83.3333333333333,4,3,0,75,0,0
62678,-83.3333333333333,4,2,1,75,0,0
68115,-83.3333333333333,4,3,0,50,0,0
68920,-83.3333333333333,4,2,1,75,0,0
74155,-83.3333333333333,4,3,0,50,0,0
75564,-83.3333333333333,4,2,1,75,0,0
85229,-83.3333333333333,4,2,1,20,0,0
85631,-83.3333333333333,4,2,1,30,0,0
86034,-83.3333333333333,4,2,1,40,0,0
86437,-83.3333333333333,4,2,1,50,0,0
86839,-83.3333333333333,4,2,1,60,0,0
87242,-83.3333333333333,4,2,1,70,0,0
87645,-83.3333333333333,4,2,1,80,0,0
88047,-83.3333333333333,4,2,1,90,0,0
88450,-83.3333333333333,4,2,1,75,0,1
99725,-83.3333333333333,4,3,0,50,0,1
101336,-83.3333333333333,4,2,1,75,0,1
114222,-83.3333333333333,4,2,1,75,0,0
119054,-83.3333333333333,4,3,0,50,0,0
120665,-83.3333333333333,4,2,1,75,0,0
126101,-83.3333333333333,4,3,0,50,0,0
127108,-83.3333333333333,4,2,1,75,0,0
131940,-83.3333333333333,4,3,0,50,0,0
133551,-83.3333333333333,4,2,1,75,0,1
145027,-83.3333333333333,4,3,0,50,0,1
146437,-83.3333333333333,4,2,1,75,0,1
159323,-83.3333333333333,4,2,1,75,0,0
164407,-83.3333333333333,4,3,0,50,0,0
165766,-83.3333333333333,4,2,1,75,0,0
170799,-83.3333333333333,4,3,0,50,0,0
172209,-83.3333333333333,4,2,1,75,0,0
185094,-83.3333333333333,4,2,1,75,0,1
196772,-83.3333333333333,4,3,0,50,0,1
197980,-83.3333333333333,4,2,1,75,0,1
203215,-83.3333333333333,4,3,0,50,0,1
204423,-83.3333333333333,4,2,1,75,0,1
216101,-83.3333333333333,4,3,0,50,0,1
217309,-83.3333333333333,4,2,1,75,0,1
222343,-83.3333333333333,4,3,0,50,0,1
223752,-83.3333333333333,4,2,1,75,0,0

[Colours]
Combo1 : 238,238,238
Combo2 : 255,0,128
Combo3 : 0,255,128
Combo4 : 0,255,255

[HitObjects]
72,72,43349,5,0,0:0:0:0:
120,144,43551,1,0,0:0:0:0:
196,108,43752,1,2,0:0:0:0:
72,72,43954,2,0,P|40:112|44:176,1,85
76,216,44356,1,2,0:0:0:0:
196,108,44558,2,0,L|208:4,1,85
306,23,44960,6,0,L|316:108,1,85
436,216,45363,1,2,0:0:0:0:
476,144,45564,2,0,P|468:103|440:72,1,85
316,108,45967,1,2,0:0:0:0:
392,144,46168,1,0,0:0:0:0:
440,72,46370,1,0,0:0:0:0:
324,192,46571,5,0,0:0:0:0:
256,244,46772,1,0,0:0:0:0:
188,192,46974,1,2,0:0:0:0:
364,248,47175,5,0,0:0:0:0:
256,332,47376,1,0,0:0:0:0:
148,248,47578,1,2,0:0:0:0:
176,116,47779,1,0,0:0:0:0:
336,116,47980,1,2,0:0:0:0:
364,248,48182,1,0,0:0:0:0:
148,248,48383,1,8,0:3:0:0:
364,248,48584,1,4,0:3:0:0:
176,116,48786,2,0,L|172:64,2,42.5,8|0|4,0:3|0:0|0:3,0:0:0:0:
256,332,49188,1,4,0:3:0:0:
256,332,49390,2,0,B|236:244|276:244|256:160,1,170,10|4,0:3|0:0,0:0:0:0:
228,64,49994,5,0,0:0:0:0:
128,44,50195,2,0,B|88:76|92:136|92:136|48:164|52:224,1,203.999993774414,0|0,1:0|0:0,0:0:0:0:
100,312,50799,1,0,0:0:0:0:
200,288,51001,2,0,P|256:220|312:292,1,203.999993774414,0|4,1:0|0:3,0:0:0:0:
412,312,51605,1,0,0:0:0:0:
476,232,51806,2,0,P|492:192|488:128,1,101.999996887207,8|0,0:0|0:0,0:0:0:0:
396,92,52209,1,0,0:0:0:0:
308,144,52410,1,4,0:3:0:0:
216,80,52611,2,0,P|244:8|296:80,1,203.999993774414,8|4,0:0|0:3,0:0:0:0:
204,144,53215,5,0,0:3:0:0:
116,92,53416,1,8,0:0:0:0:
22,133,53618,2,0,P|18:184|36:232,1,101.999996887207,0|4,0:0|0:3,0:0:0:0:
132,272,54021,1,0,0:0:0:0:
204,344,54222,2,0,B|232:336|264:344|264:344|288:324|256:288|228:324|252:344|252:344|288:336|312:344,1,203.999993774414,8|8,0:0|0:3,0:0:0:0:
372,368,54725,6,0,B|384:328|360:300|360:300|372:264,1,101.999996887207,8|8,0:3|0:3,0:0:0:0:
432,268,55027,2,0,P|404:220|348:212,1,101.999996887207,4|2,0:3|0:0,0:0:0:0:
200,144,55430,1,2,0:2:0:0:
312,144,55631,1,4,0:0:0:0:
150,209,55833,2,0,P|102:223|80:268,1,101.999996887207,8|2,0:3|0:0,0:0:0:0:
8,196,56235,6,0,B|32:152|72:132|72:132|84:112|84:112|128:92|152:56,1,203.999993774414,4|8,1:0|0:0,0:0:0:0:
200,144,56839,2,0,P|244:212|312:144,1,203.999993774414,2|4,0:0|0:3,0:0:0:0:
360,56,57443,1,0,1:0:0:0:
360,56,57645,6,0,B|384:92|428:112|428:112|440:132|440:132|480:152|504:196,1,203.999993774414,2|4,0:0|0:3,0:0:0:0:
492,296,58249,1,8,0:0:0:0:
412,360,58450,6,0,L|308:372,1,101.999996887207,2|0,0:0|0:0,0:0:0:0:
224,304,58853,2,0,P|244:276|292:312,1,101.999996887207,4|8,0:3|0:0,0:0:0:0:
201,371,59256,2,0,L|100:360,1,101.999996887207,2|4,0:0|0:3,0:0:0:0:
144,272,59658,2,2,B|160:224|224:192|256:192|256:192|304:192|328:160|344:80|256:28|168:80|180:160|208:192|256:192|256:192|288:192|352:224|368:272,1,611.999981323243,2|2,0:0|0:0,0:1:0:0:
372,172,61068,5,0,0:0:0:0:
352,72,61269,2,8,P|392:92|464:56,1,101.999996887207,8|8,0:3|0:3,0:3:0:0:
256,20,61672,1,4,0:3:0:0:
66,77,61873,2,8,P|114:92|160:71,1,101.999996887207,8|8,0:3|0:3,0:3:0:0:
140,172,62275,1,4,0:3:0:0:
256,272,62477,5,0,0:0:0:0:
176,336,62678,2,0,L|68:344,1,101.999996887207,4|0,0:0|0:0,0:0:0:0:
4,268,63081,2,0,B|108:260|108:260|56:244|52:180,1,203.999993774414,8|2,0:0|0:0,0:0:0:0:
88,88,63685,1,4,0:3:0:0:
140,172,63886,2,0,P|188:80|136:0,1,203.999993774414,8|4,0:0|0:3,0:0:0:0:
88,88,64490,5,0,0:0:0:0:
140,172,64692,1,8,0:0:0:0:
300,232,64893,1,0,0:0:0:0:
208,300,65094,1,0,0:0:0:0:
212,232,65296,1,4,0:3:0:0:
304,300,65497,1,8,0:0:0:0:
372,172,65698,5,0,0:0:0:0:
424,88,65900,2,0,P|376:72|316:88,1,101.999996887207,4|0,0:3|0:0,0:0:0:0:
185,81,66303,2,0,P|135:72|88:88,1,101.999996887207,8|0,0:0|0:0,0:0:0:0:
140,172,66705,2,0,P|256:256|372:172,1,305.999990661621,2|0,0:0|0:0,0:0:0:0:
444,244,67511,6,0,P|404:296|368:320,1,101.999996887207,4|0,0:3|0:0,0:0:0:0:
204,344,67913,2,0,P|256:352|304:344,1,101.999996887207,8|8,0:0|0:3,0:0:0:0:
137,316,68316,2,0,P|97:285|68:244,1,101.999996887207,2|4,0:0|0:3,0:0:0:0:
40,144,68719,1,8,0:0:0:0:
128,80,68920,6,0,B|208:64|256:144|256:144|304:64|384:80,1,305.999990661621,2|8,0:0|0:0,0:0:0:0:
352,176,69725,2,0,P|272:272|160:168,1,305.999990661621,2|8,0:0|0:0,0:0:0:0:
208,80,70531,6,0,B|208:16|144:0,1,101.999996887207,2|4,0:0|0:3,0:0:0:0:
256,128,70933,2,0,B|288:176|224:176|256:224,1,101.999996887207,2|8,0:0|0:0,0:0:0:0:
304,80,71336,2,0,B|304:16|368:0,1,101.999996887207,2|4,0:0|0:3,0:0:0:0:
456,40,71739,1,0,0:0:0:0:
480,136,71940,1,8,0:0:0:0:
392,192,72141,2,0,P|440:232|328:224,1,305.999990661621,2|8,0:0|0:0,0:0:0:0:
176,72,73148,2,0,L|80:40,1,101.999996887207,0|4,0:0|0:3,0:0:0:0:
224,120,73551,2,0,L|216:16,1,101.999996887207,8|0,0:0|0:0,0:0:0:0:
295,18,73954,6,0,L|288:120,1,101.999996887207,0|8,0:0|0:3,0:0:0:0:
432,40,74356,2,0,L|336:72,1,101.999996887207,0|4,0:0|0:3,0:0:0:0:
144,144,74759,5,2,0:0:0:0:
256,256,74960,1,4,0:0:0:0:
368,144,75162,1,8,1:3:0:0:
176,240,75564,6,0,B|192:176|272:176|272:176|328:160|384:72|256:-56|128:72|184:160|240:176|240:176|320:176|336:240,1,611.999981323243,2|0,0:0|0:0,0:0:0:0:
440,248,76974,2,0,B|432:336|336:368|288:336|256:272|256:272|224:336|176:368|80:336|80:240,1,509.999984436036,2|8,0:0|0:0,0:0:0:0:
160,64,78383,1,0,0:0:0:0:
256,16,78584,1,0,0:0:0:0:
352,64,78786,2,0,P|352:112|224:112,1,203.999993774414,2|0,0:0|0:0,0:0:0:0:
160,64,79390,2,0,P|195:149|288:120,1,203.999993774414,10|0,0:0|0:0,0:0:0:0:
80,144,80195,6,0,B|96:240|224:256|224:256|256:336|288:256|288:256|416:240|448:144,1,509.999984436036,2|8,0:0|0:0,0:0:0:0:
256,64,81605,1,2,0:0:0:0:
192,144,81806,1,0,0:0:0:0:
320,144,82007,5,4,1:0:0:0:
256,224,82209,1,2,0:0:0:0:
64,304,82611,2,0,P|112:352|112:224,1,305.999990661621,8|0,0:0|0:0,0:0:0:0:
16,224,83417,1,2,0:0:0:0:
192,144,83819,2,0,P|224:112|224:16,1,101.999996887207,2|0,0:0|0:0,0:0:0:0:
144,64,84222,2,0,P|96:16|96:144,1,305.999990661621,2|4,0:0|0:3,0:0:0:0:
192,144,85027,6,2,B|192:224|248:204|288:160|288:160|400:208|400:288|368:400|256:448|144:400|96:272|128:208|224:160|224:160|264:204|320:224|328:136,1,917.999971984864,2|2,0:0|0:0,0:1:0:0:
352,80,87041,1,0,0:0:0:0:
256,0,87242,1,2,0:0:0:0:
160,80,87443,1,0,0:0:0:0:
192,192,87645,2,0,L|80:208,1,101.999996887207,2|0,0:0|0:0,0:0:0:0:
320,192,88047,2,0,L|424:208,1,101.999996887207,2|0,0:0|0:0,0:0:0:0:
480,288,88450,5,4,1:0:0:0:
224,352,88853,2,0,P|216:304|288:352,1,203.999993774414,8|2,0:0|0:3,0:0:0:0:
216,280,89457,2,0,P|176:288|120:248,1,101.999996887207,4|8,0:3|0:0,0:0:0:0:
24,232,89860,6,0,P|64:144|168:152,1,203.999993774414,2|0,0:0|0:0,0:0:0:0:
328,216,90464,1,8,0:0:0:0:
184,216,90665,1,2,0:0:0:0:
296,280,90866,2,0,P|336:288|392:248,1,101.999996887207,0|4,0:3|0:3,0:0:0:0:
360,152,91269,2,0,P|320:144|264:184,1,101.999996887207,8|0,0:0|0:3,0:0:0:0:
296,280,91672,6,0,B|352:312|408:256|400:216|400:216|440:192|432:128,1,203.999993774414,4|8,0:3|0:0,0:0:0:0:
384,80,92276,2,0,B|328:64|296:104|296:104|280:96|280:96|248:136|200:128,1,203.999993774414,2|4,0:0|0:3,0:0:0:0:
120,184,92880,2,0,P|96:128|136:56,1,101.999996887207,8|0,0:0|0:0,0:0:0:0:
200,40,93282,5,4,0:3:0:0:
328,216,93484,1,0,0:0:0:0:
312,40,93685,5,8,0:0:0:0:
184,216,93886,2,0,P|96:248|56:152,1,203.999993774414,4|4,0:3|0:3,0:0:0:0:
32,64,94490,2,0,P|72:96|136:96,1,101.999996887207,8|0,0:0|0:0,0:0:0:0:
200,40,94893,6,0,P|232:104|312:40,1,203.999993774414,4|8,0:3|0:0,0:0:0:0:
390,283,95698,2,0,P|440:288|480:320,1,101.999996887207,0|4,0:0|0:3,0:0:0:0:
460,218,96101,1,8,0:0:0:0:
460,218,96303,6,0,P|415:135|327:167,1,203.999993774414,0|4,0:0|0:3,0:0:0:0:
312,272,96907,2,0,L|320:376,1,101.999996887207,8|0,0:0|0:0,0:0:0:0:
192,373,97309,2,0,L|200:272,1,101.999996887207,2|4,0:0|0:3,0:0:0:0:
327,167,97712,1,8,0:0:0:0:
185,167,97913,1,2,0:0:0:0:
120,248,98115,6,0,P|64:288|40:192,1,203.999993774414,2|8,0:0|0:0,0:0:0:0:
112,112,98719,2,0,B|160:64|224:80|224:80|192:48|208:0,1,203.999993774414,2|4,0:0|0:3,0:0:0:0:
305,4,99323,2,0,B|320:48|288:80|288:80|352:64|400:112,1,203.999993774414,8|4,0:0|0:3,0:0:0:0:
256,256,100128,1,8,0:0:0:0:
176,64,100531,1,8,0:0:0:0:
336,64,100732,1,4,0:0:0:0:
208,160,100933,1,8,0:0:0:0:
304,160,101135,1,4,0:0:0:0:
256,0,101336,5,4,1:0:0:0:
64,112,101739,2,0,P|48:64|80:0,1,101.999996887207,8|0,0:0|0:0,0:0:0:0:
128,176,102141,2,0,P|144:112|272:112,1,203.999993774414,2|8,0:0|0:0,0:0:0:0:
256,304,102947,1,4,0:3:0:0:
448,112,103349,2,0,P|464:64|432:0,1,101.999996887207,8|0,0:0|0:0,0:0:0:0:
384,176,103751,2,0,P|368:112|240:108,1,203.999993774414,2|8,0:0|0:0,0:0:0:0:
112,256,104558,5,4,0:3:0:0:
208,208,104759,1,4,0:3:0:0:
256,304,104960,2,0,L|368:320,1,101.999996887207,8|4,0:0|0:3,0:0:0:0:
432,256,105363,2,0,P|496:208|448:112,1,203.999993774414,2|8,0:0|0:0,0:0:0:0:
352,96,105967,1,0,0:0:0:0:
352,96,106168,6,0,L|320:208,1,101.999996887207,4|0,0:3|0:0,0:0:0:0:
288,32,106571,2,0,L|304:144,1,101.999996887207,8|4,0:0|0:3,0:0:0:0:
209,132,106974,2,0,L|224:32,1,101.999996887207,2|4,0:0|0:3,0:0:0:0:
188,194,107377,2,0,L|160:96,1,101.999996887207,8|0,0:0|0:0,0:0:0:0:
128,0,107779,5,4,0:3:0:0:
384,0,108182,1,8,0:0:0:0:
323,194,108584,2,0,P|291:242|323:306,1,101.999996887207,0|4,0:0|0:3,0:0:0:0:
211,282,108987,2,0,P|217:232|187:193,1,101.999996887207,8|2,0:0|0:0,0:0:0:0:
88,192,109390,5,4,0:3:0:0:
64,96,109591,1,0,0:0:0:0:
168,24,109792,1,8,0:0:0:0:
192,120,109993,1,4,0:3:0:0:
320,120,110195,5,2,0:0:0:0:
344,24,110396,1,4,0:3:0:0:
448,96,110597,1,8,0:0:0:0:
424,192,110798,1,4,0:3:0:0:
336,240,111001,6,0,P|400:320|480:272,1,203.999993774414,2|8,0:0|0:0,0:0:0:0:
424,192,111605,1,2,0:0:0:0:
256,144,112007,2,2,B|192:144|112:112|128:0|176:-64|272:-64|320:-48|384:-16|400:128|304:144|256:160|256:160|208:176|128:208|128:320|208:400|336:384|400:256|288:176,1,1019.99996887207,2|0,0:0|0:0,0:1:0:0:
256,256,114222,1,4,1:0:0:0:
256,36,119054,5,0,0:0:0:0:
256,36,119155,1,0,0:0:0:0:
256,160,119356,5,0,0:0:0:0:
256,160,119457,1,0,0:0:0:0:
256,344,119860,5,0,0:0:0:0:
256,200,120061,1,0,0:0:0:0:
160,64,120262,2,0,P|256:96|368:48,1,203.999993774414,0|4,0:0|0:0,0:0:0:0:
256,192,120866,5,0,0:0:0:0:
341,247,121068,2,2,P|335:197|348:148,1,101.999996887207,2|0,0:0|0:0,0:0:0:0:
308,92,121470,2,0,P|256:96|200:92,1,101.999996887207
164,148,121873,2,2,P|176:216|160:272,1,101.999996887207
256,300,122276,5,0,0:0:0:0:
324,224,122477,1,0,0:0:0:0:
256,300,122678,1,2,0:0:0:0:
256,196,122880,1,0,0:0:0:0:
256,300,123081,1,0,0:0:0:0:
188,224,123282,1,0,0:0:0:0:
184,120,123484,1,2,0:0:0:0:
263,54,123685,6,2,P|323:46|403:58,1,101.999996887207,2|0,0:0|0:0,0:0:0:0:
249,329,124088,2,2,P|198:337|147:335,1,101.999996887207,0|2,0:0|0:0,0:0:0:0:
256,164,124490,1,0,0:0:0:0:
256,16,124692,1,0,0:0:0:0:
340,76,124893,6,2,P|360:132|400:172,1,101.999996887207,0|2,0:0|0:0,0:0:0:0:
256,148,125296,2,0,L|256:260,1,101.999996887207
172,76,125698,2,0,P|152:132|112:172,1,101.999996887207,2|2,0:0|0:0,0:0:0:0:
220,172,126101,5,2,0:0:0:0:
284,224,126303,1,2,0:0:0:0:
308,124,126504,1,0,0:0:0:0:
180,156,126705,2,0,P|248:192|336:292,1,203.999993774414,0|4,0:0|0:0,0:0:0:0:
216,288,127309,5,0,0:0:0:0:
216,288,127511,2,2,P|132:268|104:240,1,101.999996887207
128,156,127913,1,0,0:0:0:0:
296,96,128316,5,2,0:0:0:0:
295,96,128518,2,2,P|346:99|390:124,1,101.999996887207,2|0,0:0|0:0,0:0:0:0:
390,259,128920,2,0,P|346:284|295:287,1,101.999996887207,0|2,0:0|0:0,0:0:0:0:
256,192,129323,1,2,0:0:0:0:
216,287,129524,2,0,P|165:284|121:259,1,101.999996887207
121,124,129926,2,0,P|165:99|216:96,1,101.999996887207
256,188,130329,2,8,L|256:320,1,101.999996887207
140,228,130732,6,8,P|176:148|280:156,1,203.999993774414,8|0,0:0|0:0,0:0:0:0:
372,228,131336,2,8,P|336:148|232:156,1,203.999993774414,8|0,0:0|0:0,0:0:0:0:
256,192,131940,1,8,0:0:0:0:
136,136,132141,6,0,P|164:84|212:64,1,101.999996887207
256,192,132544,1,0,0:0:0:0:
256,192,132745,5,8,0:0:0:0:
376,248,132947,2,0,P|348:300|300:320,1,101.999996887207
256,196,133349,1,0,0:0:0:0:
256,140,133551,6,2,L|256:16,1,101.999996887207,2|0,0:0|0:0,0:0:0:0:
256,244,133954,6,0,L|256:368,1,101.999996887207,10|8,0:0|0:0,0:0:0:0:
368,300,134356,2,0,P|340:252|288:220,1,101.999996887207
302,225,134759,1,0,0:0:0:0:
140,188,134960,5,8,0:0:0:0:
140,188,135162,2,8,P|220:160|240:132,1,101.999996887207,0|8,0:0|0:0,0:0:0:0:
372,187,135564,2,0,P|322:180|282:149,1,101.999996887207
256,48,135967,1,0,0:0:0:0:
176,192,136168,1,8,0:0:0:0:
336,192,136370,2,0,P|352:144|352:64,1,101.999996887207,8|0,0:0|0:0,0:0:0:0:
156,92,136772,2,8,P|159:143|176:192,1,101.999996887207
162,319,137175,1,8,0:0:0:0:
162,319,137376,2,8,P|257:287|352:320,1,203.999993774414
352,320,137980,1,4,0:0:0:0:
232,216,138383,5,8,0:0:0:0:
320,132,138584,1,0,0:0:0:0:
360,248,138786,1,0,0:0:0:0:
260,320,138987,1,0,0:0:0:0:
156,256,139188,2,0,P|156:192|168:152,1,101.999996887207,8|8,0:0|0:0,0:0:0:0:
356,128,139591,2,0,P|356:192|344:232,1,101.999996887207
204,192,139994,6,8,L|102:192,1,101.999996887207,10|0,0:0|0:0,0:0:0:0:
308,192,140396,6,8,L|410:192,1,101.999996887207,10|0,0:0|0:0,0:0:0:0:
332,84,141403,5,8,0:0:0:0:
200,88,141605,1,0,0:0:0:0:
200,88,141806,2,8,P|116:116|64:112,1,101.999996887207
311,87,142209,2,0,P|358:109|408:116,1,101.999996887207
200,296,142611,2,8,P|153:274|103:267,1,101.999996887207
156,104,143014,5,8,0:0:0:0:
156,104,143215,1,8,0:0:0:0:
264,280,143618,5,0,0:0:0:0:
264,280,143819,2,2,P|348:304|232:100,1,611.999981323243
180,216,145229,1,0,0:0:0:0:
260,320,145430,1,0,0:0:0:0:
368,244,145631,1,0,0:0:0:0:
288,136,145833,5,0,0:0:0:0:
256,192,146437,5,4,0:0:0:0:
120,48,146839,2,0,P|72:60|32:108,1,101.999996887207,8|0,0:0|0:0,0:0:0:0:
124,148,147242,2,0,P|104:244|124:348,1,203.999993774414,2|8,0:0|0:0,0:0:0:0:
388,346,148047,6,0,P|408:247|388:148,1,203.999993774414,0|8,0:0|0:0,0:0:0:0:
360,48,148652,1,0,0:0:0:0:
260,24,148853,2,0,P|208:44|184:84,1,101.999996887207,2|0,0:0|0:0,0:0:0:0:
256,264,149256,2,0,P|308:244|332:204,1,101.999996887207,8|0,0:0|0:0,0:0:0:0:
256,160,149658,5,0,0:0:0:0:
160,228,149860,1,0,0:0:0:0:
256,264,150061,1,8,0:0:0:0:
332,196,150262,1,0,0:0:0:0:
428,232,150464,5,2,0:0:0:0:
412,132,150665,1,0,0:0:0:0:
352,48,150867,1,8,0:0:0:0:
252,60,151068,1,0,0:0:0:0:
158,31,151269,6,0,P|135:129|160:228,1,203.999993774414,0|2,0:0|0:0,0:0:0:0:
256,264,151873,1,0,0:0:0:0:
324,328,152074,2,0,L|432:312,1,101.999996887207
188,328,152477,2,0,L|80:312,1,101.999996887207,8|0,0:0|0:0,0:0:0:0:
188,256,152880,6,0,P|252:196|320:288,1,203.999993774414,0|4,0:0|0:0,0:0:0:0:
120,192,153685,2,0,P|168:140|232:116,1,101.999996887207
256,48,154088,1,8,0:0:0:0:
392,192,154289,2,0,P|344:140|280:116,1,101.999996887207
256,204,154692,5,0,0:0:0:0:
336,264,154893,1,8,0:0:0:0:
304,360,155094,1,0,0:0:0:0:
208,360,155296,1,0,0:0:0:0:
172,264,155497,1,0,0:0:0:0:
256,204,155698,2,0,P|216:160|160:152,1,101.999996887207,8|0,0:0|0:0,0:0:0:0:
44,264,156101,6,0,P|109:340|208:360,1,203.999993774414,4|0,0:0|0:0,0:0:0:0:
467,264,156705,2,0,P|402:340|304:360,1,203.999993774414,2|0,0:0|0:0,0:0:0:0:
256,280,157309,1,2,0:0:0:0:
76,240,157712,6,0,L|24:136,1,101.999996887207
192,152,158115,2,0,L|184:40,1,101.999996887207,2|0,0:0|0:0,0:0:0:0:
320,152,158517,2,0,L|328:40,1,101.999996887207
436,240,158920,2,0,L|488:136,1,101.999996887207,2|0,0:0|0:0,0:0:0:0:
384,332,159323,5,4,0:0:0:0:
340,240,159524,1,0,0:0:0:0:
256,304,159725,1,8,0:0:0:0:
176,240,159927,1,0,0:0:0:0:
128,332,160128,2,0,L|52:252,1,101.999996887207,2|0,0:0|0:0,0:0:0:0:
121,78,160531,2,0,L|192:152,1,101.999996887207,8|0,0:0|0:0,0:0:0:0:
256,44,160933,5,0,0:0:0:0:
390,78,161135,2,0,L|320:152,1,101.999996887207,0|8,0:0|0:0,0:0:0:0:
256,240,161537,1,0,0:0:0:0:
168,304,161739,2,0,P|256:344|348:296,1,203.999993774414,2|8,0:0|0:0,0:0:0:0:
400,212,162343,1,0,0:0:0:0:
390,78,162544,6,0,P|336:104|304:148,1,101.999996887207,4|0,0:0|0:0,0:0:0:0:
121,77,162947,2,0,P|168:98|202:135,1,101.999996887207,8|0,0:0|0:0,0:0:0:0:
308,224,163349,1,2,0:0:0:0:
256,336,163551,1,0,0:0:0:0:
208,224,163752,1,8,0:0:0:0:
324,296,163954,1,0,0:0:0:0:
192,296,164155,6,0,L|80:296,1,101.999996887207,0|8,0:0|0:0,0:0:0:0:
0,176,164558,2,0,L|112:176,1,101.999996887207,4|0,0:0|0:0,0:0:0:0:
102,176,164860,1,0,0:0:0:0:
102,176,164960,1,8,0:0:0:0:
256,44,165162,1,4,0:0:0:0:
332,108,165363,1,8,0:0:0:0:
180,108,165564,1,4,0:0:0:0:
410,176,165766,6,4,B|412:248|412:248|412:304|392:336|352:360,1,203.999993774414,4|8,0:0|0:0,0:0:0:0:
252,336,166370,1,0,0:0:0:0:
156,304,166571,2,0,L|168:192,1,101.999996887207,2|0,0:0|0:0,0:0:0:0:
332,108,166974,2,0,L|321:209,1,101.999996887207,8|0,0:0|0:0,0:0:0:0:
236,120,167376,6,0,P|260:48|404:32,1,203.999993774414,2|8,0:0|0:0,0:0:0:0:
420,108,167980,2,0,L|395:339,1,203.999993774414,2|0,0:0|0:0,0:0:0:0:
308,360,168584,1,8,0:0:0:0:
256,272,168786,1,0,0:0:0:0:
208,360,168987,6,0,P|152:356|112:324,1,101.999996887207,2|0,0:0|0:0,0:0:0:0:
100,228,169390,1,8,0:0:0:0:
156,144,169591,2,0,P|212:148|252:180,1,101.999996887207,2|0,0:0|0:0,0:0:0:0:
256,272,169994,1,2,0:0:0:0:
308,360,170195,1,8,0:0:0:0:
400,316,170396,1,2,0:0:0:0:
348,228,170598,5,0,0:0:0:0:
312,132,170799,2,0,L|364:40,1,101.999996887207,8|4,0:0|0:0,0:0:0:0:
168,228,171202,1,0,0:0:0:0:
200,132,171403,2,0,L|150:44,1,101.999996887207,8|4,0:0|0:0,0:0:0:0:
260,216,171806,2,0,B|244:256|272:284|272:284|280:324|256:356,1,101.999996887207,2|0,0:0|0:0,0:0:0:0:
192,328,172209,6,0,P|144:336|76:320,1,101.999996887207,4|0,0:0|0:0,0:0:0:0:
4,208,172611,2,0,P|52:200|112:224,1,101.999996887207,2|0,0:0|0:0,0:0:0:0:
28,360,173014,2,0,P|20:300|48:264,1,101.999996887207
164,172,173417,2,0,P|176:228|156:268,1,101.999996887207,2|0,0:0|0:0,0:0:0:0:
84,120,173819,6,0,P|172:68|244:128,1,203.999993774414,0|2,0:0|0:0,0:0:0:0:
248,204,174423,1,0,0:0:0:0:
296,276,174625,1,0,0:0:0:0:
372,308,174826,1,0,0:0:0:0:
456,296,175027,1,2,0:0:0:0:
508,228,175229,1,0,0:0:0:0:
480,148,175430,6,0,L|496:352,1,203.999993774414,0|2,0:0|0:0,0:0:0:0:
400,232,176034,2,0,L|380:24,1,203.999993774414,0|2,0:0|0:0,0:0:0:0:
168,44,176839,1,0,0:0:0:0:
168,44,177041,6,0,L|176:148,1,101.999996887207
400,232,177443,2,0,L|392:128,1,101.999996887207,2|0,0:0|0:0,0:0:0:0:
288,92,177846,2,0,L|296:200,1,101.999996887207
492,188,178249,1,2,0:0:0:0:
492,188,178450,1,0,0:0:0:0:
392,56,178652,5,4,0:0:0:0:
484,96,178853,1,0,0:0:0:0:
393,147,179054,1,2,0:0:0:0:
492,188,179256,1,0,0:0:0:0:
412,320,179457,6,0,L|400:216,1,101.999996887207
232,340,179860,2,0,L|336:328,1,101.999996887207,2|0,0:0|0:0,0:0:0:0:
208,164,180262,2,0,L|220:272,1,101.999996887207
393,147,180665,2,0,L|292:160,1,101.999996887207,2|0,0:0|0:0,0:0:0:0:
200,68,181068,6,0,L|408:44,1,203.999993774414,0|2,0:0|0:0,0:0:0:0:
512,224,181672,2,0,L|308:252,1,203.999993774414
248,216,182276,6,0,P|240:264|268:312,1,101.999996887207,2|0,0:0|0:0,0:0:0:0:
168,192,182678,2,0,P|120:184|68:200,1,101.999996887207
240,128,183081,2,0,P|248:79|228:32,1,101.999996887207,2|0,0:0|0:0,0:0:0:0:
132,96,183484,5,4,0:0:0:0:
264,212,183685,1,0,0:0:0:0:
160,312,183886,1,2,0:0:0:0:
32,204,184088,1,0,0:0:0:0:
196,156,184289,5,4,0:0:0:0:
328,272,184490,1,0,0:0:0:0:
224,372,184691,1,2,0:0:0:0:
96,264,184893,1,0,0:0:0:0:
286,178,185094,6,0,P|349:173|395:196,1,101.999996887207,4|0,0:0|0:0,0:0:0:0:
424,320,185497,2,0,B|368:376|277:351|257:279|257:279|235:351|144:376|88:320,1,407.999987548829,8|8,0:0|0:0,0:0:0:0:
161,250,186504,1,2,0:0:0:0:
60,233,186705,6,0,L|41:130,1,101.999996887207,0|2,0:0|0:0,0:0:0:0:
110,57,187108,1,8,0:0:0:0:
189,120,187309,2,0,P|286:158|379:119,1,203.999993774414,2|2,0:0|0:0,0:0:0:0:
445,49,187913,1,8,0:0:0:0:
500,135,188115,1,2,0:0:0:0:
434,213,188316,6,0,P|426:268|445:319,1,101.999996887207,0|2,0:0|0:0,0:0:0:0:
338,376,188719,2,0,P|346:321|327:270,1,101.999996887207,8|2,0:0|0:0,0:0:0:0:
235,243,189121,2,0,L|21:264,1,203.999993774414,0|8,0:0|0:0,0:0:0:0:
81,173,189725,1,2,0:0:0:0:
195,333,189927,5,0,0:0:0:0:
92,341,190128,1,2,0:0:0:0:
182,161,190329,1,8,0:0:0:0:
234,243,190531,2,0,P|308:263|404:188,1,203.999993774414,2|2,0:0|0:0,0:0:0:0:
331,259,191135,2,0,P|311:321|316:368,1,101.999996887207,8|0,0:0|0:0,0:0:0:0:
498,230,191537,6,0,L|484:118,1,101.999996887207,4|0,0:0|0:0,0:0:0:0:
344,20,191940,2,0,L|331:121,1,101.999996887207,8|0,0:0|0:0,0:0:0:0:
310,375,192343,2,0,P|355:303|287:197,1,203.999993774414,2|8,0:0|0:0,0:0:0:0:
256,292,192947,1,0,0:0:0:0:
206,205,193148,6,0,P|156:288|202:375,1,203.999993774414,2|8,0:0|0:0,0:0:0:0:
256,292,193752,1,0,0:0:0:0:
180,121,193954,2,0,L|168:20,1,101.999996887207,2|0,0:0|0:0,0:0:0:0:
26,128,194357,2,0,L|14:230,1,101.999996887207,8|0,0:0|0:0,0:0:0:0:
35,355,194759,6,0,B|140:356|140:356|181:355|207:335|220:299,1,203.999993774414,2|8,0:0|0:0,0:0:0:0:
256,192,195363,1,0,0:0:0:0:
294,304,195564,2,0,B|305:335|331:355|372:356|372:356|477:355,1,203.999993774414,2|8,0:0|0:0,0:0:0:0:
493,234,196168,1,2,0:0:0:0:
376,114,196370,6,0,P|367:153|384:216,1,101.999996887207,4|0,0:0|0:0,0:0:0:0:
314,374,196772,2,0,L|317:271,1,101.999996887207,8|0,0:0|0:0,0:0:0:0:
195,272,197175,2,0,L|198:374,1,101.999996887207,8|12,0:0|0:0,0:0:0:0:
130,212,197577,2,0,P|144:163|136:114,1,101.999996887207,8|2,0:0|0:0,0:0:0:0:
46,158,197980,5,4,0:0:0:0:
46,158,198383,2,0,P|169:185|243:154,1,203.999993774414,8|2,0:0|0:0,0:0:0:0:
302,77,198987,1,0,0:0:0:0:
372,150,199188,1,8,0:0:0:0:
314,234,199390,6,0,L|328:352,1,101.999996887207,2|0,0:0|0:0,0:0:0:0:
414,284,199792,1,2,0:0:0:0:
224,271,199994,2,0,P|154:271|105:285,1,101.999996887207,8|0,0:0|0:0,0:0:0:0:
5,182,200396,2,0,P|54:191|105:189,1,101.999996887207,2|0,0:0|0:0,0:0:0:0:
150,26,200799,1,8,0:0:0:0:
65,91,201001,1,0,0:0:0:0:
196,124,201202,6,0,P|264:143|389:98,1,203.999993774414,2|8,0:0|0:0,0:0:0:0:
293,143,201806,2,0,P|218:213|205:313,1,203.999993774414,2|2,0:0|0:0,0:0:0:0:
118,183,202410,2,0,P|88:140|28:117,1,101.999996887207,8|0,0:0|0:0,0:0:0:0:
25,219,202813,5,2,0:0:0:0:
102,284,203014,1,0,0:0:0:0:
196,246,203215,2,0,L|305:265,1,101.999996887207,8|0,0:0|0:0,0:0:0:0:
370,333,203618,1,8,0:0:0:0:
461,288,203819,1,8,0:0:0:0:
442,187,204021,1,12,0:0:0:0:
341,169,204222,1,2,0:0:0:0:
296,263,204423,6,0,L|196:246,1,101.999996887207,4|0,0:0|0:0,0:0:0:0:
82,284,204826,2,0,L|99:183,1,101.999996887207,8|0,0:0|0:0,0:0:0:0:
74,78,205229,2,0,L|174:95,1,101.999996887207,2|0,0:0|0:0,0:0:0:0:
288,57,205632,2,0,L|270:157,1,101.999996887207,8|2,0:0|0:0,0:0:0:0:
334,236,206034,5,0,0:0:0:0:
427,195,206235,2,0,P|445:142|426:91,2,101.999996887207,2|8|0,0:0|0:0|0:0,0:0:0:0:
262,124,206839,2,0,L|363:140,1,101.999996887207,2|0,0:0|0:0,0:0:0:0:
231,227,207242,2,0,L|130:243,1,101.999996887207,8|0,0:0|0:0,0:0:0:0:
37,79,207645,6,0,P|101:42|126:144,1,203.999993774414,2|8,0:0|0:0,0:0:0:0:
130,242,208249,2,0,P|45:271|34:182,1,203.999993774414,2|2,0:0|0:0,0:0:0:0:
218,196,208853,2,0,P|254:237|264:286,1,101.999996887207,8|0,0:0|0:0,0:0:0:0:
328,172,209256,6,0,P|340:122|374:85,1,101.999996887207,2|0,0:0|0:0,0:0:0:0:
428,171,209658,1,8,0:0:0:0:
251,95,209860,2,0,P|182:118|54:67,1,203.999993774414,2|2,0:0|0:0,0:0:0:0:
155,118,210464,2,0,P|191:160|211:219,1,101.999996887207,8|0,0:0|0:0,0:0:0:0:
143,350,210866,5,4,0:0:0:0:
143,350,211269,2,0,L|116:247,1,101.999996887207,8|0,0:0|0:0,0:0:0:0:
322,193,211672,2,0,L|246:267,1,101.999996887207,2|0,0:0|0:0,0:0:0:0:
97,117,212074,2,0,L|199:145,1,101.999996887207,8|0,0:0|0:0,0:0:0:0:
307,37,212477,5,0,0:0:0:0:
307,37,212880,2,0,P|355:68|411:73,1,101.999996887207,8|0,0:0|0:0,0:0:0:0:
183,130,213282,2,0,P|185:72|162:21,1,101.999996887207,2|0,0:0|0:0,0:0:0:0:
322,193,213685,2,0,P|271:219|238:265,1,101.999996887207,8|0,0:0|0:0,0:0:0:0:
344,305,214088,5,0,0:0:0:0:
195,365,214289,1,0,0:0:0:0:
71,263,214490,2,0,L|57:156,1,101.999996887207,8|0,0:0|0:0,0:0:0:0:
163,16,214893,2,0,P|210:78|166:203,1,203.999993774414,2|8,0:0|0:0,0:0:0:0:
256,280,215497,1,0,0:0:0:0:
332,192,215698,6,0,P|297:100|349:16,1,203.999993774414,2|8,0:0|0:0,0:0:0:0:
410,112,216303,1,0,0:0:0:0:
447,217,216504,2,0,L|439:336,1,101.999996887207,8|0,0:0|0:0,0:0:0:0:
263,108,216907,2,0,L|255:227,1,101.999996887207,12|2,0:0|0:0,0:0:0:0:
115,290,217309,6,0,P|54:297|9:277,1,101.999996887207,4|0,0:0|0:0,0:0:0:0:
29,102,217712,2,0,P|90:95|135:115,1,101.999996887207,8|0,0:0|0:0,0:0:0:0:
72,197,218115,1,2,0:0:0:0:
173,201,218316,1,0,0:0:0:0:
226,114,218517,1,8,0:0:0:0:
289,194,218719,6,0,P|363:228|466:171,1,203.999993774414,2|2,0:0|0:0,0:0:0:0:
368,114,219323,1,8,0:0:0:0:
301,279,219524,1,0,0:0:0:0:
478,258,219725,1,2,0:0:0:0:
285,177,219927,1,0,0:0:0:0:
395,318,220128,1,8,0:0:0:0:
465,154,220329,1,0,0:0:0:0:
381,216,220531,6,0,L|178:198,1,203.999993774414,2|8,0:0|0:0,0:0:0:0:
84,240,221135,2,0,P|68:299|85:348,1,101.999996887207,2|0,0:0|0:0,0:0:0:0:
93,142,221537,2,0,P|103:92|87:44,1,101.999996887207,2|8,0:0|0:0,0:0:0:0:
11,100,221940,1,0,0:0:0:0:
204,130,222141,6,0,L|320:118,1,101.999996887207,2|8,0:0|0:0,0:0:0:0:
171,56,222544,1,0,0:0:0:0:
393,161,222745,1,8,0:0:0:0:
267,293,222947,2,0,L|246:189,1,101.999996887207,0|12,0:0|0:0,0:0:0:0:
92,141,223349,1,2,0:0:0:0:
428,293,223752,5,4,0:0:0:0:
256,192,223853,12,0,226974,0:0:0:0:
