osu file format v14

[General]
AudioFilename: True Survivor.mp3
AudioLeadIn: 0
PreviewTime: 86839
Countdown: 1
SampleSet: Soft
StackLeniency: 0.7
Mode: 0
LetterboxInBreaks: 1
WidescreenStoryboard: 1

[Editor]
Bookmarks: 43383,76772,76974,77980,78383,80195,81202,83417,85027,86839,99725,105363,114222,120665,127108,133551,139994,146437,152880,159323
DistanceSpacing: 1
BeatDivisor: 4
GridSize: 16
TimelineZoom: 1.8

[Metadata]
Title:True Survivor
TitleUnicode:True Survivor
Artist:David Hasselhoff
ArtistUnicode:David Hasselhoff
Creator:Crimmi
Version:Extra Survivors
Source:Kung Fury
Tags:ezek Cancel Blue Dragon mtmcl whymeman Tari jyvii Kyshiro ktgster Laser Unicorns 80's Tribute Mitch Murder Jorgen Elofsson Synthwave
BeatmapID:738978
BeatmapSetID:321460

[Difficulty]
HPDrainRate:8
CircleSize:5
OverallDifficulty:8
ApproachRate:7
SliderMultiplier:1.7
SliderTickRate:2

[Events]
//Background and Video events
0,0,"kungfury-bc8fde63705f5d5b.png",0,0
Video,0,"True Survivor (From Kung Fury).avi"
//Break Periods
2,114422,119765
//Storyboard Layer 0 (Background)
//Storyboard Layer 1 (Fail)
//Storyboard Layer 2 (Pass)
//Storyboard Layer 3 (Foreground)
Sprite,Foreground,Centre,"MeetTomorrowMorningCasualLove.png",320,240 M,0,42947,,180,91 S,0,42947,,0.5626667 F,0,42947,43349,0,1 F,0,43349,73954,1 F,0,73954,74356,1,0 F,0,74356,74759,0,1 F,0,74759,75162,1,0 F,0,75162,75363,0,1 F,0,75363,75564,1,0
Sprite,Foreground,Centre,"BlueDragonite.png",320,240 F,0,75162,75363,0.01333328,0 F,0,75363,75564,0,1 M,0,75564,,426,410 S,0,75564,,0.3813332 F,0,75564,112611,1 F,0,112611,113014,1,0 F,0,113014,113417,0,1 F,0,113417,113819,1,0 F,0,113819,114021,0,1 F,0,114021,114222,1,0
Sprite,Foreground,Centre,"BecauseIWant.png",320,240 M,0,120262,,467,409 S,0,120262,,0.2853336 F,0,120262,120665,0.03999969,1 F,0,120665,157309,1 F,0,157309,157712,1,0 F,0,157712,158115,0,1 F,0,158115,158517,1,0 F,0,158517,158920,0,1 F,0,158920,159323,1,0
Sprite,Foreground,Centre,"Snail.png",320,240 F,0,153685,154088,0,1 M,0,154088,,434,104 S,0,154088,,0.4559999 F,0,154088,154490,1,0 F,0,154490,154893,0,1 F,0,154893,155296,1,0 F,0,155296,155698,0,1 F,0,155698,156101,1,0 F,0,156101,156504,0,1 F,0,156504,156907,1,0
Sprite,Foreground,Centre,"SpeedyGonzalez.png",320,240 M,0,131537,,437,105 S,0,131537,,0.4453334 F,0,131537,131940,0,1 F,0,131940,132343,1,0 F,0,132343,132745,0,1 F,0,132745,133148,1,0 F,0,133148,133551,0,1 F,0,133551,133954,1,0
Sprite,Foreground,Centre,"kentucky.png",320,240 M,0,160128,,171,417 S,0,160128,,0.4773331 F,0,160128,160531,0,1 F,0,160531,221739,1 F,0,221739,222141,1,0 F,0,222141,222544,0,1 F,0,222544,222947,1,0 F,0,222947,223349,0,1 F,0,223349,223752,1,0
//Storyboard Sound Samples

[TimingPoints]
43350,402.684563758389,4,2,1,75,1,0
48182,-100,4,3,0,75,0,0
49792,-83.3333333333333,4,2,1,75,0,0
54625,-83.3333333333333,4,3,0,75,0,0
56034,-83.3333333333333,4,2,1,75,0,0
61269,-83.3333333333333,4,3,0,75,0,0
62678,-83.3333333333333,4,2,1,75,0,0
68115,-83.3333333333333,4,3,0,50,0,0
68920,-83.3333333333333,4,2,1,75,0,0
74155,-83.3333333333333,4,3,0,50,0,0
75564,-83.3333333333333,4,2,1,75,0,0
85229,-83.3333333333333,4,2,1,20,0,0
85631,-83.3333333333333,4,2,1,30,0,0
86034,-83.3333333333333,4,2,1,40,0,0
86437,-83.3333333333333,4,2,1,50,0,0
86839,-83.3333333333333,4,2,1,60,0,0
87242,-83.3333333333333,4,2,1,70,0,0
87645,-83.3333333333333,4,2,1,80,0,0
88047,-83.3333333333333,4,2,1,90,0,0
88450,-83.3333333333333,4,2,1,75,0,1
99725,-83.3333333333333,4,3,0,50,0,1
101336,-83.3333333333333,4,2,1,75,0,1
114222,-83.3333333333333,4,2,1,75,0,0
119054,-83.3333333333333,4,3,0,50,0,0
120665,-83.3333333333333,4,2,1,75,0,0
126101,-83.3333333333333,4,3,0,50,0,0
127108,-83.3333333333333,4,2,1,75,0,0
131940,-83.3333333333333,4,3,0,50,0,0
133551,-50,4,2,1,75,0,1
145027,-50,4,3,0,50,0,1
146437,-50,4,2,1,75,0,1
156705,-50,4,2,1,5,0,1
159323,-83.3333333333333,4,2,1,75,0,0
164407,-83.3333333333333,4,3,0,50,0,0
165766,-83.3333333333333,4,2,1,75,0,0
170799,-83.3333333333333,4,3,0,50,0,0
172209,-100,4,2,1,75,0,0
185094,-83.3333333333333,4,2,1,75,0,1
196772,-83.3333333333333,4,3,0,50,0,1
197980,-66.6666666666667,4,2,1,75,0,1
203215,-66.6666666666667,4,3,0,50,0,1
204423,-66.6666666666667,4,2,1,75,0,1
216101,-66.6666666666667,4,3,0,50,0,1
217309,-66.6666666666667,4,2,1,75,0,1
222343,-66.6666666666667,4,3,1,50,0,1
223752,-66.6666666666667,4,2,1,75,0,0

[Colours]
Combo1 : 238,238,238
Combo2 : 255,0,128
Combo3 : 0,255,128
Combo4 : 0,255,255

[HitObjects]
256,192,43349,5,0,0:0:0:0:
256,48,43550,1,0,0:0:0:0:
112,48,43751,1,2,0:0:0:0:
112,192,43953,1,0,0:0:0:0:
112,336,44154,1,0,0:0:0:0:
256,336,44355,1,2,0:0:0:0:
400,336,44557,1,0,0:0:0:0:
400,192,44758,1,0,0:0:0:0:
224,160,44960,6,0,L|224:72,1,85
224,224,45362,2,0,L|136:224,1,85,2|0,0:0|0:0,0:0:0:0:
288,224,45765,2,0,L|288:324,1,85,0|2,0:0|0:0,0:0:0:0:
288,160,46168,2,0,L|384:160,1,85
288,88,46571,6,0,L|384:88,2,85,0|0|2,0:0|0:0|0:0,0:0:0:0:
440,88,47175,2,0,L|440:176,2,85,0|0|2,0:0|0:0|0:0,0:0:0:0:
440,240,47778,2,0,L|348:240,1,85
180,248,48181,6,0,L|252:152,1,85,8|0,0:0|0:0,0:0:0:0:
124,212,48584,2,0,L|64:292,1,85,4|0,0:0|0:0,0:0:0:0:
68,176,48986,2,0,L|128:100,1,85,4|0,0:0|0:0,0:0:0:0:
280,4,49389,2,0,L|212:100,1,85,2|0,0:0|0:0,0:0:0:0:
480,28,49792,5,4,0:0:0:0:
368,152,49993,1,0,0:0:0:0:
480,356,50194,5,8,0:0:0:0:
368,240,50396,1,0,0:0:0:0:
32,356,50597,5,0,0:0:0:0:
152,236,50798,1,0,0:0:0:0:
28,32,51000,5,8,0:0:0:0:
152,152,51201,1,0,0:0:0:0:
480,28,51402,5,0,0:0:0:0:
32,356,51806,1,8,0:0:0:0:
480,352,52208,1,0,0:0:0:0:
28,32,52610,1,8,0:0:0:0:
176,220,53013,5,0,0:0:0:0:
272,284,53215,2,0,L|160:284,1,101.999996887207,0|8,0:0|0:0,0:0:0:0:
340,180,53617,2,0,L|340:284,1,101.999996887207
340,116,54021,1,0,0:0:0:0:
172,112,54221,2,0,L|296:112,1,101.999996887207,8|0,0:0|0:0,0:0:0:0:
40,44,54624,5,8,0:0:0:0:
124,196,54825,1,0,0:0:0:0:
216,344,55027,1,4,0:0:0:0:
124,196,55228,1,0,0:0:0:0:
288,192,55429,5,2,0:0:0:0:
288,20,55631,1,0,0:0:0:0:
460,20,55832,1,4,0:0:0:0:
460,192,56034,2,0,P|456:344|356:312,1,305.999990661621,4|8,0:0|0:0,0:0:0:0:
416,140,56839,2,0,P|284:131|312:260,1,305.999990661621,2|8,0:0|0:0,0:0:0:0:
472,124,57645,1,2,0:0:0:0:
256,356,58047,5,0,0:0:0:0:
40,124,58450,1,2,0:0:0:0:
360,192,58853,2,0,L|152:192,2,203.999993774414,0|2|0,0:0|0:0|0:0,0:0:0:0:
256,192,59759,12,0,60665,0:0:0:0:
256,96,61068,5,0,0:0:0:0:
164,192,61269,1,8,0:0:0:0:
256,284,61470,1,0,0:0:0:0:
348,196,61672,1,0,0:0:0:0:
256,32,61873,1,4,0:0:0:0:
100,192,62074,1,0,0:0:0:0:
256,348,62276,1,2,0:0:0:0:
412,196,62477,1,0,0:0:0:0:
256,56,62678,6,0,L|256:160,1,101.999996887207,4|0,0:0|0:0,0:0:0:0:
256,328,63081,2,0,L|256:224,1,101.999996887207,8|0,0:0|0:0,0:0:0:0:
324,328,63484,2,0,L|324:224,1,101.999996887207,0|0,0:0|0:0,0:0:0:0:
188,328,63886,2,0,L|188:224,1,101.999996887207,8|0,0:0|0:0,0:0:0:0:
68,356,64289,5,0,0:0:0:0:
68,184,64490,1,0,0:0:0:0:
68,12,64692,1,8,0:0:0:0:
184,144,64893,1,0,0:0:0:0:
260,272,65094,1,0,0:0:0:0:
336,144,65296,1,0,0:0:0:0:
452,12,65497,1,8,0:0:0:0:
452,184,65698,1,0,0:0:0:0:
452,352,65900,6,0,L|340:352,1,101.999996887207,0|0,0:0|0:0,0:0:0:0:
180,352,66303,2,0,L|292:352,1,101.999996887207,8|0,0:0|0:0,0:0:0:0:
180,284,66705,2,0,L|72:284,1,101.999996887207,0|0,0:0|0:0,0:0:0:0:
180,216,67108,2,0,L|288:216,1,101.999996887207,8|0,0:0|0:0,0:0:0:0:
256,60,67511,1,0,0:0:0:0:
428,56,67712,2,0,L|336:120,2,101.999996887207,0|8|8,0:0|0:0|0:0,0:0:0:0:
256,60,68316,5,0,0:0:0:0:
84,56,68517,2,0,L|176:112,3,101.999996887207,0|4|0|4,0:0|0:0|0:0|0:0,0:0:0:0:
256,356,69524,1,8,0:0:0:0:
256,356,69725,1,2,0:0:0:0:
32,28,70128,1,0,0:0:0:0:
480,28,70531,1,2,0:0:0:0:
256,356,70933,2,0,L|256:152,2,203.999993774414,0|2|0,0:0|0:0|0:0,0:0:0:0:
256,192,71839,12,2,73551,0:0:0:0:
32,352,73954,5,0,0:0:0:0:
148,192,74155,1,8,0:0:0:0:
256,352,74356,1,0,0:0:0:0:
364,192,74558,1,0,0:0:0:0:
480,352,74759,1,4,0:0:0:0:
256,352,74960,1,0,0:0:0:0:
256,264,75061,1,0,0:0:0:0:
256,176,75162,1,2,0:0:0:0:
256,4,75363,1,0,0:0:0:0:
84,4,75564,6,0,P|96:124|256:176,1,305.999990661621,4|0,0:0|1:0,0:0:0:0:
356,75,76370,1,2,0:0:0:0:
480,144,76571,1,0,0:0:0:0:
456,284,76772,1,0,0:0:0:0:
316,312,76974,2,0,P|172:328|12:240,1,305.999990661621,2|0,0:0|0:0,0:0:0:0:
4,120,77779,1,0,0:0:0:0:
140,168,77980,2,0,L|184:68,1,101.999996887207,0|0,1:0|0:0,0:0:0:0:
330,74,78383,2,0,L|372:168,1,101.999996887207,2|0,0:0|0:0,0:0:0:0:
500,232,78786,6,0,P|440:300|328:300,1,203.999993774414,2|0,0:0|0:0,0:0:0:0:
256,180,79390,2,0,L|256:392,1,203.999993774414,0|0,1:0|0:0,0:0:0:0:
179,302,79994,1,0,0:0:0:0:
179,302,80195,2,0,P|80:303|12:232,1,203.999993774414,2|0,0:0|0:0,0:0:0:0:
36,92,80799,1,0,0:0:0:0:
180,92,81001,1,0,0:0:0:0:
324,92,81202,1,0,1:0:0:0:
468,92,81403,1,0,0:0:0:0:
396,216,81605,6,0,L|396:320,1,101.999996887207,2|0,0:0|0:0,0:0:0:0:
116,168,82007,2,0,L|116:64,2,101.999996887207,4|0|0,0:0|0:0|0:0,0:0:0:0:
116,312,82611,2,0,P|200:308|248:120,1,305.999990661621,0|0,1:0|0:0,0:0:0:0:
116,168,83417,1,2,0:0:0:0:
148,28,83618,1,0,0:0:0:0:
252,124,83819,1,0,0:0:0:0:
116,168,84021,1,0,0:0:0:0:
148,28,84222,1,0,0:0:0:0:
252,124,84423,2,0,L|368:96,1,101.999996887207,0|0,1:0|0:0,0:0:0:0:
492,64,84826,1,0,0:0:0:0:
492,64,85027,6,0,B|552:192|468:324|316:324|244:264|244:264|280:168|176:176|213:75|213:75|144:32|72:72|80:140,1,815.999975097657,2|0,0:0|0:0,0:0:0:0:
132,256,86839,5,2,0:0:0:0:
320,316,87041,1,0,0:0:0:0:
380,128,87242,1,2,0:0:0:0:
192,68,87444,1,0,0:0:0:0:
203,357,87645,5,2,0:0:0:0:
421,244,87847,1,0,0:0:0:0:
308,26,88048,1,2,0:0:0:0:
90,139,88250,1,0,0:0:0:0:
320,316,88450,6,4,L|396:384,1,101.999996887207,4|4,0:0|0:0,0:0:0:0:
420,244,88853,2,0,L|288:128,1,152.999995330811,8|0,1:0|0:0,0:0:0:0:
248,96,89256,1,2,0:0:0:0:
296,228,89457,1,0,0:0:0:0:
396,128,89658,1,8,2:1:0:0:
172,80,89860,6,0,P|72:76|8:160,1,203.999993774414,2|0,0:0|0:0,0:0:0:0:
136,216,90464,1,8,0:1:0:0:
136,360,90665,1,0,0:0:0:0:
264,296,90866,1,2,0:0:0:0:
264,152,91068,1,0,0:0:0:0:
12,296,91269,1,8,0:1:0:0:
264,296,91470,1,0,0:0:0:0:
8,148,91672,6,0,P|24:56|128:32,1,203.999993774414,4|8,0:0|0:1,0:0:0:0:
391,29,92276,2,0,P|485:53|504:148,1,203.999993774414,2|0,0:0|0:0,0:0:0:0:
432,272,92880,1,8,0:1:0:0:
296,232,93081,1,0,0:0:0:0:
176,368,93282,1,2,0:0:0:0:
216,232,93483,1,0,0:0:0:0:
80,112,93685,1,8,0:1:0:0:
216,152,93886,1,0,0:0:0:0:
336,16,94088,1,2,0:0:0:0:
296,152,94289,1,0,0:0:0:0:
256,192,94339,12,4,94893,0:0:0:0:
160,264,95094,5,0,0:0:0:0:
232,264,95195,1,0,0:0:0:0:
304,264,95296,1,8,0:1:0:0:
448,264,95497,1,0,0:0:0:0:
448,120,95698,1,2,0:0:0:0:
304,120,95900,1,0,0:0:0:0:
160,120,96101,1,8,0:1:0:0:
44,204,96303,6,0,B|44:0,1,203.999993774414,2|2,0:0|0:0,0:0:0:0:
160,120,96907,1,8,0:1:0:0:
256,228,97108,1,0,0:0:0:0:
352,120,97309,1,2,0:0:0:0:
256,16,97511,1,0,0:0:0:0:
96,300,97712,1,8,0:1:0:0:
416,300,97913,1,0,0:0:0:0:
256,16,98115,6,0,L|44:16,1,203.999993774414,4|0,0:0|0:0,0:0:0:0:
256,228,98719,2,0,L|468:228,1,203.999993774414,4|0,0:0|0:0,0:0:0:0:
460,84,99323,1,8,0:1:0:0:
317,84,99524,1,0,0:0:0:0:
176,84,99725,1,2,0:2:0:0:
317,84,99927,1,0,0:0:0:0:
176,84,100128,1,2,0:0:0:0:
32,84,100329,1,0,0:0:0:0:
176,84,100531,1,0,1:0:0:0:
176,228,100732,1,0,1:0:0:0:
316,228,100933,1,0,1:0:0:0:
316,84,101135,1,0,0:0:0:0:
176,228,101336,6,0,L|176:332,1,101.999996887207,4|0,0:0|0:0,0:0:0:0:
316,228,101739,1,2,0:0:0:0:
176,84,101940,1,0,0:0:0:0:
24,228,102141,2,0,L|24:332,2,101.999996887207,0|0|8,0:0|0:0|0:1,0:0:0:0:
176,84,102745,1,0,0:0:0:0:
320,228,102947,2,0,L|432:228,1,101.999996887207,2|0,0:0|0:0,0:0:0:0:
212,228,103349,1,0,1:0:0:0:
320,132,103551,1,0,0:0:0:0:
320,324,103752,2,0,P|200:372|120:340,1,203.999993774414,2|8,0:0|0:1,0:0:0:0:
16,268,104356,1,0,0:0:0:0:
56,128,104558,5,2,0:0:0:0:
200,128,104759,1,0,0:0:0:0:
308,48,104960,1,8,0:1:0:0:
452,48,105161,1,0,0:0:0:0:
452,208,105363,5,2,0:0:0:0:
308,208,105564,1,0,0:0:0:0:
200,128,105765,1,8,0:1:0:0:
56,128,105966,1,0,0:0:0:0:
136,248,106168,6,0,P|216:332|300:332,1,203.999993774414,4|0,0:0|1:0,0:0:0:0:
428,272,106772,1,0,0:0:0:0:
376,136,106974,2,0,P|296:52|212:52,1,203.999993774414,2|0,0:0|1:0,0:0:0:0:
84,112,107578,1,0,0:0:0:0:
0,0,107779,5,4,0:0:0:0:
512,384,108182,1,4,0:0:0:0:
172,240,108584,5,2,0:0:0:0:
340,144,108786,1,0,0:0:0:0:
99,149,108987,1,8,0:1:0:0:
412,234,109188,2,0,L|472:24,1,203.999993774414,2|2,0:0|0:0,0:0:0:0:
340,144,109792,1,8,0:1:0:0:
512,196,109994,1,0,0:0:0:0:
384,304,110195,1,2,0:0:0:0:
224,248,110396,1,0,0:0:0:0:
172,92,110598,1,8,0:1:0:0:
340,144,110799,1,0,0:0:0:0:
280,348,111001,6,0,P|160:340|112:272,1,203.999993774414,4|0,0:0|0:0,0:0:0:0:
232,36,111605,2,0,P|352:44|400:112,1,203.999993774414,2|0,0:0|0:0,0:0:0:0:
256,192,112209,12,0,113014,0:0:0:0:
256,192,113115,12,0,113819,0:0:0:0:
172,76,114021,5,0,0:0:0:0:
340,308,114222,1,4,0:0:0:0:
396,184,120665,5,4,0:0:0:0:
396,184,120866,1,0,0:0:0:0:
308,244,121068,1,8,0:0:0:0:
312,248,121269,1,2,0:0:0:0:
396,304,121470,1,0,0:0:0:0:
396,304,121672,1,0,0:0:0:0:
312,248,121873,2,0,L|200:248,1,101.999996887207,10|0,0:0|0:0,0:0:0:0:
116,184,122276,5,2,0:0:0:0:
116,184,122477,1,0,0:0:0:0:
200,248,122679,1,8,0:0:0:0:
200,248,122880,1,2,0:0:0:0:
116,304,123081,1,0,0:0:0:0:
116,304,123283,1,0,0:0:0:0:
200,248,123484,2,0,L|312:248,1,101.999996887207,10|0,0:0|0:0,0:0:0:0:
128,188,123886,6,0,L|20:108,1,101.999996887207,2|0,0:0|0:0,0:0:0:0:
212,148,124289,1,8,0:0:0:0:
156,16,124490,1,2,0:0:0:0:
300,148,124692,1,0,0:0:0:0:
356,16,124893,1,0,0:0:0:0:
384,188,125094,2,0,L|492:108,1,101.999996887207,10|0,0:0|0:0,0:0:0:0:
424,328,125497,5,2,0:0:0:0:
256,80,125698,1,0,0:0:0:0:
88,328,125900,1,8,0:0:0:0:
360,188,126101,5,8,0:0:0:0:
152,188,126303,1,0,0:0:0:0:
308,272,126504,1,8,0:0:0:0:
204,104,126705,1,8,0:0:0:0:
204,272,126907,1,0,0:0:0:0:
308,104,127108,1,4,0:0:0:0:
108,72,127511,5,8,0:0:0:0:
108,172,127712,2,0,B|108:208|108:208|140:216|140:216|180:248,1,101.999996887207,2|0,0:0|0:0,0:0:0:0:
256,288,128115,1,0,0:0:0:0:
344,240,128316,2,0,B|370:220|370:220|402:212|402:212|402:176,1,101.999996887207,10|0,0:0|0:0,0:0:0:0:
404,72,128719,5,2,0:0:0:0:
304,72,128920,2,0,B|240:72|240:72|208:112,1,101.999996887207,0|8,0:0|0:0,0:0:0:0:
160,188,129322,1,2,0:0:0:0:
228,264,129524,1,0,0:0:0:0:
160,340,129725,1,0,0:0:0:0:
264,340,129927,2,0,B|316:340|316:340|348:288,1,101.999996887207,10|0,0:0|0:0,0:0:0:0:
408,220,130329,5,2,0:0:0:0:
444,124,130531,1,0,0:0:0:0:
408,220,130732,1,8,0:0:0:0:
376,124,130933,1,2,0:0:0:0:
408,220,131135,1,0,0:0:0:0:
324,164,131336,1,0,0:0:0:0:
408,220,131537,1,10,0:0:0:0:
304,228,131739,1,0,0:0:0:0:
232,156,131940,5,0,0:0:0:0:
140,200,132142,1,8,0:0:0:0:
196,284,132343,2,0,B|232:332|232:332|280:332|280:332|300:300|300:300|360:300,1,203.999993774414,8|8,0:0|0:0,0:0:0:0:
460,304,132947,1,0,0:0:0:0:
408,220,133148,1,8,0:0:0:0:
52,48,133551,5,4,0:0:0:0:
52,48,133954,2,0,B|144:48|144:48|196:124,1,170,12|2,0:0|0:0,0:0:0:0:
284,252,134356,1,0,0:0:0:0:
120,296,134558,1,0,0:0:0:0:
280,352,134759,1,10,0:0:0:0:
412,244,134960,1,0,0:0:0:0:
356,84,135162,6,0,B|336:24|336:24|236:24|236:24|204:76|204:76|136:76|136:76|108:124,1,340,2|8,0:0|0:0,0:0:0:0:
32,268,135766,2,0,B|8:312|8:312|8:348|8:348|52:368|52:368|116:368|116:368|144:320|144:320|236:320|236:320,1,340,2|0,0:0|0:0,0:0:0:0:
400,320,136370,1,10,0:0:0:0:
252,240,136571,1,0,0:0:0:0:
420,240,136772,6,0,B|472:240|472:240|504:200|504:200|504:156|504:156|472:112|472:112|332:112,1,340,2|8,0:0|0:0,0:0:0:0:
164,112,137376,2,0,B|92:112|92:112|48:136|48:136|48:196|48:196|92:224|92:224|232:224,1,340,2|0,0:0|0:0,0:0:0:0:
368,224,137980,2,0,B|408:224|408:224|432:244|432:244|432:276|432:276|408:296|408:296|336:296,1,170,10|0,0:0|0:0,0:0:0:0:
200,296,138383,5,2,0:0:0:0:
344,204,138584,1,0,0:0:0:0:
168,204,138786,1,8,0:0:0:0:
312,296,138987,1,2,0:0:0:0:
260,136,139188,5,0,0:0:0:0:
120,236,139390,1,0,0:0:0:0:
260,136,139591,1,10,0:0:0:0:
392,236,139792,1,0,0:0:0:0:
260,344,139994,5,4,0:0:0:0:
260,344,140396,1,12,0:0:0:0:
40,160,140799,5,0,0:0:0:0:
152,32,141001,1,0,0:0:0:0:
320,32,141202,2,0,B|388:32|388:32|432:72|432:72|432:112|432:112|372:144|372:144|372:208|372:208|336:244,1,340,10|2,0:0|0:0,0:0:0:0:
224,356,141805,1,0,0:0:0:0:
112,228,142007,1,8,0:0:0:0:
276,176,142209,2,0,B|312:160|312:160|312:92|312:92|268:64|268:64|232:64|232:64|208:24|208:24|152:24|152:24|128:68,1,340,2|0,0:0|0:0,0:0:0:0:
44,208,142813,1,10,0:0:0:0:
188,296,143014,1,0,0:0:0:0:
312,180,143215,5,2,0:0:0:0:
252,340,143417,1,0,0:0:0:0:
240,172,143618,1,8,0:0:0:0:
328,320,143819,1,2,0:0:0:0:
432,188,144021,2,0,B|460:152|460:152|460:112|460:112|424:80|424:80|384:80,1,170,0|0,0:0|0:0,0:0:0:0:
220,80,144423,2,0,B|176:80|176:80|132:120|132:120|132:156|132:156|164:196,1,170,10|0,0:0|0:0,0:0:0:0:
264,308,144826,5,2,0:0:0:0:
264,308,145027,2,0,L|456:308,1,170,8|8,0:0|0:0,0:0:0:0:
296,208,145430,1,0,0:0:0:0:
296,208,145631,2,0,L|472:208,1,170,8|8,0:0|0:0,0:0:0:0:
332,104,146034,1,0,0:0:0:0:
332,104,146235,2,0,L|512:104,1,170,8|4,0:0|0:0,0:0:0:0:
168,32,146839,5,8,0:0:0:0:
40,144,147041,1,2,0:0:0:0:
132,292,147242,2,0,B|156:328|156:328|204:328|204:328|224:296|224:296|272:296,1,170,0|0,0:0|0:0,0:0:0:0:
436,296,147645,2,0,B|468:296|468:296|492:264|492:264|492:232|492:232|464:196|464:196|416:196,1,170,10|0,0:0|0:0,0:0:0:0:
272,192,148047,5,2,0:0:0:0:
132,292,148249,1,0,0:0:0:0:
52,144,148450,2,0,B|28:100|28:100|28:60|28:60|56:32|56:32|104:32,1,170,8|2,0:0|0:0,0:0:0:0:
268,32,148853,2,0,B|304:32|304:32|324:52|324:52|324:92|324:92|292:108|292:108|292:152,1,170,0|0,0:0|0:0,0:0:0:0:
288,308,149256,2,0,B|288:336|288:336|256:360|256:360|220:360|220:360|156:312|156:312|156:312,1,170,10|0,0:0|0:0,0:0:0:0:
32,216,149658,5,2,0:0:0:0:
32,216,149860,1,0,0:0:0:0:
152,56,150061,1,8,0:0:0:0:
152,56,150262,1,2,0:0:0:0:
360,56,150464,1,0,0:0:0:0:
360,56,150665,1,0,0:0:0:0:
480,216,150866,1,10,0:0:0:0:
480,216,151068,1,0,0:0:0:0:
312,244,151269,6,0,B|344:272|344:272|388:272|388:272|432:296|432:296|432:344,1,170,2|0,0:0|0:0,0:0:0:0:
256,122,151672,2,0,B|304:143|304:143|304:171|304:171|288:187|288:187|288:215|288:215|312:238|312:238|312:270,1,170,8|2,0:0|0:0,0:0:0:0:
200,243,152074,2,0,B|200:238|200:238|224:215|224:215|224:187|224:187|208:171|208:171|208:143|208:143|256:122,1,170,0|0,0:0|0:0,0:0:0:0:
80,329,152477,2,0,B|80:296|80:296|124:272|124:272|168:272|168:272|200:244,1,170,10|0,0:0|0:0,0:0:0:0:
88,108,152880,5,4,0:0:0:0:
424,108,153282,1,4,0:0:0:0:
112,244,153685,5,0,0:0:0:0:
256,332,153886,1,0,0:0:0:0:
408,244,154088,2,0,B|452:216|452:216|452:152|452:152|374:104,1,170,10|0,0:0|0:0,0:0:0:0:
256,36,154490,1,2,0:0:0:0:
100,116,154692,1,0,0:0:0:0:
256,188,154893,1,8,0:0:0:0:
100,264,155094,1,2,0:0:0:0:
272,292,155296,2,0,B|336:304|336:304|368:304|368:304|392:272|392:272|392:224,1,170
392,68,155698,2,0,B|392:36|392:36|368:12|368:12|324:12|324:12|304:40|304:40|252:40,1,170,10|0,0:0|0:0,0:0:0:0:
104,40,156101,2,0,B|64:40|64:40|36:60|36:60|36:96|36:96|64:116|64:116|64:144,1,170,2|0,0:0|0:0,0:0:0:0:
60,316,156504,1,8,0:0:0:0:
256,192,156705,12,4,159323,0:0:0:0:
16,72,160732,5,0,0:0:0:0:
16,72,160933,2,0,P|120:32|240:80,1,203.999993774414,2|0,0:0|0:0,0:0:0:0:
496,72,161537,2,0,P|392:32|272:80,1,203.999993774414,2|0,0:0|0:0,0:0:0:0:
256,192,162141,1,8,0:0:0:0:
357,293,162343,2,0,B|248:344|248:344|176:288|72:344|72:344|128:216|22:138|22:138|120:16|200:184|288:32,1,815.999975097657,2|0,0:0|0:0,0:0:0:0:
408,24,164155,6,0,P|392:72|408:136,1,101.999996887207,0|2,0:0|0:0,0:0:0:0:
480,240,164558,1,8,0:0:0:0:
480,240,164759,1,0,0:0:0:0:
480,240,164860,1,0,0:0:0:0:
480,240,164960,1,8,0:0:0:0:
344,272,165162,1,0,0:0:0:0:
208,304,165363,1,8,0:0:0:0:
344,272,165564,1,0,0:0:0:0:
208,304,165766,6,0,P|72:192|218:82,1,407.999987548829,4|0,0:0|0:0,0:0:0:0:
256,192,166772,1,0,0:0:0:0:
256,192,166974,1,8,0:0:0:0:
256,192,167175,1,0,0:0:0:0:
298,80,167376,6,0,P|352:104|488:40,1,203.999993774414,2|8,0:0|0:0,0:0:0:0:
213,80,167980,2,0,P|160:104|24:40,1,203.999993774414,2|0,0:0|0:0,0:0:0:0:
256,192,168584,1,8,0:0:0:0:
208,328,168786,2,0,L|0:368,1,203.999993774414,2|0,0:0|0:0,0:0:0:0:
84,192,169390,1,8,0:0:0:0:
304,328,169591,2,0,L|512:368,1,203.999993774414,2|0,0:0|0:0,0:0:0:0:
428,192,170195,1,8,0:0:0:0:
84,192,170396,1,0,0:0:0:0:
256,192,170598,5,0,0:0:0:0:
428,192,170799,2,0,L|428:68,1,101.999996887207,8|0,0:0|0:0,0:0:0:0:
84,192,171202,2,0,L|84:68,1,101.999996887207,8|0,0:0|0:0,0:0:0:0:
256,88,171605,1,2,0:0:0:0:
256,296,171806,1,8,0:0:0:0:
444,352,172209,6,0,P|480:132|248:128,1,510,12|0,0:0|0:0,0:0:0:0:
192,184,173618,2,0,B|320:300|320:300|60:352,1,425,2|0,0:0|0:0,0:0:0:0:
12,192,175027,1,0,0:0:0:0:
12,192,175229,1,0,0:0:0:0:
12,107,175430,2,0,P|81:69|185:78,1,170,2|0,0:0|0:0,0:0:0:0:
252,96,176034,2,0,P|335:100|410:61,1,170,0|0,0:0|0:0,0:0:0:0:
496,300,176839,2,2,B|336:184|256:272|168:384|-12:224,1,510,2|0,0:0|0:0,0:0:0:0:
4,164,178249,5,0,0:0:0:0:
56,96,178450,1,0,0:0:0:0:
136,68,178652,2,0,L|228:68,2,85,4|0|0,0:0|0:0|0:0,0:0:0:0:
136,153,179256,2,0,L|312:153,1,170,2|0,0:0|0:0,0:0:0:0:
306,67,179860,1,0,0:0:0:0:
390,67,180061,2,0,L|390:243,2,170,2|0|0,0:0|0:0|0:0,0:0:0:0:
390,67,181470,1,0,0:0:0:0:
306,67,181672,2,0,P|194:171|380:228,1,425,2|0,0:0|0:0,0:0:0:0:
377,231,183484,5,0,0:0:0:0:
216,313,183685,1,0,0:0:0:0:
295,70,183886,1,0,0:0:0:0:
134,152,184087,1,0,0:0:0:0:
447,253,184289,5,0,3:0:0:0:
194,383,184490,1,0,3:0:0:0:
317,0,184691,1,0,3:0:0:0:
64,130,184892,1,0,3:0:0:0:
256,192,185094,6,0,L|255:323,1,101.999996887207,4|0,0:0|0:0,0:0:0:0:
256,192,185497,12,0,190732,0:0:0:0:
28,192,191537,5,4,0:0:0:0:
484,192,191940,1,2,0:0:0:0:
142,192,192343,5,2,0:0:0:0:
370,192,192746,1,2,0:0:0:0:
256,192,192947,12,8,196772,0:0:0:0:
256,88,197175,5,8,0:0:0:0:
152,192,197376,1,8,0:0:0:0:
256,296,197577,1,0,0:0:0:0:
360,192,197778,1,0,0:0:0:0:
52,48,197980,5,4,0:0:0:0:
52,48,198383,2,0,L|360:48,1,255.000009727478,8|2,0:0|0:0,0:0:0:0:
397,138,198987,1,0,0:0:0:0:
306,228,199188,1,10,0:0:0:0:
396,318,199390,6,2,L|88:318,1,255.000009727478,0|2,0:0|0:0,0:0:0:0:
50,227,199994,1,8,0:0:0:0:
137,134,200195,1,0,0:0:0:0:
256,172,200396,1,2,0:0:0:0:
375,134,200598,1,0,0:0:0:0:
462,227,200799,1,10,0:0:0:0:
375,134,201001,1,0,0:0:0:0:
256,88,201202,6,0,P|136:116|24:20,1,255.000009727478,2|8,0:0|0:0,0:0:0:0:
256,296,201806,2,0,P|376:268|488:364,1,255.000009727478,2|2,0:0|0:0,0:0:0:0:
256,192,202410,1,8,0:0:0:0:
256,192,202611,1,0,0:0:0:0:
464,144,202813,6,0,L|464:8,2,127.500004863739,2|2|8,0:0|0:0|0:0,0:0:0:0:
48,240,203618,2,0,L|48:376,2,127.500004863739,8|8|8,0:0|0:0|0:0,0:0:0:0:
256,192,204222,1,0,0:0:0:0:
460,336,204423,5,4,0:0:0:0:
460,336,204826,2,0,L|152:336,1,255.000009727478,8|2,0:0|0:0,0:0:0:0:
115,246,205430,1,0,0:0:0:0:
206,156,205631,1,10,0:0:0:0:
116,66,205833,6,0,L|424:66,1,255.000009727478
462,157,206437,1,8,0:0:0:0:
375,250,206638,1,0,0:0:0:0:
256,296,206839,1,2,0:0:0:0:
137,250,207041,1,0,0:0:0:0:
50,157,207242,1,8,0:0:0:0:
137,250,207444,1,0,0:0:0:0:
216,152,207645,6,0,P|336:196|304:316,1,255.000009727478,2|8,0:0|0:0,0:0:0:0:
97,198,208249,2,0,P|75:72|195:39,1,255.000009727478,2|0,0:0|0:0,0:0:0:0:
196,278,208853,2,0,P|97:359|9:272,1,255.000009727478,8|2,0:0|0:0,0:0:0:0:
458,345,209658,1,8,0:0:0:0:
458,345,210061,1,0,0:0:0:0:
367,254,210262,1,0,0:0:0:0:
457,163,210464,1,10,0:0:0:0:
367,254,210665,1,0,0:0:0:0:
239,254,210866,5,4,0:1:0:0:
239,254,211269,2,0,L|92:254,1,127.500004863739,8|0,0:0|0:0,0:0:0:0:
201,163,211672,2,0,L|54:163,1,127.500004863739,2|0,0:0|0:0,0:0:0:0:
163,72,212074,2,0,L|16:72,1,127.500004863739,10|0,0:0|0:0,0:0:0:0:
273,254,212880,6,0,L|420:254,1,127.500004863739,8|0,0:0|0:0,0:0:0:0:
311,163,213283,2,0,L|458:163,1,127.500004863739,2|0,0:0|0:0,0:0:0:0:
349,72,213685,2,0,L|496:72,1,127.500004863739,8|0,0:0|0:0,0:0:0:0:
256,72,214490,5,8,0:0:0:0:
192,183,214692,1,0,0:0:0:0:
319,183,214893,2,0,B|447:183|447:183|447:337,1,255.000009727478,2|8,0:0|0:0,0:0:0:0:
319,310,215497,1,0,0:0:0:0:
191,310,215698,2,0,B|63:310|63:310|63:183,2,255.000009727478,2|10|2,0:0|0:0|0:0,0:0:0:0:
318,310,216705,1,2,0:0:0:0:
255,199,216907,1,0,0:0:0:0:
467,39,217309,6,0,L|467:176,1,127.500004863739,4|0,0:0|0:0,0:0:0:0:
467,294,217712,2,0,L|181:294,1,255.000009727478,8|2,0:0|0:0,0:0:0:0:
84,294,218316,1,0,0:0:0:0:
85,167,218517,1,10,0:0:0:0:
212,167,218719,6,0,L|497:167,1,255.000009727478
467,39,219323,2,0,L|324:39,1,127.500004863739,8|0,0:0|0:0,0:0:0:0:
212,39,219725,1,2,0:0:0:0:
84,39,219927,1,0,0:0:0:0:
85,167,220128,1,8,0:0:0:0:
85,294,220329,1,0,0:0:0:0:
427,294,220531,6,0,P|488:192|403:82,1,255.000009727478,2|8,0:0|0:0,0:0:0:0:
90,88,221135,2,0,P|24:189|85:294,1,255.000009727478,2|0,0:0|0:0,0:0:0:0:
256,360,221739,2,0,L|256:224,1,127.500004863739,8|0,0:0|0:0,0:0:0:0:
256,24,222141,5,0,0:0:0:0:
256,24,222343,2,0,L|256:160,2,127.500004863739,8|0|0,0:0|0:0|0:0,0:0:0:0:
88,192,222947,1,8,0:2:0:0:
424,192,223148,1,8,0:0:0:0:
256,360,223752,5,4,0:0:0:0:
