osu file format v14

[General]
AudioFilename: True Survivor.mp3
AudioLeadIn: 0
PreviewTime: 86839
Countdown: 1
SampleSet: Soft
StackLeniency: 0.7
Mode: 0
LetterboxInBreaks: 1
WidescreenStoryboard: 1

[Editor]
Bookmarks: 61269,68115
DistanceSpacing: 0.9
BeatDivisor: 4
GridSize: 8
TimelineZoom: 1.1

[Metadata]
Title:True Survivor
TitleUnicode:True Survivor
Artist:David Hasselhoff
ArtistUnicode:David Hasselhoff
Creator:Crimmi
Version:Crimzek's Easy
Source:Kung Fury
Tags:ezek Cancel Blue Dragon mtmcl whymeman Tari jyvii Kyshiro ktgster Laser Unicorns 80's Tribute Mitch Murder Jorgen Elofsson Synthwave
BeatmapID:725577
BeatmapSetID:321460

[Difficulty]
HPDrainRate:3
CircleSize:3
OverallDifficulty:3.4
ApproachRate:3.5
SliderMultiplier:0.9
SliderTickRate:2

[Events]
//Background and Video events
Video,0,"True Survivor (From Kung Fury).avi"
0,0,"kungfury-bc8fde63705f5d5b.png",0,0
//Break Periods
2,114422,119285
//Storyboard Layer 0 (Background)
//Storyboard Layer 1 (Fail)
//Storyboard Layer 2 (Pass)
//Storyboard Layer 3 (Foreground)
Sprite,Foreground,Centre,"Crimmi-nal.png",320,240 F,0,75162,75564,0,1 M,0,75564,,457,395 S,0,75564,,0.4560001 F,0,75564,85229,1 F,0,85229,86839,1,0 F,0,86839,87242,0,1 F,0,87242,87645,1,0 F,0,87645,88047,0,1 F,0,88047,88450,1,0
Sprite,Foreground,Centre,"ezek.png",320,240 F,0,42544,42947,0,0.009954483 F,0,42947,43349,0.009954483,1 M,0,43349,,462,396 S,0,43349,,0.6373334 F,0,43349,47779,1 F,0,47779,48182,1,0 F,0,48182,48584,0,1 F,0,48584,48987,1,0 F,0,48987,49390,0,1 F,0,49390,49792,1,0 F,0,49792,50195,0
Sprite,Foreground,Centre,"ezek.png",320,240 F,0,62276,62678,0,1 M,0,62678,,152,108 S,0,62678,,0.5413333 F,0,62678,72343,1 F,0,72343,73954,1 F,0,73954,74356,1,0 F,0,74356,74759,0,1 F,0,74759,75162,1,0 F,0,75162,75564,0
Sprite,Foreground,Centre,"Crimmi-nal.png",320,240 F,0,48987,49390,0 F,0,49390,49792,0,1 M,0,49792,,456,98 S,0,49792,,0.4559997 F,0,49792,50598,1 F,0,50598,59457,1 F,0,59457,60665,1 F,0,60665,61068,1,0 F,0,61068,61470,0,1 F,0,61470,61873,1,0 F,0,61873,62276,0,1 F,0,62276,62678,1,0
Sprite,Foreground,Centre,"ezek.png",320,240 F,0,88047,88450,0 M,0,88450,,162,404 S,0,88450,,0.6266667 F,0,88450,88853,0,1 F,0,88853,98115,1 F,0,98115,99725,1,0.9226667 F,0,99725,100128,0.9226667,0 F,0,100128,100531,0,1 F,0,100531,100933,1,0 F,0,100933,101336,0
Sprite,Foreground,Centre,"Crimmi-nal.png",320,240 M,0,120262,,168,403 S,0,120262,,0.4240002 F,0,120262,120665,0,1 F,0,120665,125497,1 F,0,125497,125900,1,0 F,0,125900,126303,0,1 F,0,126303,126705,1,0
Sprite,Foreground,Centre,"Crimmi-nal.png",320,240 F,0,100933,101336,0,1 M,0,101336,,169,99 S,0,101336,,0.4453332 F,0,101336,112611,1 F,0,101336,112611,1 F,0,101336,112611,1,0 F,0,101336,112611,1,0 F,0,112611,113014,1,0 F,0,113014,113417,0,1 F,0,113417,113819,1,0 F,0,113819,114222,0,1 F,0,114222,114625,1,0
Sprite,Foreground,Centre,"ezek.png",320,240 M,0,126705,,492,401 S,0,126705,,0.52 F,0,126705,127108,0,1 F,0,127108,131537,1 F,0,131537,131940,1,0 F,0,131940,132343,0,1 F,0,132343,132745,1,0 F,0,132745,133148,0,1 F,0,133148,133551,1,0
Sprite,Foreground,Centre,"Crimmi-nal.png",320,240 F,0,133148,133551,0,1 M,0,133551,,160,404 S,0,133551,,0.4026671 F,0,133551,144826,1 F,0,144826,145229,1,0 F,0,145229,145631,0,1 F,0,145631,146034,1,0 F,0,146034,146437,0
Sprite,Foreground,Centre,"ezek.png",320,240 M,0,146034,,481,404 S,0,146034,,0.5306666 F,0,146034,146437,0,1 F,0,146437,157712,1 F,0,157712,158115,1,0 F,0,158115,158517,0,1 F,0,158517,158920,1,0 F,0,158920,159323,0
Sprite,Foreground,Centre,"ezek.png",320,240 M,0,158920,,153,88 S,0,158920,,0.5733334 F,0,158920,159323,0,1 F,0,159323,170598,1 F,0,170598,171001,1,0 F,0,171001,171403,0,1 F,0,171403,171806,1,0 F,0,171806,172209,0
Sprite,Foreground,Centre,"Crimmi-nal.png",320,240 M,0,171806,,470,411 S,0,171806,,0.4239999 F,0,171806,172209,0,1 F,0,172209,183484,1 F,0,183484,183886,1,0 F,0,183886,184289,0,1 F,0,184289,184692,1,0 F,0,184692,185094,0
Sprite,Foreground,Centre,"ezek.png",320,240 M,0,184692,,468,97 S,0,184692,,0.6053335 F,0,184692,185094,0,1 F,0,185094,196370,1 F,0,196370,196772,1,0 F,0,196772,197175,0,1 F,0,197175,197578,1,0 F,0,197578,197980,0
Sprite,Foreground,Centre,"Crimmi-nal.png",320,240 M,0,197578,,183,403 S,0,197578,,0.5093335 F,0,197578,197980,0,1 F,0,197980,209256,1 F,0,209256,209658,1,0 F,0,209658,210061,0,1 F,0,210061,210464,1,0 F,0,210464,210866,0
Sprite,Foreground,Centre,"ezek.png",320,240 M,0,210464,,138,87 S,0,210464,,0.5519998 F,0,210464,210866,0,1 F,0,210866,222141,1 F,0,222141,222544,1,0 F,0,222544,222947,0,1 F,0,222947,223349,1,0
//Storyboard Sound Samples

[TimingPoints]
43350,402.684563758389,4,2,1,75,1,0
49792,-100,4,2,1,75,0,0
54625,-100,4,3,0,75,0,0
56034,-100,4,2,1,75,0,0
61269,-100,4,3,0,75,0,0
62678,-100,4,2,1,75,0,0
68115,-100,4,3,0,50,0,0
68920,-100,4,2,1,75,0,0
74155,-100,4,3,0,50,0,0
75564,-100,4,2,1,75,0,0
88450,-100,4,2,1,75,0,1
99725,-100,4,3,0,50,0,1
101336,-100,4,2,1,75,0,1
114222,-100,4,2,1,75,0,0
119054,-100,4,3,0,50,0,0
120665,-100,4,2,1,75,0,0
126101,-100,4,3,0,50,0,0
127108,-100,4,2,1,75,0,0
131940,-100,4,3,0,50,0,0
133551,-100,4,2,1,75,0,1
145027,-100,4,3,0,50,0,1
146437,-100,4,2,1,75,0,1
159323,-100,4,2,1,75,0,0
164407,-100,4,3,0,50,0,0
165766,-100,4,2,1,75,0,0
170799,-100,4,3,0,50,0,0
172209,-100,4,2,1,75,0,0
185094,-100,4,2,1,75,0,1
196772,-100,4,3,0,50,0,1
197980,-100,4,2,1,75,0,1
203215,-100,4,3,0,50,0,1
204423,-100,4,2,1,75,0,1
216101,-100,4,3,0,50,0,1
217309,-100,4,2,1,75,0,1
222343,-100,4,3,0,50,0,1
223752,-100,4,2,1,75,0,0

[Colours]
Combo1 : 238,238,238
Combo2 : 255,0,128
Combo3 : 0,255,128
Combo4 : 0,255,255

[HitObjects]
192,128,43349,6,0,P|144:112|104:112,2,90,4|2|0,0:0|0:0|0:0,0:0:0:0:
256,184,44558,1,0,0:0:0:0:
320,128,44960,2,0,P|368:112|408:112,2,90,0|2|0,0:0|0:0|0:0,0:0:0:0:
256,184,46168,2,0,P|176:224|184:304,1,180,0|2,0:0|0:0,0:0:0:0:
264,328,47376,2,0,B|128:328|128:328|80:336,1,180
64,160,48987,2,0,L|16:184,2,45,0|0|2,0:0|0:0|0:0,0:0:0:0:
32,80,49792,6,0,P|72:72|144:184,1,180,4|0,0:0|0:0,0:0:0:0:
64,160,51001,1,8,0:0:0:0:
64,320,51806,1,8,0:0:0:0:
224,320,52611,1,8,0:0:0:0:
144,320,53014,6,0,P|167:262|279:262,1,180
328,320,54222,1,8,0:0:0:0:
360,248,54625,2,0,P|344:208|256:160,2,135,4|8|4,0:0|0:0|0:0,0:0:0:0:
328,320,56235,5,4,0:0:0:0:
248,320,56638,2,0,L|184:320,1,45,8|2,0:0|0:0,0:0:0:0:
80,320,57443,2,0,L|112:264,1,45,10|2,0:0|0:0,0:0:0:0:
144,208,58047,1,0,0:0:0:0:
64,184,58450,1,2,0:0:0:0:
96,112,58853,1,0,0:0:0:0:
136,40,59256,1,2,0:0:0:0:
216,64,59658,6,0,L|192:112,1,45,0|8,0:0|0:0,0:0:0:0:
160,176,60262,1,0,0:0:0:0:
200,248,60665,1,8,0:0:0:0:
280,216,61269,2,0,B|344:248|392:192|392:192|424:304,1,225,8|4,0:0|0:0,0:0:0:0:
360,344,62678,6,0,B|304:360|248:328|248:328|176:336,1,180,4|2,0:0|0:0,0:0:0:0:
104,344,63886,1,8,0:0:0:0:
56,192,64692,1,8,0:0:0:0:
152,64,65497,6,0,P|240:56|320:96,1,180,8|8,0:0|0:0,0:0:0:0:
376,160,66705,1,0,0:0:0:0:
424,224,67108,1,8,0:0:0:0:
312,336,67913,1,8,0:0:0:0:
232,352,68316,6,0,B|224:296|272:264|272:264|208:208,1,180,8|4,0:0|0:0,0:0:0:0:
136,224,69524,2,0,P|144:176|176:144,2,90,8|0|8,0:0|0:0|0:0,0:0:0:0:
136,304,70732,1,0,0:0:0:0:
64,344,71135,2,0,P|32:224|80:88,1,270,8|2,0:0|0:0,0:0:0:0:
136,32,72745,1,8,0:0:0:0:
256,144,73551,1,8,0:0:0:0:
272,264,74155,2,0,P|344:320|456:272,1,225,4|8,0:0|0:0,0:0:0:0:
488,192,75564,6,0,B|408:128|328:184|328:184|232:80,2,315,4|2|0,0:0|0:0|0:0,0:0:0:0:
488,272,78786,2,0,L|352:272,1,135,2|8,0:0|0:0,0:0:0:0:
272,272,79792,1,2,0:0:0:0:
192,272,80195,2,0,B|168:224|168:224|136:200|136:200|120:144,1,135
96,80,81202,1,8,0:0:0:0:
176,88,81605,1,0,0:0:0:0:
256,96,82007,6,0,L|240:152,1,45,4|0,0:0|0:0,0:0:0:0:
216,216,82611,1,8,0:0:0:0:
176,328,83215,2,0,L|312:328,1,135,0|2,0:0|0:0,0:0:0:0:
392,328,84222,2,0,L|408:192,1,135,0|2,0:0|0:0,0:0:0:0:
256,192,85027,12,2,87645,0:0:0:0:
256,336,88450,6,0,L|256:240,1,90,0|4,0:0|0:0,0:0:0:0:
256,80,89658,1,8,0:0:0:0:
336,104,90061,5,0,0:0:0:0:
296,176,90464,1,8,0:0:0:0:
216,176,90866,1,0,0:0:0:0:
176,104,91269,1,8,0:0:0:0:
256,80,91672,2,0,L|256:264,1,180,0|2,0:0|0:0,0:0:0:0:
256,344,92880,1,8,0:0:0:0:
96,328,93685,1,8,0:0:0:0:
160,176,94490,5,8,0:0:0:0:
200,104,94893,6,0,L|288:64,1,90,0|4,0:0|0:0,0:0:0:0:
448,72,96101,1,8,0:0:0:0:
456,152,96504,6,0,P|448:192|416:232,1,90,0|8,0:0|0:0,0:0:0:0:
336,232,97309,2,0,P|304:272|296:312,1,90,0|8,0:0|0:0,0:0:0:0:
360,360,98115,2,0,B|240:360|240:360|184:336,1,180
120,288,99323,1,8,0:0:0:0:
200,144,100128,5,4,0:0:0:0:
272,104,100531,2,0,L|312:80,1,45,0|2,0:0|0:0,0:0:0:0:
440,56,101336,6,0,L|400:152,1,90,4|0,0:0|0:0,0:0:0:0:
368,208,102141,1,2,0:0:0:0:
368,208,102544,1,8,0:0:0:0:
288,64,103349,6,0,L|232:152,1,90,0|2,0:0|0:0,0:0:0:0:
192,208,104155,1,8,0:0:0:0:
88,336,104960,6,0,P|144:328|184:344,1,90,8|0,0:0|0:0,0:0:0:0:
256,312,105766,1,8,0:0:0:0:
336,344,106168,2,0,P|379:332|423:342,2,90,0|8|0,0:0|0:0|0:0,0:0:0:0:
256,312,107376,1,8,0:0:0:0:
216,240,107779,6,0,L|176:152,1,90,0|4,0:0|0:0,0:0:0:0:
280,32,108987,1,8,0:0:0:0:
360,40,109390,5,0,0:0:0:0:
320,112,109792,1,8,0:0:0:0:
408,104,110195,2,0,P|400:152|360:192,1,90,0|8,0:0|0:0,0:0:0:0:
352,264,111001,2,0,L|200:272,1,135,0|2,0:0|0:0,0:0:0:0:
256,192,112007,12,4,114222,0:0:0:0:
480,336,120665,6,0,L|376:336,1,90,4|8,0:0|0:0,0:0:0:0:
312,336,121470,1,0,0:0:0:0:
352,264,121873,1,8,0:0:0:0:
272,264,122276,2,0,P|240:304|232:344,2,90,0|8|0,0:0|0:0|0:0,0:0:0:0:
312,192,123484,1,8,0:0:0:0:
400,192,123886,6,0,P|368:128|344:112,1,90,0|8,0:0|0:0,0:0:0:0:
312,192,124692,2,0,B|264:168|264:168|208:192|208:192|144:168,1,180
72,144,125900,1,0,0:0:0:0:
104,64,126303,1,4,0:0:0:0:
184,88,126705,1,8,0:0:0:0:
256,128,127108,6,0,P|304:136|344:120,1,90,4|8,0:0|0:0,0:0:0:0:
400,72,127913,1,0,0:0:0:0:
456,8,128316,2,0,L|480:192,1,180,8|8,0:0|0:0,0:0:0:0:
464,264,129524,5,0,0:0:0:0:
400,312,129927,2,0,B|360:328|312:312|264:288|224:304,2,180,8|8|8,0:0|0:0|0:0,0:0:0:0:
464,264,131940,2,12,P|416:232|368:240,1,90,4|8,0:0|0:0,0:0:0:0:
384,152,132745,2,0,L|480:128,1,90,8|4,0:0|0:0,0:0:0:0:
472,48,133551,6,0,L|376:72,1,90,0|4,0:0|0:0,0:0:0:0:
304,48,134356,2,0,P|312:120|412:152,1,180
472,216,135564,1,8,0:0:0:0:
408,280,135967,1,0,0:0:0:0:
320,256,136370,1,8,0:0:0:0:
240,232,136772,6,0,P|246:297|305:340,2,135,0|2|8,0:0|0:0|0:0,0:0:0:0:
272,160,138383,1,0,0:0:0:0:
200,128,138786,1,8,0:0:0:0:
160,200,139188,2,0,L|72:160,1,90,0|8,0:0|0:0,0:0:0:0:
0,128,139994,6,0,P|33:92|91:81,1,90,0|4,0:0|0:0,0:0:0:0:
152,72,140799,2,0,L|256:72,1,90,0|8,0:0|0:0,0:0:0:0:
320,72,141605,1,0,0:0:0:0:
400,72,142007,1,8,0:0:0:0:
360,144,142410,2,0,P|396:157|454:133,2,90,0|8|0,0:0|0:0|0:0,0:0:0:0:
280,144,143618,1,8,0:0:0:0:
272,224,144021,6,0,B|184:200|208:112|208:112|88:168,1,270,0|4,0:0|0:0,0:0:0:0:
24,192,145631,2,0,L|8:136,2,45,0|8|0,0:0|0:0|0:0,0:0:0:0:
64,264,146437,6,0,B|88:296|88:296|136:312,1,90,4|8,0:0|0:0,0:0:0:0:
216,328,147242,1,0,0:0:0:0:
288,288,147645,1,8,0:0:0:0:
336,136,148450,6,0,B|312:104|312:104|264:88,1,90,8|0,0:0|0:0,0:0:0:0:
184,72,149255,1,8,0:0:0:0:
32,136,150061,6,0,B|96:216|192:232|256:136|256:136|320:40|416:56|480:136,1,540,0|8,0:0|0:0,0:0:0:0:
464,216,152880,5,0,0:0:0:0:
440,296,153282,1,4,0:0:0:0:
280,320,154088,2,0,P|232:328|144:312,2,135,8|0|2,0:0|0:0|0:0,0:0:0:0:
328,256,155698,1,8,0:0:0:0:
256,192,156101,12,4,159323,0:0:0:0:
184,256,160531,6,0,B|152:224|144:152|144:152|192:104,1,180,8|0,0:0|0:0,0:0:0:0:
256,56,161739,1,2,0:0:0:0:
288,128,162141,2,0,B|328:112|344:64|328:24|328:24|384:32,1,180,0|8,0:0|0:0,0:0:0:0:
424,192,163752,5,8,0:0:0:0:
392,312,164356,2,0,B|304:328|256:256|256:256|208:328|120:312,1,315,2|4,0:0|0:0,0:0:0:0:
40,288,166168,1,8,0:0:0:0:
176,200,166974,1,8,0:0:0:0:
336,200,167779,1,8,0:0:0:0:
472,288,168584,1,8,0:0:0:0:
256,192,168987,12,8,171403,0:0:0:0:
166,234,172209,6,0,P|144:117|334:244,1,540,4|2,0:0|0:0,0:0:0:0:
376,312,175027,1,0,0:0:0:0:
296,312,175430,2,0,L|160:312,1,135,0|2,0:0|0:0,0:0:0:0:
80,312,176437,1,0,0:0:0:0:
80,232,176839,2,0,B|64:192|64:192|80:160|80:160|64:120|64:120|88:48,1,180,0|2,0:0|0:0,0:0:0:0:
192,112,178249,1,0,0:0:0:0:
240,48,178652,6,0,P|272:88|240:176,1,135,4|0,0:0|0:0,0:0:0:0:
176,256,179860,2,0,L|312:272,1,135,0|2,0:0|0:0,0:0:0:0:
392,272,180866,2,0,B|416:232|384:216|384:216|416:176|392:152|392:152,1,135,0|2,0:0|0:0,0:0:0:0:
256,192,181672,12,2,184289,0:0:0:0:
104,344,185094,5,0,0:0:0:0:
48,280,185497,2,0,B|112:200|208:184|272:280|272:280|336:376|432:360|496:280,2,540,4|8|8,0:0|0:0|0:0,0:0:0:0:
120,136,191135,1,8,0:0:0:0:
168,72,191537,6,0,B|200:64|232:72|264:64,1,90,0|4,0:0|0:0,0:0:0:0:
336,48,192343,1,0,0:0:0:0:
416,32,192745,2,0,P|448:104|424:200,2,180,8|8|8,0:0|0:0|0:0,0:0:0:0:
280,128,195162,1,8,0:0:0:0:
312,288,195967,1,8,0:0:0:0:
464,232,196772,5,4,0:0:0:0:
432,152,197175,2,0,L|384:152,2,45,8|4|8,0:0|0:0|0:0,0:0:0:0:
464,72,197980,6,0,L|360:72,1,90,0|4,0:0|0:0,0:0:0:0:
296,72,198786,1,0,0:0:0:0:
216,72,199188,1,8,0:0:0:0:
256,144,199591,2,0,L|288:240,2,90,0|8|0,0:0|0:0|0:0,0:0:0:0:
176,144,200799,1,8,0:0:0:0:
208,72,201202,6,0,P|144:72|128:208,1,225,0|2,0:0|0:0,0:0:0:0:
184,312,202813,5,0,0:0:0:0:
256,272,203215,1,8,0:0:0:0:
328,312,203618,1,0,0:0:0:0:
400,272,204021,1,4,0:0:0:0:
472,312,204423,6,0,P|480:256|456:216,1,90,0|4,0:0|0:0,0:0:0:0:
400,272,205229,2,0,L|336:208,1,90,0|8,0:0|0:0,0:0:0:0:
360,120,206034,1,0,0:0:0:0:
288,64,206437,1,8,0:0:0:0:
280,152,206839,2,0,L|208:216,1,90,0|8,0:0|0:0,0:0:0:0:
184,288,207645,2,0,P|128:224|136:176,2,135,0|2|8,0:0|0:0|0:0,0:0:0:0:
264,288,209256,5,0,0:0:0:0:
344,288,209658,1,8,0:0:0:0:
424,288,210061,2,0,L|408:352,2,45,2|0|8,0:0|0:0|0:0,0:0:0:0:
384,216,210866,6,0,P|400:168|432:136,1,90,4|8,0:0|0:0,0:0:0:0:
488,88,211672,2,0,L|400:72,1,90,0|8,0:0|0:0,0:0:0:0:
240,56,212880,1,8,0:0:0:0:
160,72,213282,1,0,0:0:0:0:
216,136,213685,1,8,0:0:0:0:
80,224,214490,6,0,L|168:248,1,90,8|0,0:0|0:0,0:0:0:0:
224,304,215296,2,0,L|312:328,1,90,8|0,0:0|0:0,0:0:0:0:
392,352,216101,1,4,0:0:0:0:
440,288,216504,1,0,0:0:0:0:
408,216,216907,1,8,0:0:0:0:
328,200,217309,6,0,P|280:184|256:152,1,90,0|4,0:0|0:0,0:0:0:0:
384,48,218517,1,8,0:0:0:0:
456,88,218920,5,0,0:0:0:0:
384,120,219323,1,8,0:0:0:0:
312,88,219725,1,0,0:0:0:0:
240,120,220128,1,8,0:0:0:0:
208,192,220531,2,0,P|168:160|160:120,1,90,0|2,0:0|0:0,0:0:0:0:
256,192,221135,12,4,223752,0:0:0:0:
