osu file format v14

[General]
AudioFilename: audio.ogg
AudioLeadIn: 0
PreviewTime: 75151
Countdown: 0
SampleSet: Soft
StackLeniency: 0.3
Mode: 0
LetterboxInBreaks: 0
WidescreenStoryboard: 1

[Editor]
Bookmarks: 31305,46074,60844,75613,90382,105151,119920,134690,149459,164228,178997,193767
DistanceSpacing: 1.6
BeatDivisor: 8
GridSize: 8
TimelineZoom: 3.699999

[Metadata]
Title:Where Them Girls At feat. Nicki Minaj, Flo Rida
TitleUnicode:Where Them Girls At feat. Nicki Minaj, Flo Rida
Artist:David Guetta
ArtistUnicode:David Guetta
Creator:AJT
Version:Peabo Bryson
Source:
Tags:english pop hip hop dance electronic edm dem florida avena priti rho smh fsjallink wanpachi gorou visionary
BeatmapID:4399744
BeatmapSetID:1266351

[Difficulty]
HPDrainRate:6
CircleSize:3.8
OverallDifficulty:9
ApproachRate:9.2
SliderMultiplier:2
SliderTickRate:1

[Events]
//Background and Video events
0,0,"bg.jpg",0,0
Video,225,"video.avi"
//Break Periods
2,61043,73197
2,120120,132273
//Storyboard Layer 0 (Background)
//Storyboard Layer 1 (Fail)
//Storyboard Layer 2 (Pass)
//Storyboard Layer 3 (Foreground)
//Storyboard Layer 4 (Overlay)
//Storyboard Sound Samples

[TimingPoints]
1767,461.538461538462,4,2,1,55,1,0
16536,-100,4,2,1,65,0,0
31074,-100,4,2,2,65,0,0
31189,-100,4,2,1,65,0,0
31305,-100,4,2,17,80,0,0
31535,-100,4,2,2,80,0,0
31651,-100,4,2,7,80,0,0
31767,-100,4,2,17,80,0,0
31997,-100,4,2,2,80,0,0
32228,-100,4,2,18,80,0,0
32458,-100,4,2,2,80,0,0
32574,-100,4,2,7,80,0,0
32690,-100,4,2,19,80,0,0
32805,-100,4,2,2,80,0,0
33151,-100,4,2,20,80,0,0
33381,-100,4,2,2,80,0,0
33497,-100,4,2,8,80,0,0
33613,-100,4,2,20,80,0,0
33728,-100,4,2,1,80,0,0
33843,-100,4,2,2,80,0,0
33958,-100,4,2,1,80,0,0
34074,-100,4,2,21,80,0,0
34304,-100,4,2,2,80,0,0
34420,-100,4,2,8,80,0,0
34536,-66.6666666666667,4,2,21,80,0,0
34709,-66.6666666666667,4,2,1,80,0,0
34767,-50,4,2,11,80,0,0
34882,-50,4,2,1,80,0,0
34997,-50,4,2,22,80,0,0
35113,-100,4,2,2,80,0,0
35343,-100,4,2,7,80,0,0
35459,-100,4,2,17,80,0,0
35689,-100,4,2,2,80,0,0
35920,-100,4,2,19,80,0,0
36035,-100,4,2,2,80,0,0
36266,-100,4,2,8,80,0,0
36382,-100,4,2,18,80,0,0
36612,-100,4,2,2,80,0,0
36843,-100,4,2,23,80,0,0
36958,-100,4,2,2,80,0,0
37305,-100,4,2,20,80,0,0
37535,-100,4,2,2,80,0,0
37651,-100,4,2,1,80,0,0
37767,-100,4,2,21,80,0,0
37997,-100,4,2,2,80,0,0
38228,-153.846153846153,4,2,21,80,0,0
38574,-153.846153846153,4,2,1,80,0,0
38690,-100,4,2,22,80,0,0
38805,-100,4,2,2,80,0,0
39036,-100,4,2,7,80,0,0
39151,-100,4,2,17,80,0,0
39381,-100,4,2,2,80,0,0
39613,-100,4,2,19,80,0,0
39728,-100,4,2,2,80,0,0
39959,-100,4,2,7,80,0,0
40074,-100,4,2,18,80,0,0
40189,-100,4,2,2,80,0,0
40536,-100,4,2,23,80,0,0
40766,-100,4,2,2,80,0,0
40882,-100,4,2,8,80,0,0
40997,-100,4,2,20,80,0,0
41112,-100,4,2,2,80,0,0
41459,-100,4,2,21,80,0,0
41689,-100,4,2,2,80,0,0
41805,-100,4,2,8,80,0,0
41920,-66.6666666666667,4,2,21,80,0,0
42093,-66.6666666666667,4,2,1,80,0,0
42151,-50,4,2,11,80,0,0
42266,-50,4,2,1,80,0,0
42382,-100,4,2,22,80,0,0
42497,-100,4,2,1,80,0,0
42613,-100,4,2,2,80,0,0
42728,-100,4,2,8,80,0,0
42843,-100,4,2,17,80,0,0
43073,-100,4,2,2,80,0,0
43305,-100,4,2,19,80,0,0
43420,-100,4,2,1,80,0,0
43536,-100,4,2,2,80,0,0
43767,-100,4,2,18,80,0,0
43882,-100,4,2,2,80,0,0
44228,-100,4,2,23,80,0,0
44343,-100,4,2,1,80,0,0
44459,-100,4,2,2,80,0,0
44690,-100,4,2,20,80,0,0
44920,-100,4,2,2,80,0,0
45151,-100,4,2,21,80,0,0
45381,-100,4,2,2,80,0,0
45613,-200,4,2,10,80,0,0
45959,-200,4,2,2,80,0,0
46074,-100,4,2,22,80,0,0
46189,-100,4,2,1,80,0,0
46305,-100,4,2,2,80,0,0
46420,-100,4,2,7,80,0,0
46536,-100,4,2,17,80,0,0
46651,-100,4,2,2,80,0,0
46882,-100,4,2,1,80,0,0
46997,-66.6666666666667,4,2,18,80,0,0
47113,-66.6666666666667,4,2,1,80,0,0
47228,-50,4,2,2,80,0,0
47343,-50,4,2,8,80,0,0
47459,-86.9565217391304,4,2,18,80,0,0
47689,-86.9565217391304,4,2,2,80,0,0
47920,-100,4,2,23,80,0,0
48150,-100,4,2,2,80,0,0
48267,-100,4,2,8,80,0,0
48382,-100,4,2,20,80,0,0
48497,-100,4,2,1,80,0,0
48613,-100,4,2,2,80,0,0
48843,-100,4,2,21,80,0,0
49073,-100,4,2,2,80,0,0
49190,-100,4,2,8,80,0,0
49305,-66.6666666666667,4,2,21,80,0,0
49478,-66.6666666666667,4,2,1,80,0,0
49536,-50,4,2,11,80,0,0
49651,-50,4,2,2,80,0,0
49767,-50,4,2,22,80,0,0
49997,-100,4,2,2,80,0,0
50112,-100,4,2,7,80,0,0
50227,-100,4,2,17,80,0,0
50343,-100,4,2,2,80,0,0
50690,-66.6666666666667,4,2,18,80,0,0
50805,-66.6666666666667,4,2,1,80,0,0
50920,-50,4,2,2,80,0,0
51035,-50,4,2,8,80,0,0
51151,-50,4,2,18,80,0,0
51208,-50,4,2,1,80,0,0
51381,-50,4,2,2,80,0,0
51439,-50,4,2,1,80,0,0
51497,-50,4,2,2,80,0,0
51554,-50,4,2,1,80,0,0
51613,-100,4,2,1,80,0,0
52074,-133.333333333333,4,2,1,80,0,0
52535,-133.333333333333,4,2,2,80,0,0
53459,-100,4,2,17,80,0,0
53574,-100,4,2,2,80,0,0
53805,-100,4,2,8,80,0,0
53920,-100,4,2,17,80,0,0
54150,-100,4,2,2,80,0,0
54382,-100,4,2,18,80,0,0
54497,-100,4,2,2,80,0,0
54728,-100,4,2,8,80,0,0
54843,-100,4,2,18,80,0,0
55073,-100,4,2,2,80,0,0
55305,-60.6060606060606,4,2,20,80,0,0
55478,-60.6060606060606,4,2,1,80,0,0
55536,-60.6060606060606,4,2,2,80,0,0
55651,-60.6060606060606,4,2,7,80,0,0
55767,-80,4,2,20,80,0,0
55997,-80,4,2,2,80,0,0
56228,-80,4,2,21,80,0,0
56343,-80,4,2,2,80,0,0
56574,-80,4,2,8,80,0,0
56690,-66.6666666666667,4,2,21,80,0,0
56863,-66.6666666666667,4,2,1,80,0,0
56920,-50,4,2,8,80,0,0
57035,-50,4,2,2,80,0,0
57151,-50,4,2,17,80,0,0
57267,-50,4,2,2,80,0,0
57382,-80,4,2,2,80,0,0
57497,-80,4,2,8,80,0,0
57613,-80,4,2,17,80,0,0
57728,-80,4,2,1,80,0,0
57843,-80,4,2,2,80,0,0
58074,-80,4,2,18,80,0,0
58189,-80,4,2,1,80,0,0
58305,-80,4,2,2,80,0,0
58420,-80,4,2,8,80,0,0
58536,-66.6666666666667,4,2,18,80,0,0
58766,-66.6666666666667,4,2,2,80,0,0
58997,-100,4,2,5,80,0,0
59112,-100,4,2,2,80,0,0
59343,-100,4,2,8,80,0,0
59459,-100,4,2,24,80,0,0
59574,-100,4,2,2,80,0,0
59920,-100,4,2,6,80,0,0
60036,-100,4,2,2,80,0,0
60266,-100,4,2,8,80,0,0
60382,-200,4,2,10,80,0,0
60843,-200,4,2,1,55,0,0
73767,-200,4,2,5,55,0,0
73997,-200,4,2,2,55,0,0
74228,-200,4,2,5,55,0,0
74459,-200,4,2,2,55,0,0
75035,-200,4,2,1,55,0,0
75151,-100,4,2,10,55,0,0
75381,-100,4,2,2,55,0,0
75613,-100,4,2,3,65,0,0
75959,-100,4,2,1,65,0,0
76074,-100,4,2,3,65,0,0
76536,-100,4,2,4,65,0,0
76882,-100,4,2,1,65,0,0
76997,-100,4,2,4,65,0,0
77459,-100,4,2,5,65,0,0
77690,-100,4,2,2,65,0,0
77805,-100,4,2,1,65,0,0
77920,-100,4,2,5,65,0,0
78151,-100,4,2,2,65,0,0
78382,-100,4,2,6,65,0,0
78728,-100,4,2,1,65,0,0
78843,-133.333333333333,4,2,6,65,0,0
79016,-133.333333333333,4,2,1,65,0,0
79074,-100,4,2,11,65,0,0
79189,-100,4,2,1,65,0,0
79305,-100,4,2,3,65,0,0
79651,-100,4,2,1,65,0,0
79767,-100,4,2,3,65,0,0
80228,-151.515151515152,4,2,4,65,0,0
80574,-151.515151515152,4,2,1,65,0,0
80690,-100,4,2,4,65,0,0
81151,-100,4,2,5,65,0,0
81382,-100,4,2,2,65,0,0
81497,-100,4,2,1,65,0,0
81612,-100,4,2,5,65,0,0
81843,-100,4,2,2,65,0,0
82074,-100,4,2,6,65,0,0
82882,-100,4,2,1,65,0,0
83459,-100,4,2,12,65,0,0
83920,-100,4,2,2,65,0,0
84382,-100,4,2,13,65,0,0
84843,-100,4,2,3,65,0,0
85073,-100,4,2,2,65,0,0
85305,-100,4,2,14,65,0,0
85535,-100,4,2,2,65,0,0
85651,-100,4,2,1,65,0,0
85766,-100,4,2,4,65,0,0
86228,-100,4,2,15,65,0,0
86459,-100,4,2,8,65,0,0
86690,-100,4,2,5,65,0,0
86805,-100,4,2,1,65,0,0
86920,-100,4,2,2,65,0,0
87036,-100,4,2,1,65,0,0
87151,-100,4,2,12,65,0,0
87267,-100,4,2,1,65,0,0
87382,-100,4,2,2,65,0,0
87497,-100,4,2,1,65,0,0
87613,-100,4,2,2,65,0,0
87959,-100,4,2,1,65,0,0
88074,-100,4,2,13,65,0,0
88189,-100,4,2,1,65,0,0
88305,-100,4,2,2,65,0,0
88420,-100,4,2,1,65,0,0
88536,-100,4,2,3,65,0,0
88651,-100,4,2,1,65,0,0
88767,-100,4,2,3,65,0,0
88882,-100,4,2,1,65,0,0
88997,-100,4,2,14,65,0,0
89113,-100,4,2,1,65,0,0
89228,-100,4,2,2,65,0,0
89343,-100,4,2,1,65,0,0
89459,-100,4,2,6,65,0,0
89574,-100,4,2,1,65,0,0
89690,-100,4,2,2,65,0,0
89805,-100,4,2,1,65,0,0
89920,-100,4,2,16,65,0,0
90036,-100,4,2,1,65,0,0
90151,-100,4,2,16,65,0,0
90267,-100,4,2,1,65,0,0
90382,-200,4,2,25,85,0,1
91074,-200,4,2,1,85,0,1
91247,-200,4,2,1,85,0,0
91305,-200,4,2,26,85,0,1
92228,-100,4,2,20,85,0,0
92401,-100,4,2,2,85,0,0
92574,-100,4,2,8,85,0,0
92690,-100,4,2,20,85,0,0
92920,-100,4,2,2,85,0,0
93151,-100,4,2,21,85,0,0
93324,-100,4,2,1,85,0,0
93382,-100,4,2,2,85,0,0
93497,-100,4,2,8,85,0,0
93613,-66.6666666666667,4,2,21,85,0,0
93786,-66.6666666666667,4,2,1,85,0,0
93843,-50,4,2,11,85,0,0
93958,-50,4,2,1,85,0,0
94074,-50,4,2,17,85,0,0
94190,-50,4,2,2,85,0,0
94305,-100,4,2,2,85,0,0
94478,-100,4,2,1,85,0,0
94536,-100,4,2,17,85,0,0
94651,-100,4,2,1,85,0,0
94767,-100,4,2,2,85,0,0
95343,-100,4,2,8,85,0,0
95459,-83.3333333333333,4,2,18,85,0,0
95632,-83.3333333333333,4,2,1,85,0,0
95690,-66.6666666666667,4,2,2,85,0,0
95805,-66.6666666666667,4,2,1,85,0,0
95920,-66.6666666666667,4,2,20,85,0,0
96036,-66.6666666666667,4,2,2,85,0,0
96151,-83.3333333333333,4,2,2,85,0,0
96266,-83.3333333333333,4,2,7,85,0,0
96382,-66.6666666666667,4,2,20,85,0,0
96612,-66.6666666666667,4,2,2,85,0,0
96843,-83.3333333333333,4,2,21,85,0,0
96958,-83.3333333333333,4,2,2,85,0,0
97190,-83.3333333333333,4,2,7,85,0,0
97305,-66.6666666666667,4,2,21,85,0,0
97478,-66.6666666666667,4,2,1,85,0,0
97536,-50,4,2,11,85,0,0
97651,-50,4,2,1,85,0,0
97767,-133.333333333333,4,2,17,85,0,0
97997,-133.333333333333,4,2,8,85,0,0
98228,-62.5,4,2,17,85,0,0
98458,-62.5,4,2,2,85,0,0
98690,-100,4,2,18,85,0,0
98920,-100,4,2,2,85,0,0
99151,-100,4,2,18,85,0,0
99267,-100,4,2,1,85,0,0
99382,-100,4,2,2,85,0,0
99497,-100,4,2,1,85,0,0
99613,-66.6666666666667,4,2,27,85,0,0
99670,-66.6666666666667,4,2,1,85,0,0
99728,-66.6666666666667,4,2,2,85,0,0
99785,-66.6666666666667,4,2,1,85,0,0
99843,-66.6666666666667,4,2,2,85,0,0
99900,-66.6666666666667,4,2,1,85,0,0
99959,-66.6666666666667,4,2,2,85,0,0
100016,-66.6666666666667,4,2,1,85,0,0
100074,-66.6666666666667,4,2,2,85,0,0
100420,-66.6666666666667,4,2,1,85,0,0
100536,-66.6666666666667,4,2,28,85,0,0
100593,-66.6666666666667,4,2,1,85,0,0
100651,-66.6666666666667,4,2,2,85,0,0
100708,-66.6666666666667,4,2,1,85,0,0
100767,-66.6666666666667,4,2,2,85,0,0
100824,-66.6666666666667,4,2,1,85,0,0
100882,-66.6666666666667,4,2,2,85,0,0
100939,-66.6666666666667,4,2,1,85,0,0
100997,-66.6666666666667,4,2,2,85,0,0
101343,-66.6666666666667,4,2,1,85,0,0
101459,-83.3333333333333,4,2,17,85,0,0
101574,-83.3333333333333,4,2,2,85,0,0
101805,-83.3333333333333,4,2,7,85,0,0
101920,-83.3333333333333,4,2,17,85,0,0
102035,-83.3333333333333,4,2,2,85,0,0
102382,-83.3333333333333,4,2,18,85,0,0
102555,-83.3333333333333,4,2,1,85,0,0
102613,-83.3333333333333,4,2,2,85,0,0
102728,-83.3333333333333,4,2,7,85,0,0
102843,-83.3333333333333,4,2,18,85,0,0
102959,-83.3333333333333,4,2,1,85,0,0
103074,-66.6666666666667,4,2,2,85,0,0
103189,-66.6666666666667,4,2,1,85,0,0
103305,-83.3333333333333,4,2,20,85,0,0
103420,-83.3333333333333,4,2,2,85,0,0
103651,-83.3333333333333,4,2,7,85,0,0
103767,-83.3333333333333,4,2,20,85,0,0
103997,-83.3333333333333,4,2,2,85,0,0
104228,-83.3333333333333,4,2,21,85,0,0
104343,-83.3333333333333,4,2,1,85,0,0
104459,-83.3333333333333,4,2,2,85,0,0
104574,-83.3333333333333,4,2,8,85,0,0
104690,-133.333333333333,4,2,29,85,0,0
105036,-133.333333333333,4,2,1,85,0,0
105151,-100,4,2,17,80,0,0
105381,-100,4,2,8,80,0,0
105613,-66.6666666666667,4,2,17,80,0,0
105843,-66.6666666666667,4,2,2,80,0,0
106074,-66.6666666666667,4,2,19,80,0,0
106190,-66.6666666666667,4,2,2,80,0,0
106420,-66.6666666666667,4,2,8,80,0,0
106536,-100,4,2,18,80,0,0
106709,-100,4,2,1,80,0,0
106997,-50,4,2,20,80,0,0
107112,-50,4,2,1,80,0,0
107228,-50,4,2,2,80,0,0
107343,-50,4,2,7,80,0,0
107459,-66.6666666666667,4,2,20,80,0,0
107689,-66.6666666666667,4,2,2,80,0,0
107920,-66.6666666666667,4,2,30,80,0,0
108036,-66.6666666666667,4,2,2,80,0,0
108151,-100,4,2,2,80,0,0
108324,-100,4,2,1,80,0,0
108382,-66.6666666666667,4,2,21,80,0,0
108439,-66.6666666666667,4,2,1,80,0,0
108497,-66.6666666666667,4,2,2,80,0,0
108554,-66.6666666666667,4,2,1,80,0,0
108613,-66.6666666666667,4,2,11,80,0,0
108670,-66.6666666666667,4,2,1,80,0,0
108728,-66.6666666666667,4,2,2,80,0,0
108785,-66.6666666666667,4,2,1,80,0,0
108843,-66.6666666666667,4,2,17,85,0,0
108959,-66.6666666666667,4,2,2,85,0,0
109190,-66.6666666666667,4,2,7,85,0,0
109305,-83.3333333333333,4,2,17,85,0,0
109420,-83.3333333333333,4,2,1,85,0,0
109536,-83.3333333333333,4,2,2,85,0,0
109767,-83.3333333333333,4,2,18,85,0,0
109882,-83.3333333333333,4,2,1,85,0,0
109997,-83.3333333333333,4,2,2,85,0,0
110113,-83.3333333333333,4,2,7,85,0,0
110228,-83.3333333333333,4,2,18,85,0,0
110343,-83.3333333333333,4,2,2,85,0,0
110690,-100,4,2,2,85,0,0
111151,-66.6666666666667,4,2,2,85,0,0
112131,-66.6666666666667,4,2,1,85,0,0
112190,-66.6666666666667,4,2,2,85,0,0
112247,-66.6666666666667,4,2,1,85,0,0
112305,-66.6666666666667,4,2,2,85,0,0
112362,-66.6666666666667,4,2,1,85,0,0
112420,-66.6666666666667,4,2,2,85,0,0
112477,-66.6666666666667,4,2,1,85,0,0
112536,-66.6666666666667,4,2,17,85,0,0
112651,-66.6666666666667,4,2,2,85,0,0
112708,-66.6666666666667,4,2,1,85,0,0
112882,-66.6666666666667,4,2,8,85,0,0
112997,-66.6666666666667,4,2,17,85,0,0
113170,-66.6666666666667,4,2,1,85,0,0
113228,-66.6666666666667,4,2,2,85,0,0
113343,-66.6666666666667,4,2,1,85,0,0
113459,-66.6666666666667,4,2,18,85,0,0
113689,-66.6666666666667,4,2,2,85,0,0
113805,-66.6666666666667,4,2,7,85,0,0
113920,-66.6666666666667,4,2,18,85,0,0
114035,-66.6666666666667,4,2,1,85,0,0
114151,-66.6666666666667,4,2,2,85,0,0
114324,-66.6666666666667,4,2,1,85,0,0
114382,-66.6666666666667,4,2,20,85,0,0
114497,-66.6666666666667,4,2,2,85,0,0
114554,-66.6666666666667,4,2,1,85,0,0
114728,-66.6666666666667,4,2,8,85,0,0
114843,-66.6666666666667,4,2,20,85,0,0
114958,-66.6666666666667,4,2,2,85,0,0
115305,-66.6666666666667,4,2,21,85,0,0
115420,-66.6666666666667,4,2,2,85,0,0
115651,-66.6666666666667,4,2,8,85,0,0
115767,-66.6666666666667,4,2,21,85,0,0
115940,-66.6666666666667,4,2,1,85,0,0
115997,-50,4,2,11,85,0,0
116112,-50,4,2,1,85,0,0
116228,-50,4,2,17,85,0,0
116343,-50,4,2,2,85,0,0
116400,-50,4,2,1,85,0,0
116574,-50,4,2,8,85,0,0
116690,-50,4,2,17,85,0,0
116805,-50,4,2,2,85,0,0
116920,-83.3333333333333,4,2,2,85,0,0
117151,-66.6666666666667,4,2,18,85,0,0
117381,-66.6666666666667,4,2,2,85,0,0
117497,-66.6666666666667,4,2,7,85,0,0
117613,-66.6666666666667,4,2,18,85,0,0
117728,-66.6666666666667,4,2,1,85,0,0
117843,-66.6666666666667,4,2,2,85,0,0
117958,-66.6666666666667,4,2,1,85,0,0
118074,-66.6666666666667,4,2,20,85,0,0
118228,-66.6666666666667,4,2,2,85,0,0
118536,-66.6666666666667,4,2,20,85,0,0
118690,-66.6666666666667,4,2,2,85,0,0
118997,-66.6666666666667,4,2,21,85,0,0
119151,-66.6666666666667,4,2,2,85,0,0
119459,-66.6666666666667,4,2,29,85,0,0
119613,-66.6666666666667,4,2,2,85,0,0
119920,-66.6666666666667,4,2,1,55,0,0
134228,-100,4,2,10,55,0,0
134458,-100,4,2,2,55,0,0
134690,-100,4,2,3,65,0,0
135036,-100,4,2,1,65,0,0
135151,-100,4,2,3,65,0,0
135613,-100,4,2,4,65,0,0
135959,-100,4,2,1,65,0,0
136074,-100,4,2,4,65,0,0
136536,-100,4,2,5,65,0,0
136767,-100,4,2,2,65,0,0
136882,-100,4,2,1,65,0,0
136997,-100,4,2,5,65,0,0
137228,-100,4,2,2,65,0,0
137459,-100,4,2,6,65,0,0
137805,-100,4,2,1,65,0,0
137920,-100,4,2,6,65,0,0
138266,-100,4,2,1,65,0,0
138382,-100,4,2,3,65,0,0
139190,-100,4,2,1,65,0,0
139305,-100,4,2,4,65,0,0
140113,-100,4,2,1,65,0,0
140228,-100,4,2,5,65,0,0
140458,-100,4,2,2,65,0,0
140690,-100,4,2,5,65,0,0
140920,-100,4,2,2,65,0,0
141151,-100,4,2,6,65,0,0
141959,-100,4,2,1,65,0,0
142536,-100,4,2,12,65,0,0
142997,-100,4,2,2,65,0,0
143343,-100,4,2,1,65,0,0
143459,-100,4,2,13,65,0,0
143920,-100,4,2,3,65,0,0
144150,-100,4,2,2,65,0,0
144382,-100,4,2,14,65,0,0
144612,-100,4,2,2,65,0,0
144728,-100,4,2,1,65,0,0
144843,-100,4,2,4,65,0,0
145305,-100,4,2,15,65,0,0
145536,-66.6666666666667,4,2,8,65,0,0
145651,-66.6666666666667,4,2,1,65,0,0
145767,-66.6666666666667,4,2,5,65,0,0
145882,-66.6666666666667,4,2,1,65,0,0
145997,-66.6666666666667,4,2,2,65,0,0
146113,-66.6666666666667,4,2,1,65,0,0
146228,-66.6666666666667,4,2,12,65,0,0
146343,-66.6666666666667,4,2,1,65,0,0
146459,-66.6666666666667,4,2,2,65,0,0
146574,-66.6666666666667,4,2,1,65,0,0
146690,-100,4,2,2,65,0,0
147036,-100,4,2,1,65,0,0
147151,-100,4,2,13,65,0,0
147266,-100,4,2,1,65,0,0
147382,-100,4,2,2,65,0,0
147497,-100,4,2,1,65,0,0
147613,-100,4,2,3,65,0,0
147728,-100,4,2,1,65,0,0
147843,-100,4,2,3,65,0,0
147958,-100,4,2,1,65,0,0
148074,-100,4,2,14,65,0,0
148190,-100,4,2,1,65,0,0
148305,-100,4,2,2,65,0,0
148420,-100,4,2,1,65,0,0
148536,-100,4,2,6,65,0,0
148651,-100,4,2,1,65,0,0
148767,-100,4,2,6,65,0,0
148882,-100,4,2,1,65,0,0
148997,-100,4,2,16,65,0,0
149113,-100,4,2,1,65,0,0
149228,-50,4,2,2,65,0,0
149343,-50,4,2,1,65,0,0
149459,-80,4,2,17,80,0,1
149805,-80,4,2,8,80,0,1
149920,-50,4,2,17,80,0,1
150093,-50,4,2,1,80,0,1
150151,-50,4,2,2,80,0,1
150382,-50,4,2,19,80,0,1
150497,-50,4,2,2,80,0,1
150728,-50,4,2,8,80,0,1
150843,-55.5555555555556,4,2,18,80,0,1
151246,-55.5555555555556,4,2,1,80,0,1
151305,-50,4,2,20,80,0,1
151420,-50,4,2,1,80,0,1
151536,-50,4,2,2,80,0,1
151651,-50,4,2,7,80,0,1
151767,-50,4,2,20,80,0,1
151940,-50,4,2,1,80,0,1
151997,-50,4,2,2,80,0,1
152228,-50,4,2,30,80,0,1
152343,-50,4,2,2,80,0,1
152574,-50,4,2,8,80,0,1
152690,-50,4,2,21,80,0,1
152863,-50,4,2,1,80,0,1
152920,-33.3333333333333,4,2,8,80,0,1
153093,-33.3333333333333,4,2,1,80,0,1
153151,-66.6666666666667,4,2,17,80,0,1
153497,-66.6666666666667,4,2,8,80,0,1
153613,-45.4545454545455,4,2,17,80,0,1
153786,-45.4545454545455,4,2,1,80,0,1
153843,-45.4545454545455,4,2,2,80,0,1
154074,-45.4545454545455,4,2,19,80,0,1
154190,-45.4545454545455,4,2,2,80,0,1
154420,-45.4545454545455,4,2,8,80,0,1
154536,-50,4,2,18,80,0,1
154939,-50,4,2,1,80,0,1
154997,-50,4,2,20,80,0,1
155112,-50,4,2,1,80,0,1
155228,-50,4,2,2,80,0,1
155343,-50,4,2,7,80,0,1
155459,-50,4,2,20,80,0,1
155574,-50,4,2,1,80,0,1
155690,-50,4,2,2,80,0,1
155920,-50,4,2,30,80,0,1
156036,-50,4,2,2,80,0,1
156843,-62.5,4,2,17,80,0,1
157189,-62.5,4,2,8,80,0,1
157305,-43.4782608695652,4,2,17,80,0,1
157478,-43.4782608695652,4,2,1,80,0,1
157536,-43.4782608695652,4,2,2,80,0,1
157766,-43.4782608695652,4,2,19,80,0,1
157882,-43.4782608695652,4,2,2,80,0,1
158112,-43.4782608695652,4,2,8,80,0,1
158228,-47.6190476190476,4,2,18,80,0,1
158631,-47.6190476190476,4,2,1,80,0,1
158690,-47.6190476190476,4,2,20,80,0,1
158805,-47.6190476190476,4,2,1,80,0,1
158920,-47.6190476190476,4,2,2,80,0,1
159036,-47.6190476190476,4,2,7,80,0,1
159151,-47.6190476190476,4,2,20,80,0,1
159266,-47.6190476190476,4,2,1,80,0,1
159382,-47.6190476190476,4,2,2,80,0,1
159612,-47.6190476190476,4,2,30,80,0,1
159728,-47.6190476190476,4,2,2,80,0,1
159958,-47.6190476190476,4,2,8,80,0,1
160074,-47.6190476190476,4,2,21,80,0,1
160247,-47.6190476190476,4,2,1,80,0,1
160305,-28.5714285714286,4,2,8,80,0,1
160478,-28.5714285714286,4,2,1,80,0,1
160536,-62.5,4,2,17,80,0,1
160882,-62.5,4,2,8,80,0,1
160997,-43.4782608695652,4,2,17,80,0,1
161170,-43.4782608695652,4,2,1,80,0,1
161228,-43.4782608695652,4,2,2,80,0,1
161458,-43.4782608695652,4,2,19,80,0,1
161574,-43.4782608695652,4,2,2,80,0,1
161805,-43.4782608695652,4,2,8,80,0,1
161920,-47.6190476190476,4,2,18,80,0,1
162323,-47.6190476190476,4,2,1,80,0,1
162382,-47.6190476190476,4,2,20,80,0,1
162497,-47.6190476190476,4,2,1,80,0,1
162613,-47.6190476190476,4,2,2,80,0,1
162728,-47.6190476190476,4,2,7,80,0,1
162843,-47.6190476190476,4,2,20,80,0,1
162958,-47.6190476190476,4,2,1,80,0,1
163074,-47.6190476190476,4,2,2,80,0,1
163305,-47.6190476190476,4,2,30,80,0,1
163420,-47.6190476190476,4,2,2,80,0,1
163651,-47.6190476190476,4,2,8,80,0,1
163767,-100,4,2,10,80,0,1
164170,-100,4,2,1,80,0,1
164228,-50,4,2,17,80,0,0
164458,-50,4,2,8,80,0,0
164690,-100,4,2,17,80,0,0
164920,-100,4,2,1,80,0,0
165151,-50,4,2,18,80,0,0
165381,-50,4,2,8,80,0,0
165613,-66.6666666666667,4,2,18,80,0,0
165728,-66.6666666666667,4,2,1,80,0,0
165843,-66.6666666666667,4,2,2,80,0,0
165958,-66.6666666666667,4,2,1,80,0,0
166074,-66.6666666666667,4,2,20,80,0,0
166420,-66.6666666666667,4,2,8,80,0,0
166536,-66.6666666666667,4,2,23,80,0,0
166882,-66.6666666666667,4,2,1,80,0,0
166997,-100,4,2,30,80,0,0
167343,-100,4,2,8,80,0,0
167459,-66.6666666666667,4,2,21,80,0,0
167632,-66.6666666666667,4,2,1,80,0,0
167690,-50,4,2,11,80,0,0
167805,-50,4,2,1,80,0,0
167920,-50,4,2,17,80,0,0
168150,-50,4,2,8,80,0,0
168382,-133.333333333333,4,2,17,80,0,0
168612,-133.333333333333,4,2,1,80,0,0
168843,-50,4,2,18,80,0,0
169073,-50,4,2,8,80,0,0
169305,-66.6666666666667,4,2,18,80,0,0
169420,-66.6666666666667,4,2,1,80,0,0
169535,-66.6666666666667,4,2,2,80,0,0
169650,-66.6666666666667,4,2,1,80,0,0
169767,-66.6666666666667,4,2,20,80,0,0
169997,-66.6666666666667,4,2,8,80,0,0
170228,-100,4,2,23,80,0,0
170458,-100,4,2,1,80,0,0
170690,-200,4,2,30,80,0,0
170920,-200,4,2,2,80,0,0
171613,-50,4,2,17,80,0,0
171843,-50,4,2,8,80,0,0
172075,-50,4,2,17,80,0,0
172190,-50,4,2,1,80,0,0
172305,-100,4,2,1,80,0,0
172536,-50,4,2,18,80,0,0
172766,-50,4,2,8,80,0,0
172998,-66.6666666666667,4,2,18,80,0,0
173113,-66.6666666666667,4,2,1,80,0,0
173228,-66.6666666666667,4,2,2,80,0,0
173343,-66.6666666666667,4,2,1,80,0,0
173459,-50,4,2,20,80,0,0
173689,-50,4,2,8,80,0,0
173921,-66.6666666666667,4,2,23,80,0,0
174267,-66.6666666666667,4,2,1,80,0,0
174382,-100,4,2,30,80,0,0
174497,-100,4,2,1,80,0,0
174613,-100,4,2,2,80,0,0
174728,-100,4,2,8,80,0,0
174844,-66.6666666666667,4,2,21,80,0,0
175017,-66.6666666666667,4,2,1,80,0,0
175075,-50,4,2,11,80,0,0
175190,-50,4,2,1,80,0,0
175305,-50,4,2,17,80,0,0
175535,-50,4,2,8,80,0,0
175767,-66.6666666666667,4,2,17,80,0,0
175882,-66.6666666666667,4,2,1,80,0,0
175997,-66.6666666666667,4,2,2,80,0,0
176112,-66.6666666666667,4,2,1,80,0,0
176228,-66.6666666666667,4,2,19,80,0,0
176459,-66.6666666666667,4,2,2,80,0,0
176574,-66.6666666666667,4,2,8,80,0,0
176690,-66.6666666666667,4,2,18,80,0,0
176920,-66.6666666666667,4,2,2,80,0,0
177151,-100,4,2,5,80,0,0
177497,-100,4,2,8,80,0,0
177613,-66.6666666666667,4,2,31,80,0,0
177959,-66.6666666666667,4,2,1,80,0,0
178074,-100,4,2,6,80,0,0
178420,-100,4,2,8,80,0,0
178536,-44.4444444444445,4,2,32,80,0,0
178939,-44.4444444444445,4,2,1,80,0,0
178997,-66.6666666666667,4,2,22,80,0,0
179227,-66.6666666666667,4,2,2,80,0,0
179343,-66.6666666666667,4,2,8,80,0,0
179459,-66.6666666666667,4,2,17,80,0,0
179574,-66.6666666666667,4,2,1,80,0,0
179690,-50,4,2,2,80,0,0
179863,-50,4,2,1,80,0,0
179920,-50,4,2,18,80,0,0
180151,-50,4,2,2,80,0,0
180267,-50,4,2,8,80,0,0
180382,-100,4,2,18,80,0,0
180728,-100,4,2,1,80,0,0
180843,-66.6666666666667,4,2,20,80,0,0
180958,-66.6666666666667,4,2,1,80,0,0
181074,-66.6666666666667,4,2,2,80,0,0
181189,-66.6666666666667,4,2,8,80,0,0
181305,-66.6666666666667,4,2,20,80,0,0
181420,-66.6666666666667,4,2,1,80,0,0
181536,-50,4,2,2,80,0,0
181709,-50,4,2,1,80,0,0
181767,-50,4,2,21,80,0,0
181997,-50,4,2,8,80,0,0
182228,-66.6666666666667,4,2,30,80,0,0
182401,-66.6666666666667,4,2,1,80,0,0
182459,-50,4,2,8,80,0,0
182574,-50,4,2,1,80,0,0
182690,-50,4,2,22,80,0,0
182863,-50,4,2,1,80,0,0
182920,-50,4,2,2,80,0,0
183152,-66.6666666666667,4,2,17,80,0,0
183325,-66.6666666666667,4,2,1,80,0,0
183382,-66.6666666666667,4,2,2,80,0,0
183497,-66.6666666666667,4,2,1,80,0,0
183613,-66.6666666666667,4,2,18,80,0,0
183843,-66.6666666666667,4,2,8,80,0,0
184074,-66.6666666666667,4,2,19,80,0,0
184189,-66.6666666666667,4,2,1,80,0,0
184305,-66.6666666666667,4,2,2,80,0,0
184420,-66.6666666666667,4,2,1,80,0,0
184536,-57.1428571428571,4,2,20,80,0,0
184651,-57.1428571428571,4,2,1,80,0,0
184767,-57.1428571428571,4,2,2,80,0,0
184882,-57.1428571428571,4,2,8,80,0,0
184997,-57.1428571428571,4,2,20,80,0,0
185112,-57.1428571428571,4,2,1,80,0,0
185228,-57.1428571428571,4,2,2,80,0,0
185343,-57.1428571428571,4,2,1,80,0,0
185459,-57.1428571428571,4,2,30,80,0,0
185689,-57.1428571428571,4,2,8,80,0,0
185920,-57.1428571428571,4,2,30,80,0,0
186093,-57.1428571428571,4,2,1,80,0,0
186151,-44.4444444444445,4,2,8,80,0,0
186266,-44.4444444444445,4,2,1,80,0,0
186382,-66.6666666666667,4,2,22,80,0,0
186612,-66.6666666666667,4,2,8,80,0,0
186843,-66.6666666666667,4,2,17,80,0,0
186958,-66.6666666666667,4,2,1,80,0,0
187074,-66.6666666666667,4,2,2,80,0,0
187190,-66.6666666666667,4,2,1,80,0,0
187305,-66.6666666666667,4,2,18,80,0,0
187535,-66.6666666666667,4,2,8,80,0,0
187767,-66.6666666666667,4,2,19,80,0,0
187882,-66.6666666666667,4,2,1,80,0,0
187998,-55.5555555555556,4,2,2,80,0,0
188171,-55.5555555555556,4,2,1,80,0,0
188228,-66.6666666666667,4,2,20,80,0,0
188343,-66.6666666666667,4,2,1,80,0,0
188459,-66.6666666666667,4,2,2,80,0,0
188574,-66.6666666666667,4,2,8,80,0,0
188690,-66.6666666666667,4,2,20,80,0,0
188805,-66.6666666666667,4,2,1,80,0,0
188920,-66.6666666666667,4,2,2,80,0,0
189035,-66.6666666666667,4,2,1,80,0,0
189151,-66.6666666666667,4,2,30,80,0,0
189381,-66.6666666666667,4,2,8,80,0,0
189613,-57.1428571428571,4,2,30,80,0,0
189786,-57.1428571428571,4,2,1,80,0,0
189843,-44.4444444444445,4,2,8,80,0,0
189958,-44.4444444444445,4,2,1,80,0,0
190074,-50,4,2,22,80,0,0
190247,-50,4,2,1,80,0,0
190305,-50,4,2,2,80,0,0
190536,-66.6666666666667,4,2,17,80,0,0
190651,-66.6666666666667,4,2,1,80,0,0
190767,-66.6666666666667,4,2,2,80,0,0
190882,-66.6666666666667,4,2,1,80,0,0
190997,-66.6666666666667,4,2,18,80,0,0
191170,-66.6666666666667,4,2,1,80,0,0
191228,-66.6666666666667,4,2,2,80,0,0
191343,-66.6666666666667,4,2,8,80,0,0
191459,-66.6666666666667,4,2,19,80,0,0
191574,-66.6666666666667,4,2,1,80,0,0
191690,-66.6666666666667,4,2,2,80,0,0
191805,-66.6666666666667,4,2,1,80,0,0
191920,-66.6666666666667,4,2,20,80,0,0
192035,-66.6666666666667,4,2,1,80,0,0
192151,-66.6666666666667,4,2,2,80,0,0
192266,-66.6666666666667,4,2,8,80,0,0
192382,-66.6666666666667,4,2,20,80,0,0
192555,-66.6666666666667,4,2,1,80,0,0
192613,-66.6666666666667,4,2,2,80,0,0
192843,-66.6666666666667,4,2,30,80,0,0
193073,-66.6666666666667,4,2,8,80,0,0
193305,-66.6666666666667,4,2,2,80,0,0
193536,-57.1428571428571,4,2,2,80,0,0
193651,-80,4,2,1,80,0,0
193767,-80,4,2,17,80,0,0
193997,-80,4,2,8,80,0,0
194228,-80,4,2,17,80,0,0
194458,-80,4,2,1,80,0,0
194690,-80,4,2,18,80,0,0
194920,-80,4,2,8,80,0,0
195151,-80,4,2,18,80,0,0
195381,-80,4,2,1,80,0,0
195613,-80,4,2,20,80,0,0
195728,-80,4,2,1,80,0,0
195843,-80,4,2,2,80,0,0
195958,-80,4,2,8,80,0,0
196074,-80,4,2,20,80,0,0
196189,-80,4,2,1,80,0,0
196305,-80,4,2,2,80,0,0
196420,-80,4,2,1,80,0,0
196536,-80,4,2,21,80,0,0
196651,-80,4,2,1,80,0,0
196767,-80,4,2,8,80,0,0
196997,-66.6666666666667,4,2,21,80,0,0
197170,-66.6666666666667,4,2,1,80,0,0
197228,-50,4,2,11,80,0,0
197343,-50,4,2,1,80,0,0
197459,-66.6666666666667,4,2,17,80,0,0
197689,-66.6666666666667,4,2,8,80,0,0
197920,-66.6666666666667,4,2,17,80,0,0
198150,-66.6666666666667,4,2,1,80,0,0
198382,-66.6666666666667,4,2,18,80,0,0
198612,-66.6666666666667,4,2,8,80,0,0
198843,-66.6666666666667,4,2,18,80,0,0
199073,-66.6666666666667,4,2,1,80,0,0
199306,-80,4,2,20,80,0,0
199421,-80,4,2,1,80,0,0
199536,-80,4,2,2,80,0,0
199651,-80,4,2,8,80,0,0
199767,-80,4,2,20,80,0,0
199882,-80,4,2,1,80,0,0
199998,-80,4,2,2,80,0,0
200113,-80,4,2,1,80,0,0
200229,-80,4,2,21,80,0,0
200344,-80,4,2,1,80,0,0
200460,-80,4,2,8,80,0,0
200690,-44.4444444444445,4,2,21,80,0,0
201093,-44.4444444444445,4,2,1,80,0,0
201151,-66.6666666666667,4,2,17,80,0,0
201381,-66.6666666666667,4,2,8,80,0,0
201612,-66.6666666666667,4,2,17,80,0,0
201842,-66.6666666666667,4,2,1,80,0,0
202074,-66.6666666666667,4,2,18,80,0,0
202304,-66.6666666666667,4,2,8,80,0,0
202535,-66.6666666666667,4,2,18,80,0,0
202765,-66.6666666666667,4,2,1,80,0,0
202997,-80,4,2,20,80,0,0
203112,-80,4,2,1,80,0,0
203227,-80,4,2,2,80,0,0
203342,-80,4,2,8,80,0,0
203458,-80,4,2,20,80,0,0
203573,-80,4,2,1,80,0,0
203689,-80,4,2,2,80,0,0
203804,-80,4,2,1,80,0,0
203920,-80,4,2,21,80,0,0
204035,-80,4,2,1,80,0,0
204151,-80,4,2,8,80,0,0
204382,-66.6666666666667,4,2,30,80,0,0
204555,-66.6666666666667,4,2,1,80,0,0
204613,-50,4,2,8,80,0,0
204728,-50,4,2,1,80,0,0
204843,-50,4,2,22,80,0,0
205074,-50,4,2,2,80,0,0
205247,-50,4,2,1,40,0,0
205305,-50,4,2,17,80,0,0
205478,-50,4,2,1,40,0,0
205536,-50,4,2,2,80,0,0
205709,-50,4,2,1,40,0,0
205767,-50,4,2,18,80,0,0
205882,-50,4,2,1,80,0,0
205997,-50,4,2,8,80,0,0
206228,-50,4,2,18,80,0,0
206458,-50,4,2,2,80,0,0
206690,-100,4,2,5,75,0,0
207036,-100,4,2,1,75,0,0
207152,-66.6666666666667,4,2,5,75,0,0
207498,-66.6666666666667,4,2,1,75,0,0
207613,-100,4,2,7,70,0,0
207959,-100,4,2,1,70,0,0
208075,-50.761421319797,4,2,33,70,0,0
208536,-50.761421319797,4,2,1,70,0,0

[Colours]
Combo1 : 244,210,159
Combo2 : 152,188,241
Combo3 : 248,158,185
Combo4 : 182,140,232

[HitObjects]
256,192,27613,12,1,30959,0:0:0:0:
153,248,31074,6,1,L|212:241,1,50,2|0,3:2|0:0,0:0:0:0:
402,206,31305,6,1,P|424:156|416:111,1,100,2|2,1:2|3:2,0:0:0:0:
434,40,31651,1,2,2:3:0:0:
259,125,31767,1,10,1:2:0:0:
259,125,31997,2,1,L|251:204,1,50,2|2,3:2|2:2,0:0:0:0:
318,259,32228,2,1,P|368:237|413:245,1,100,2|2,1:2|3:2,0:0:0:0:
468,298,32574,1,2,2:3:0:0:
322,351,32690,2,1,L|257:343,1,50,10|2,1:2|2:2,0:0:0:0:
127,288,32920,1,2,3:2:0:0:
127,288,33036,1,2,2:2:0:0:
127,288,33151,6,1,P|151:243|142:191,1,100,2|2,1:2|3:2,0:0:0:0:
82,150,33497,1,2,2:3:0:0:
238,236,33613,2,1,L|303:228,1,50,10|0,1:2|0:0,0:0:0:0:
327,125,33843,2,1,L|261:115,1,50,2|0,3:2|0:0,0:0:0:0:
409,243,34074,2,1,P|431:192|418:136,1,100,2|2,1:2|3:2,0:0:0:0:
481,96,34420,1,2,2:3:0:0:
331,228,34536,6,1,B|279:253|279:253|200:241,1,112.5,10|0,1:2|0:0,0:0:0:0:
0,113,34767,6,3,B|43:92|43:92|108:102,1,100,2|0,3:2|0:0,0:1:0:0:
266,170,34997,5,2,1:2:0:0:
242,96,35113,2,1,L|250:30,2,50,2|2|2,2:2|3:2|2:3,0:0:0:0:
117,268,35459,2,1,P|114:316|134:363,1,100,10|2,1:2|3:2,0:0:0:0:
201,318,35805,1,2,2:2:0:0:
275,354,35920,2,1,L|325:348,1,50,2|2,1:2|2:2,0:0:0:0:
448,299,36151,2,1,L|359:289,1,50,2|2,3:2|2:3,0:0:0:0:
217,222,36382,2,1,P|270:218|312:244,1,100,10|2,1:2|3:2,0:0:0:0:
478,129,36728,1,2,2:2:0:0:
478,129,36843,2,1,L|472:79,1,50,2|2,1:2|2:2,0:0:0:0:
405,17,37074,1,2,3:2:0:0:
201,168,37305,6,1,L|216:275,1,100,10|2,1:2|3:2,0:0:0:0:
264,329,37651,1,0,0:0:0:0:
439,307,37767,2,1,L|452:199,1,100,2|2,1:2|3:2,0:0:0:0:
4,276,38228,6,3,B|53:269|53:269|97:295,1,97.5000000000006,10|0,1:2|0:0,0:1:0:0:
345,347,38690,6,1,L|429:336,1,50,2|2,1:2|2:2,0:0:0:0:
472,196,38920,1,2,3:2:0:0:
472,196,39036,1,2,2:3:0:0:
472,196,39151,2,1,P|412:177|347:184,1,100,10|0,1:2|3:3,0:0:0:0:
157,231,39497,1,2,2:2:0:0:
157,231,39613,2,1,L|149:182,1,50,2|2,1:2|2:2,0:0:0:0:
225,42,39843,1,2,3:2:0:0:
225,42,39959,1,2,2:3:0:0:
225,42,40074,2,1,L|238:123,1,50,10|2,1:2|2:2,0:0:0:0:
28,163,40305,1,0,3:3:0:0:
232,288,40536,6,1,L|344:306,1,100,2|2,1:2|3:2,0:0:0:0:
397,256,40882,1,2,2:3:0:0:
130,228,40997,2,1,L|139:291,1,50,10|2,1:2|2:2,0:0:0:0:
94,341,41228,1,2,3:2:0:0:
367,181,41459,2,1,P|383:114|379:76,1,100,2|2,1:2|3:2,0:0:0:0:
318,37,41805,1,2,2:3:0:0:
206,225,41920,6,1,B|258:250|258:250|337:238,1,112.5,10|0,1:2|0:0,0:0:0:0:
512,358,42151,6,3,B|469:337|469:337|405:347,1,100,2|0,3:2|0:0,0:1:0:0:
149,339,42382,6,1,L|157:279,1,50,2|0,1:2|0:0,0:0:0:0:
4,196,42613,2,1,L|22:279,1,50,2|2,3:2|2:3,0:0:0:0:
231,361,42843,2,1,P|301:357|359:323,1,100,10|2,1:2|3:2,0:0:0:0:
273,178,43190,1,2,2:2:0:0:
273,178,43305,2,1,P|248:178|225:186,1,50,2|0,1:2|0:0,0:0:0:0:
411,362,43536,1,2,3:2:0:0:
505,220,43767,2,1,L|516:145,1,50,10|2,1:2|2:2,0:0:0:0:
475,90,43997,5,2,3:2:0:0:
475,90,44113,1,2,2:2:0:0:
409,138,44228,2,1,L|402:187,1,50,2|0,1:2|0:0,0:0:0:0:
323,258,44459,1,2,3:2:0:0:
163,336,44690,2,1,P|123:318|53:324,1,100,10|2,1:2|3:2,0:0:0:0:
1,362,45036,1,2,2:2:0:0:
86,185,45151,2,1,L|94:85,1,100,2|2,1:2|3:2,0:0:0:0:
496,335,45613,6,3,B|458:340|458:340|424:320,1,75,10|2,3:2|2:2,0:1:0:0:
153,248,46074,6,1,L|212:241,1,50,2|0,1:2|0:0,0:0:0:0:
402,206,46305,1,2,3:2:0:0:
402,206,46420,1,2,2:3:0:0:
445,145,46536,1,10,1:2:0:0:
452,70,46651,1,2,2:2:0:0:
410,6,46767,2,1,L|351:-1,1,50,2|0,3:2|0:0,0:0:0:0:
153,248,46997,6,1,B|243:237,1,75.0000028610231,2|0,1:2|0:0,0:0:0:0:
493,200,47228,2,1,B|393:187,1,100,2|2,3:2|2:3,0:0:0:0:
232,384,47459,6,1,B|257:332|257:332|245:253,1,115,10|2,1:2|3:2,0:0:0:0:
440,232,47805,1,2,2:2:0:0:
339,77,47920,6,1,B|318:120|318:120|326:171,1,100,2|2,1:2|3:2,0:0:0:0:
308,321,48267,1,2,2:3:0:0:
308,321,48382,2,1,L|300:378,1,50,10|0,1:2|0:0,0:0:0:0:
76,281,48613,1,2,3:2:0:0:
76,281,48843,2,1,P|54:230|67:174,1,100,2|2,1:2|3:2,0:0:0:0:
4,134,49190,1,2,2:3:0:0:
181,228,49305,6,1,B|233:253|233:253|312:241,1,112.5,10|0,1:2|0:0,0:0:0:0:
512,113,49536,6,3,B|469:92|469:92|404:102,1,100,2|2,3:2|2:2,0:1:0:0:
252,144,49767,1,2,1:2:0:0:
252,144,49997,6,1,L|260:78,2,50,2|2|10,3:2|2:3|1:2,0:0:0:0:
154,322,50343,1,2,2:2:0:0:
154,322,50459,2,1,L|162:388,1,50,2|2,3:2|2:2,0:0:0:0:
477,302,50690,6,1,P|441:281|402:281,1,75.0000028610231,2|0,1:2|0:0,0:0:0:0:
291,182,50920,2,1,P|245:195|194:159,1,100,2|2,3:2|2:3,0:0:0:0:
5,384,51151,6,3,L|-1:324,7,50,10|0|0|0|2|0|2|0,1:2|0:0|0:0|0:0|2:2|0:0|2:2|0:0,0:1:0:0:
5,384,51613,2,3,P|54:371|101:340,1,100,2|2,0:1|0:1,0:1:0:0:
0,0,52074,6,1,B|8:101|34:57|28:153,1,150,0|2,0:0|2:2,0:0:0:0:
36,148,53459,6,1,L|120:159,1,50,2|2,1:2|2:2,0:0:0:0:
163,299,53690,1,2,3:2:0:0:
245,215,53805,1,2,2:3:0:0:
163,299,53920,2,1,P|103:318|38:311,1,100,10|2,1:2|3:2,0:0:0:0:
245,215,54267,1,2,2:2:0:0:
245,215,54382,2,1,L|329:226,1,50,2|2,1:2|2:2,0:0:0:0:
372,366,54613,1,2,3:2:0:0:
474,288,54728,1,2,2:3:0:0:
372,366,54843,2,1,P|312:385|247:378,1,100,10|0,1:2|3:3,0:0:0:0:
66,317,55190,1,2,2:2:0:0:
114,384,55305,6,1,B|188:355|153:392|252:348,1,123.75,2|0,1:2|0:0,0:0:0:0:
233,355,55536,1,2,3:2:0:0:
317,384,55651,1,2,2:3:0:0:
344,304,55767,2,1,P|368:259|355:173,1,125,10|2,1:2|3:2,0:0:0:0:
446,145,56113,1,2,2:2:0:0:
371,88,56228,1,2,1:2:0:0:
371,88,56343,1,2,2:2:0:0:
458,52,56459,2,1,L|446:131,1,62.5,2|2,3:2|2:3,0:0:0:0:
206,225,56690,6,1,B|258:250|258:250|337:238,1,112.5,10|0,1:2|0:0,0:0:0:0:
512,358,56920,6,3,B|469:337|469:337|405:347,1,100,2|2,3:2|2:2,0:1:0:0:
138,343,57151,5,2,1:2:0:0:
138,343,57267,1,2,2:2:0:0:
138,343,57382,2,1,L|127:276,1,62.5,2|2,3:2|2:3,0:0:0:0:
280,101,57613,2,1,L|269:168,1,62.5,10|0,1:2|0:0,0:0:0:0:
231,360,57843,1,2,3:2:0:0:
231,360,57959,1,2,2:2:0:0:
231,360,58074,2,1,P|266:358|295:341,1,62.5,2|0,1:2|0:0,0:0:0:0:
129,196,58305,2,1,P|94:198|65:215,1,62.5,2|2,3:2|2:3,0:0:0:0:
379,384,58536,2,1,P|420:328|425:242,1,150,10|0,1:2|3:3,0:0:0:0:
368,184,58882,1,2,2:2:0:0:
426,249,58997,6,1,P|465:241|492:240,2,50,2|2|2,3:2|2:2|3:2,0:0:0:0:
368,184,59343,1,2,2:3:0:0:
368,184,59459,2,1,P|329:192|302:193,1,50,10|2,3:2|2:2,0:0:0:0:
228,137,59690,2,1,P|250:103|269:83,1,50,2|2,3:2|2:2,0:0:0:0:
276,9,59920,1,2,3:2:0:0:
276,9,60036,1,2,2:2:0:0:
276,9,60151,2,1,P|316:0|344:-1,1,50,2|2,3:2|2:3,0:0:0:0:
227,231,60382,6,3,B|184:255|184:255|133:246,1,100,10|2,3:2|2:2,0:1:0:0:
0,378,73767,5,2,2:2:0:0:
143,299,73997,1,2,2:2:0:0:
21,216,74228,1,2,2:2:0:0:
94,168,74459,2,1,P|77:129|83:26,1,125,2|0,2:2|0:0,0:0:0:0:
178,8,75151,6,1,L|279:20,1,100,2|2,2:2|2:2,0:0:0:0:
25,304,75613,6,1,P|8:265|14:162,1,100,2|0,3:2|3:3,0:0:0:0:
295,289,75959,1,0,0:0:0:0:
295,289,76074,2,1,P|292:331|240:420,1,100,10|0,3:2|3:3,0:0:0:0:
289,382,76536,2,1,P|309:336|314:287,1,100,2|0,3:2|3:3,0:0:0:0:
21,206,76882,1,0,0:0:0:0:
21,206,76997,2,1,P|25:255|44:302,1,100,10|0,3:2|3:3,0:0:0:0:
259,326,77459,5,2,3:2:0:0:
91,370,77690,2,1,P|64:383|38:383,2,50,2|0|10,3:2|0:0|3:2,0:0:0:0:
154,232,78151,1,2,3:2:0:0:
154,232,78382,2,1,P|148:170|119:86,1,150,2|0,3:2|0:0,0:0:0:0:
0,0,78843,6,1,B|25:12|25:12|65:6,1,56.2500000000001,10|0,3:2|0:0,0:0:0:0:
152,66,79074,6,3,B|130:55|130:55|98:60,1,50,2|0,3:2|0:0,0:1:0:0:
22,137,79305,6,1,P|5:176|11:279,1,100,2|0,3:2|3:3,0:0:0:0:
292,152,79651,1,0,0:0:0:0:
292,152,79767,2,1,P|289:110|237:21,1,100,10|0,3:2|3:3,0:0:0:0:
286,59,80228,6,1,P|306:105|311:154,1,98.9999999999997,2|0,3:2|0:0,0:0:0:0:
18,235,80690,2,1,P|22:186|41:139,1,100,10|0,3:2|3:3,0:0:0:0:
257,112,81151,5,2,3:2:0:0:
89,68,81382,2,1,P|62:55|36:55,2,50,2|0|10,3:2|0:0|3:2,0:0:0:0:
152,206,81843,1,2,3:2:0:0:
203,0,82074,1,2,3:2:0:0:
152,206,82536,6,3,B|81:194|81:194|30:134,1,150,10|0,3:2|0:0,0:1:0:0:
203,0,82997,6,1,P|199:43|215:100,1,100,2|0,3:3|3:3,0:0:0:0:
309,384,83459,2,1,P|313:341|297:284,1,100,10|0,3:2|3:3,0:0:0:0:
64,245,83920,2,1,P|107:249|164:233,1,100,2|0,3:3|3:3,0:0:0:0:
448,139,84382,2,1,P|405:135|348:151,1,100,10|0,3:2|3:3,0:0:0:0:
175,371,84843,6,1,L|32:389,1,100,2|2,3:3|3:2,0:0:0:0:
227,184,85305,2,1,L|370:166,1,100,10|2,3:2|3:2,0:0:0:0:
399,248,85651,1,0,0:0:0:0:
399,248,85766,2,1,P|394:300|370:363,1,100,2|0,3:3|3:3,0:0:0:0:
167,371,86228,1,10,3:2:0:0:
268,144,86459,1,2,3:2:0:0:
24,73,86690,5,2,3:3:0:0:
12,121,86805,1,0,0:0:0:0:
10,171,86920,1,2,3:2:0:0:
19,220,87036,1,0,0:0:0:0:
38,266,87151,1,10,3:2:0:0:
67,307,87267,1,0,0:0:0:0:
103,341,87382,1,2,3:2:0:0:
146,367,87497,1,0,0:0:0:0:
193,383,87613,6,1,P|253:348|307:286,1,150,2|0,3:3|0:0,0:0:0:0:
240,248,88074,2,1,P|213:251|174:262,1,50,10|0,3:2|0:0,0:0:0:0:
311,356,88305,2,1,P|332:372|367:392,1,50,2|0,3:2|0:0,0:0:0:0:
462,292,88536,5,2,3:3:0:0:
512,237,88651,1,0,0:0:0:0:
512,161,88767,2,1,P|505:133|486:108,1,50,0|0,3:3|0:0,0:0:0:0:
249,33,88997,5,10,3:2:0:0:
209,95,89113,1,0,0:0:0:0:
220,170,89228,2,1,P|230:196|253:217,1,50,2|0,3:2|0:0,0:0:0:0:
512,363,89459,5,2,3:3:0:0:
509,285,89574,1,0,0:0:0:0:
436,254,89690,1,2,3:2:0:0:
378,306,89805,1,0,0:0:0:0:
385,324,89920,5,10,3:2:0:0:
318,384,90036,1,0,0:0:0:0:
233,350,90151,1,0,3:3:0:0:
229,261,90267,1,0,0:0:0:0:
301,213,90382,6,1,P|313:185|307:61,1,150,2|0,1:2|0:0,0:0:0:0:
19,350,91305,1,2,1:2:0:0:
19,350,92228,6,1,L|114:356,2,75,2|2|2,1:2|2:2|2:3,0:0:0:0:
122,228,92690,2,1,P|138:172|131:123,1,100,10|2,1:2|3:2,0:0:0:0:
67,89,93036,1,2,2:2:0:0:
218,204,93151,2,1,L|307:195,1,75,2|0,1:2|0:0,0:0:0:0:
428,239,93382,2,1,L|361:245,1,50,2|2,3:2|2:3,0:0:0:0:
199,376,93613,6,1,B|166:336|166:336|180:269,1,112.5,10|0,1:2|0:0,0:0:0:0:
419,78,93843,6,3,B|451:120|451:120|433:190,1,100,2|0,3:2|0:1,0:1:0:0:
71,268,94074,5,2,1:2:0:0:
111,183,94190,1,2,2:2:0:0:
71,268,94305,2,1,P|37:265|-1:224,1,75,2|0,3:2|0:0,0:0:0:0:
15,148,94536,2,1,L|23:83,1,50,10|0,1:2|0:0,0:0:0:0:
215,262,94767,1,2,3:2:0:0:
204,180,94882,2,1,L|191:81,1,100,2|2,2:2|2:2,0:0:0:0:
129,21,95228,2,1,P|102:28|63:29,1,50,2|2,3:2|2:3,0:0:0:0:
331,129,95459,2,1,P|377:129|417:149,1,90,10|0,1:2|0:0,0:0:0:0:
488,264,95690,2,1,P|450:259|415:241,1,75,2|0,3:2|0:0,0:0:0:0:
187,205,95920,5,2,1:2:0:0:
257,265,96036,1,2,2:2:0:0:
180,313,96151,2,1,L|97:299,1,60,2|2,3:2|2:3,0:0:0:0:
92,38,96382,2,1,P|40:66|36:164,1,150,10|2,1:2|3:2,0:0:0:0:
83,209,96728,1,2,2:2:0:0:
261,89,96843,2,1,L|270:13,1,60,2|2,1:2|2:2,0:0:0:0:
269,234,97074,1,2,3:2:0:0:
195,271,97190,1,2,2:3:0:0:
272,321,97305,6,3,B|322:356|322:356|394:333,1,112.5,10|0,1:2|0:0,0:1:0:0:
512,127,97536,6,3,B|469:97|469:97|409:116,1,100,2|0,3:2|0:0,0:1:0:0:
124,237,97767,6,1,L|42:224,1,75.0000000000002,2|0,1:2|3:3,0:0:0:0:
3,290,98113,1,2,2:3:0:0:
0,32,98228,2,1,L|170:63,1,160,10|0,1:2|3:3,0:0:0:0:
227,26,98574,1,2,2:2:0:0:
219,213,98690,2,1,P|197:267|203:321,2,100,2|2|10,1:2|3:2|1:2,0:0:0:0:
291,252,99267,1,0,0:0:0:0:
314,87,99382,2,1,L|320:26,1,50,2|0,3:2|0:0,0:0:0:0:
385,318,99613,6,3,L|422:312,1,37.5,2|0,1:2|0:0,0:1:0:0:
504,250,99728,2,3,L|466:244,1,37.5,2|0,2:2|0:0,0:1:0:0:
375,306,99843,2,3,L|412:300,1,37.5,2|0,2:2|0:0,0:1:0:0:
493,238,99959,2,3,L|455:232,1,37.5,2|0,2:2|0:0,0:1:0:0:
287,319,100074,5,2,2:2:0:0:
356,208,100305,2,1,P|362:162|362:128,1,75,2|0,2:2|0:0,0:0:0:0:
146,358,100536,6,3,L|108:352,1,37.5,2|0,1:2|0:0,0:1:0:0:
65,284,100651,2,3,L|28:290,1,37.5,2|0,2:2|0:0,0:1:0:0:
157,346,100767,2,3,L|119:340,1,37.5,2|0,2:2|0:0,0:1:0:0:
76,272,100882,2,3,L|39:278,1,37.5,2|0,2:2|0:0,0:1:0:0:
237,340,100997,5,2,2:2:0:0:
114,175,101228,2,1,P|151:171|189:160,1,75,2|0,2:2|0:0,0:0:0:0:
467,33,101459,6,1,L|462:107,1,60,2|2,1:2|2:2,0:0:0:0:
314,273,101690,1,2,3:2:0:0:
261,207,101805,1,2,2:3:0:0:
311,147,101920,2,1,P|335:130|364:121,1,60,10|2,1:2|2:2,0:0:0:0:
475,342,102151,1,2,3:2:0:0:
494,265,102267,1,2,2:2:0:0:
475,342,102382,2,1,L|373:358,1,90,2|0,1:2|0:0,0:0:0:0:
248,290,102613,2,1,P|285:300|330:296,1,60,2|2,3:2|2:3,0:0:0:0:
39,317,102843,1,10,1:2:0:0:
109,252,102959,1,0,0:0:0:0:
23,205,103074,2,1,L|2:103,1,75,2|0,3:2|0:0,0:0:0:0:
83,43,103305,6,1,P|128:32|152:15,1,60,2|2,1:2|2:2,0:0:0:0:
280,76,103536,1,2,3:2:0:0:
261,166,103651,1,2,2:3:0:0:
280,76,103767,2,1,P|323:74|395:109,1,120,10|2,1:2|3:2,0:0:0:0:
318,286,104113,1,2,2:2:0:0:
395,221,104228,2,1,L|473:212,1,60,2|0,1:2|0:0,0:0:0:0:
344,370,104459,2,1,L|266:379,1,60,2|2,3:2|2:3,0:0:0:0:
475,116,104690,6,3,B|491:65|491:65|466:12,1,112.5,10|0,1:2|0:0,0:1:0:0:
142,75,105151,6,1,B|126:126|126:126|151:179,1,100,2|0,1:2|3:3,0:0:0:0:
441,139,105497,1,2,2:3:0:0:
441,139,105613,6,1,B|462:69|462:69|428:-1,1,150,10|0,1:2|3:3,0:0:0:0:
154,88,105959,2,1,B|142:124|142:124|160:163,1,75,2|2,2:2|1:2,0:0:0:0:
378,81,106190,1,2,2:2:0:0:
410,110,106305,2,1,B|421:73|421:73|403:34,1,75,2|2,3:2|2:3,0:0:0:0:
139,245,106536,6,1,L|228:236,1,75,10|0,1:2|0:0,0:0:0:0:
349,280,106767,2,1,L|282:286,1,50,0|0,3:3|0:0,0:0:0:0:
3,376,106997,6,1,B|-13:331|-13:331|2:266,1,100,2|0,1:2|0:0,0:0:0:0:
242,165,107228,1,2,3:2:0:0:
242,165,107343,1,2,2:3:0:0:
242,165,107459,6,1,B|276:235|276:235|255:305,1,150,10|2,1:2|3:2,0:0:0:0:
382,367,107805,1,2,2:2:0:0:
512,296,107920,1,2,1:2:0:0:
512,296,108036,1,2,2:2:0:0:
512,296,108151,6,1,B|476:286|476:286|442:304,1,75,2|0,3:2|0:0,0:0:0:0:
393,378,108382,6,3,L|355:372,1,37.5,10|0,1:2|0:0,0:1:0:0:
355,372,108497,2,3,L|317:366,1,37.5,2|0,2:2|0:0,0:1:0:0:
317,366,108613,2,3,L|279:360,1,37.5,2|0,3:2|0:0,0:1:0:0:
279,360,108728,2,3,L|241:354,1,37.5,2|0,2:2|0:0,0:1:0:0:
141,343,108843,5,2,1:2:0:0:
141,343,108959,1,2,2:2:0:0:
71,283,109074,1,2,3:2:0:0:
71,283,109190,1,2,2:3:0:0:
148,235,109305,2,1,L|231:249,1,60,10|0,1:2|0:0,0:0:0:0:
396,175,109536,1,2,3:2:0:0:
473,109,109651,1,2,2:2:0:0:
389,56,109767,2,1,L|307:70,1,60,2|0,1:2|0:0,0:0:0:0:
85,344,109997,1,2,3:2:0:0:
0,272,110113,1,2,2:3:0:0:
93,214,110228,2,1,L|171:227,1,60,10|2,1:2|2:2,0:0:0:0:
18,74,110459,1,2,3:2:0:0:
18,74,110690,6,1,P|14:44|0:-4,2,66.6666666666667,2|2|2,2:2|2:2|2:2,0:0:0:0:
282,195,111151,2,1,P|278:267|218:307,1,150,2|2,2:2|2:2,0:0:0:0:
144,272,111497,1,2,2:2:0:0:
286,384,111613,6,1,P|329:378|357:362,1,75,2|2,2:2|2:2,0:0:0:0:
164,103,111843,2,1,P|167:146|182:175,1,75,2|2,2:2|2:2,0:0:0:0:
383,275,112074,6,1,L|421:281,1,37.5,2|0,2:2|0:0,0:1:0:0:
502,207,112190,2,1,L|465:213,1,37.5,2|0,2:2|0:0,0:1:0:0:
394,287,112305,2,1,L|432:293,1,37.5,2|0,2:2|0:0,0:1:0:0:
512,219,112420,2,1,L|475:225,1,37.5,2|0,2:2|0:0,0:1:0:0:
356,362,112536,5,2,1:2:0:0:
356,362,112651,2,1,P|336:359|320:351,1,37.5,2|0,2:2|0:0,0:1:0:0:
154,384,112882,5,2,2:3:0:0:
320,351,112997,2,1,P|336:295|329:239,1,112.5,10|0,1:2|0:0,0:0:0:0:
329,241,113228,2,1,P|316:206|290:178,1,75,2|0,3:2|0:0,0:0:0:0:
92,38,113459,6,1,P|40:66|36:164,1,150,2|2,1:2|3:2,0:0:0:0:
83,209,113805,1,2,2:3:0:0:
261,89,113920,2,1,L|270:13,1,75,10|0,1:2|0:0,0:0:0:0:
200,312,114151,2,1,P|250:303|320:297,1,112.5,2|0,3:2|0:0,0:0:0:0:
154,384,114382,5,2,1:2:0:0:
88,328,114497,2,1,P|69:320|51:319,1,37.5,2|0,2:2|0:0,0:1:0:0:
341,346,114728,5,2,2:3:0:0:
341,346,114843,2,1,P|359:310|361:272,1,75,10|2,1:2|2:2,0:0:0:0:
209,58,115074,2,1,P|211:96|220:139,1,75,2|2,3:2|2:2,0:0:0:0:
501,243,115305,1,2,1:2:0:0:
501,243,115420,1,2,2:2:0:0:
501,243,115536,2,1,L|514:162,1,75,2|2,3:2|2:3,0:0:0:0:
397,362,115767,6,1,B|345:387|345:387|266:375,1,112.5,10|0,1:2|0:0,0:0:0:0:
68,253,115997,6,3,B|111:232|111:232|176:242,1,100,2|0,3:2|0:0,0:1:0:0:
501,243,116228,5,2,1:2:0:0:
512,168,116343,2,1,L|520:118,1,50,2|0,2:2|0:0,0:1:0:0:
216,166,116574,5,2,2:3:0:0:
216,166,116690,1,10,1:2:0:0:
286,106,116805,1,2,2:2:0:0:
209,58,116920,2,1,L|126:72,1,60,2|2,3:2|2:2,0:0:0:0:
92,346,117151,2,1,P|40:318|36:220,1,150,2|2,1:2|3:2,0:0:0:0:
83,175,117497,1,2,2:3:0:0:
269,302,117613,2,1,P|264:335|248:375,1,75,10|0,1:2|0:0,0:0:0:0:
83,175,117843,2,1,P|68:140|63:103,1,75,2|0,3:2|0:0,0:0:0:0:
269,302,118074,5,2,1:2:0:0:
296,45,118228,2,1,B|359:9|359:9|433:33,1,150,2|0,0:0|0:0,0:1:0:0:
187,254,118536,5,10,1:2:0:0:
389,103,118690,2,1,B|458:124|458:124|490:196,1,150,2|0,0:0|0:0,0:1:0:0:
164,165,118997,5,2,1:2:0:0:
409,210,119151,2,1,B|436:277|436:277|403:347,1,150,2|0,0:0|0:0,0:1:0:0:
210,84,119459,5,10,1:2:0:0:
339,295,119613,2,1,B|308:361|308:361|233:384,1,150,2|0,0:0|0:0,0:1:0:0:
301,61,119920,1,2,2:2:0:0:
256,192,132843,12,1,133997,0:0:0:0:
334,8,134228,6,1,L|233:20,1,100,2|2,2:2|2:2,0:0:0:0:
10,241,134690,6,1,P|19:322|36:358,1,100,2|0,3:2|3:3,0:0:0:0:
238,206,135036,1,0,0:0:0:0:
238,206,135151,2,1,P|229:125|212:89,1,100,10|0,3:2|3:3,0:0:0:0:
232,96,135613,2,1,P|246:143|247:193,1,100,2|0,3:2|3:3,0:0:0:0:
40,351,135959,1,0,0:0:0:0:
40,351,136074,2,1,P|26:303|25:254,1,100,10|0,3:2|3:3,0:0:0:0:
175,36,136536,5,2,3:2:0:0:
95,186,136767,1,2,3:2:0:0:
100,211,136882,1,0,0:0:0:0:
105,235,136997,1,10,3:2:0:0:
8,80,137228,1,2,3:2:0:0:
243,188,137459,2,1,P|311:180|381:222,1,150,2|0,3:2|0:0,0:0:0:0:
489,143,137920,2,3,B|454:73|454:73|462:-8,1,150,10|0,3:2|0:0,0:1:0:0:
457,247,138382,5,2,3:2:0:0:
300,361,138613,1,0,3:3:0:0:
479,359,138843,2,1,P|398:350|362:333,1,100,10|0,3:2|3:3,0:0:0:0:
210,164,139190,1,0,0:0:0:0:
210,164,139305,2,1,P|291:173|327:190,1,100,2|0,3:2|3:3,0:0:0:0:
320,170,139767,2,1,P|273:156|223:155,1,100,10|0,3:2|3:3,0:0:0:0:
376,330,140113,1,0,0:0:0:0:
376,330,140228,6,1,P|424:344|473:345,1,100,2|2,3:2|3:2,0:0:0:0:
495,201,140690,1,10,3:2:0:0:
283,329,140920,1,2,3:2:0:0:
378,160,141151,2,1,P|398:96|387:60,1,100,2|0,3:2|3:3,0:0:0:0:
23,242,141613,2,3,B|58:312|58:312|50:393,1,150,10|0,3:2|0:0,0:1:0:0:
88,132,142074,6,1,P|97:51|114:15,1,100,2|0,3:3|3:3,0:0:0:0:
316,167,142420,1,0,0:0:0:0:
316,167,142536,2,1,P|307:248|290:284,1,100,10|0,3:2|3:3,0:0:0:0:
310,277,142997,2,1,P|324:230|325:180,1,100,2|0,3:3|3:3,0:0:0:0:
118,22,143343,1,0,0:0:0:0:
118,22,143459,2,1,P|104:70|103:119,1,100,10|0,3:2|3:3,0:0:0:0:
411,168,143920,6,1,L|554:150,1,100,2|2,3:3|3:2,0:0:0:0:
346,352,144382,2,1,L|203:370,1,100,10|2,3:2|3:2,0:0:0:0:
175,328,144728,1,0,0:0:0:0:
175,328,144843,2,1,P|157:278|152:211,1,100,2|0,3:3|3:3,0:0:0:0:
406,165,145305,1,10,3:2:0:0:
386,299,145536,2,3,B|387:335|387:335|356:385,1,75,2|0,3:2|0:0,0:1:0:0:
66,319,145767,5,2,3:3:0:0:
70,263,145882,1,0,0:0:0:0:
86,210,145997,1,2,3:2:0:0:
115,164,146113,1,0,0:0:0:0:
149,121,146228,1,10,3:2:0:0:
192,87,146343,1,0,0:0:0:0:
241,60,146459,1,2,3:2:0:0:
289,38,146574,1,0,0:0:0:0:
342,24,146690,2,1,P|363:83|369:193,1,150,2|0,3:3|0:0,0:0:0:0:
302,222,147151,2,1,L|240:215,1,50,10|0,3:2|0:0,0:0:0:0:
169,332,147382,2,1,L|231:325,1,50,2|0,3:2|0:0,0:0:0:0:
483,190,147613,5,2,3:3:0:0:
495,119,147728,1,0,0:0:0:0:
443,70,147843,2,1,P|394:51|375:49,1,50,0|0,3:3|0:0,0:0:0:0:
309,308,148074,5,10,3:2:0:0:
371,351,148190,1,0,0:0:0:0:
441,333,148305,2,1,P|466:287|471:269,1,50,2|0,3:2|0:0,0:0:0:0:
158,33,148536,5,2,3:3:0:0:
79,24,148651,1,0,0:0:0:0:
14,69,148767,1,0,3:3:0:0:
0,145,148882,1,0,0:0:0:0:
38,213,148997,1,10,3:2:0:0:
116,255,149113,1,0,0:0:0:0:
204,245,149228,2,1,P|225:198|230:144,1,100,2|0,3:1|0:0,0:0:0:0:
446,279,149459,6,1,B|496:357|496:357|396:372,1,187.5,2|2,1:2|2:3,0:0:0:0:
319,143,149920,6,1,B|369:89|369:89|293:58,1,150,10|0,1:2|0:0,0:0:0:0:
228,29,150151,1,0,3:3:0:0:
445,44,150267,6,1,P|452:116|431:148,1,100,2|2,2:2|1:2,0:0:0:0:
231,262,150497,5,2,2:2:0:0:
301,360,150613,6,1,P|296:309|325:257,1,100,2|2,3:2|2:3,0:0:0:0:
71,48,150843,6,1,B|18:105|18:105|168:153|168:153|110:221,1,315,10|0,1:2|0:0,0:0:0:0:
38,230,151305,2,1,P|63:281|63:347,1,100,2|0,1:2|0:0,0:0:0:0:
210,256,151536,5,2,3:2:0:0:
261,366,151651,5,2,2:3:0:0:
322,198,151767,6,1,B|367:138|367:138|299:104,1,150,10|0,1:2|0:0,0:0:0:0:
236,56,151997,1,2,3:2:0:0:
388,259,152113,6,1,P|433:260|485:281,1,100,2|2,2:2|1:2,0:0:0:0:
244,175,152343,5,2,2:2:0:0:
353,375,152459,6,1,P|305:376|256:355,1,100,2|2,3:2|2:3,0:0:0:0:
2,106,152690,6,1,L|150:86,1,150,10|0,1:2|0:0,0:0:0:0:
113,180,152920,2,3,L|344:149,1,225,2|0,3:2|0:0,0:1:0:0:
428,238,153151,6,1,B|487:331|487:331|373:348,1,225,2|2,1:2|2:3,0:0:0:0:
89,341,153613,6,1,B|13:311|13:311|85:235,1,165,10|0,1:2|0:0,0:0:0:0:
34,185,153843,1,0,3:3:0:0:
319,49,153959,6,1,P|350:99|348:153,1,110,2|2,2:2|1:2,0:0:0:0:
150,240,154190,5,2,2:2:0:0:
301,317,154305,6,1,P|246:323|195:306,1,110,2|2,3:2|2:3,0:0:0:0:
0,82,154536,6,1,B|98:38|98:38|194:157|194:157|309:98,1,350,10|0,1:2|0:0,0:0:0:0:
343,156,154997,2,1,P|415:163|436:183,1,100,2|0,1:2|0:0,0:0:0:0:
221,41,155228,5,2,3:2:0:0:
314,231,155343,5,2,2:3:0:0:
408,64,155459,6,1,P|457:61|502:39,1,100,10|0,1:2|0:0,0:0:0:0:
296,329,155690,5,2,3:2:0:0:
463,318,155805,6,1,P|417:297|367:297,1,100,2|2,2:2|1:2,0:0:0:0:
504,150,156036,5,2,2:2:0:0:
228,140,156151,6,1,L|450:168,1,200,2|2,3:2|2:2,0:0:0:0:
426,165,156843,6,1,B|305:207|305:207|407:273,1,240,2|2,1:2|2:3,0:0:0:0:
98,150,157305,6,1,B|15:165|15:165|52:84,1,172.5,10|0,1:2|0:0,0:0:0:0:
131,75,157536,1,0,3:3:0:0:
260,267,157651,6,1,P|258:339|239:386,1,115,2|2,2:2|1:2,0:0:0:0:
166,188,157882,5,2,2:2:0:0:
2,359,157997,6,1,P|94:339|137:287,1,115,2|2,3:2|2:3,0:0:0:0:
331,11,158228,6,1,B|391:92|391:92|238:156|238:156|308:254,1,367.5,10|0,1:2|0:0,0:0:0:0:
376,236,158690,2,1,P|377:288|351:333,1,105,2|0,1:2|0:0,0:0:0:0:
158,206,158920,5,2,3:2:0:0:
222,54,159036,5,2,2:3:0:0:
215,263,159151,6,1,P|236:307|241:373,1,105,10|0,1:2|0:0,0:0:0:0:
95,160,159382,5,2,3:2:0:0:
17,276,159497,6,1,P|-2:223|2:161,1,105,2|2,2:2|1:2,0:0:0:0:
314,111,159728,5,2,2:2:0:0:
375,177,159843,6,1,P|317:194|263:186,1,105,2|2,3:2|2:3,0:0:0:0:
5,50,160074,6,1,L|163:27,1,157.5,10|0,1:2|0:0,0:0:0:0:
70,127,160305,2,3,L|341:85,1,262.5,2|0,3:2|0:0,0:1:0:0:
444,218,160536,6,1,B|515:319|515:319|401:340,1,240,2|2,1:2|2:3,0:0:0:0:
98,178,160997,6,1,B|134:98|134:98|201:151,1,172.5,10|0,1:2|0:0,0:0:0:0:
193,225,161228,1,0,3:3:0:0:
284,51,161343,6,1,P|361:81|411:77,1,115,2|2,2:2|1:2,0:0:0:0:
269,273,161574,5,2,2:2:0:0:
471,137,161690,6,1,P|479:80|469:24,1,115,2|2,3:2|2:3,0:0:0:0:
347,291,161920,6,1,B|249:247|249:247|153:366|153:366|38:307,1,367.5,10|0,1:2|0:0,0:0:0:0:
11,254,162382,2,1,P|23:214|20:150,1,105,2|0,1:2|0:0,0:0:0:0:
220,139,162613,5,2,3:2:0:0:
36,60,162728,5,2,2:3:0:0:
276,74,162843,6,1,P|350:44|418:52,1,105,10|0,1:2|0:0,0:0:0:0:
143,49,163074,5,2,3:2:0:0:
117,219,163190,6,1,B|118:273|142:334,1,105,2|2,2:2|1:2,0:0:0:0:
102,133,163420,5,2,2:2:0:0:
228,269,163536,6,1,P|279:266|345:236,1,105,2|2,3:2|2:3,0:0:0:0:
406,173,163767,6,3,L|226:149,1,175,10|0,1:2|0:0,0:1:0:0:
0,382,164228,6,1,B|124:388|48:358|230:340,1,200,2|0,1:2|3:3,0:0:0:0:
228,269,164574,1,2,2:3:0:0:
36,245,164690,2,1,P|48:291|57:349,1,100,10|0,1:2|3:3,0:0:0:0:
462,292,165151,6,1,L|493:85,1,200,2|0,1:2|3:3,0:0:0:0:
474,384,165497,1,2,2:3:0:0:
474,384,165613,2,1,P|435:385|404:359,1,75.0000028610231,10|0,1:2|0:0,0:0:0:0:
256,192,165843,2,1,P|295:191|326:217,1,75.0000028610231,2|0,3:2|0:0,0:0:0:0:
343,384,166074,6,1,B|395:223|337:330|391:160,1,225.000008583069,2|2,1:2|2:3,0:0:0:0:
238,0,166536,2,1,B|192:97|265:126|198:224,1,225.000008583069,10|0,1:2|0:0,0:0:0:0:
152,296,166997,6,1,P|85:317|5:322,1,150,2|2,1:2|2:3,0:0:0:0:
7,225,167459,6,1,B|58:200|58:200|137:212,1,112.5,10|0,1:2|0:0,0:0:0:0:
337,339,167690,6,3,B|293:359|293:359|229:350,1,100,2|0,3:2|0:0,0:1:0:0:
136,48,167920,6,1,B|177:183|124:117|164:263,1,200,2|0,1:2|3:3,0:0:0:0:
437,316,168267,1,2,2:3:0:0:
437,316,168382,2,1,P|433:359|393:398,1,75.0000028610231,10|0,1:2|3:3,0:0:0:0:
50,291,168843,6,1,L|22:91,1,200,2|0,1:2|3:3,0:0:0:0:
38,384,169189,1,2,2:3:0:0:
38,384,169305,2,1,P|77:385|108:359,1,75.0000028610231,10|0,1:2|0:0,0:0:0:0:
189,211,169535,2,1,P|219:190|256:192,1,75.0000028610231,2|0,3:2|0:0,0:0:0:0:
512,382,169767,6,1,B|447:351|428:399|363:355,1,150.000005722046,2|0,1:2|3:3,0:0:0:0:
245,275,170113,1,2,2:3:0:0:
512,272,170228,6,1,B|469:288|482:320|431:329,1,100,10|0,1:2|3:3,0:0:0:0:
245,275,170574,1,0,0:0:0:0:
449,234,170690,6,1,B|440:254|455:260|441:281,3,50,2|2|2|2,1:2|3:2|2:2|2:2,0:0:0:0:
0,2,171613,6,1,B|124:-4|48:26|230:44,1,200,2|0,1:2|3:3,0:0:0:0:
263,188,171959,1,2,2:3:0:0:
263,188,172075,2,1,P|300:155|305:95,1,100,10|0,1:2|0:0,0:0:0:0:
161,335,172305,2,1,L|154:397,1,50,0|0,3:3|0:0,0:0:0:0:
50,292,172536,6,1,L|16:69,1,200,2|0,1:2|3:3,0:0:0:0:
38,384,172882,1,2,2:3:0:0:
38,384,172998,2,1,P|77:385|108:359,1,75.0000028610231,10|0,1:2|0:0,0:0:0:0:
256,192,173228,2,1,P|217:191|186:217,1,75.0000028610231,2|0,3:2|0:0,0:0:0:0:
168,383,173459,6,1,B|122:242|173:336|126:188,1,200,2|0,1:2|3:3,0:0:0:0:
373,136,173805,1,2,2:3:0:0:
274,0,173921,2,1,B|320:97|247:126|314:224,1,225.000008583069,10|0,1:2|0:0,0:0:0:0:
444,291,174382,6,1,L|459:361,1,50,2|0,1:2|0:0,0:0:0:0:
373,136,174613,2,1,L|388:66,1,50,2|2,3:2|2:3,0:0:0:0:
504,234,174844,6,1,B|453:209|453:209|374:221,1,112.5,10|0,1:2|0:0,0:0:0:0:
170,340,175075,6,3,B|214:360|214:360|278:351,1,100,2|0,3:2|0:0,0:1:0:0:
129,23,175305,6,1,P|139:132|166:230,1,200,2|0,1:2|3:3,0:0:0:0:
234,278,175651,1,2,2:3:0:0:
234,278,175767,2,1,P|271:273|314:249,1,75.0000028610231,10|0,1:2|0:0,0:0:0:0:
143,307,175997,2,1,P|113:329|88:372,1,75.0000028610231,2|0,3:2|0:0,0:0:0:0:
365,384,176228,1,2,1:2:0:0:
335,166,176459,5,2,3:2:0:0:
350,275,176574,1,2,2:3:0:0:
365,384,176690,1,10,1:2:0:0:
54,246,176920,1,2,3:2:0:0:
365,384,177151,6,1,B|418:300|363:337|406:239,1,150,2|2,3:2|2:3,0:0:0:0:
254,0,177613,6,1,B|325:128|247:69|303:217,1,225.000008583069,10|0,3:2|0:0,0:0:0:0:
54,246,178074,6,1,B|142:200|100:252|202:217,1,150,2|2,3:2|2:3,0:0:0:0:
512,379,178536,6,3,B|276:282|394:404|128:340,1,393.750015020371,10|0,3:2|0:0,0:1:0:0:
37,231,178997,6,1,P|16:138|29:74,1,150.000005722046,2|2,1:2|3:2,0:0:0:0:
92,47,179343,1,2,2:3:0:0:
201,124,179459,2,1,L|96:141,1,75.0000028610231,10|0,1:2|0:0,0:0:0:0:
281,6,179690,2,1,P|329:40|302:151,1,150,2|0,3:2|0:0,0:0:0:0:
393,175,179920,1,2,1:2:0:0:
284,370,180151,1,2,3:2:0:0:
284,370,180267,1,2,2:3:0:0:
284,370,180382,2,1,P|301:298|294:209,1,150,10|0,1:2|0:0,0:0:0:0:
316,149,180843,6,1,L|229:140,1,75.0000028610231,2|0,1:2|0:0,0:0:0:0:
65,125,181074,2,1,L|139:117,1,75.0000028610231,2|2,3:2|2:3,0:0:0:0:
423,83,181305,6,1,L|348:75,1,75.0000028610231,10|0,1:2|0:0,0:0:0:0:
0,224,181536,2,1,L|166:205,1,150,2|0,3:2|0:0,0:0:0:0:
42,299,181767,1,2,1:2:0:0:
245,105,181997,1,0,3:3:0:0:
245,105,182113,1,2,2:3:0:0:
245,105,182228,6,1,B|217:155|217:155|230:208,1,112.500004291535,10|0,1:2|0:0,0:0:0:0:
314,321,182459,6,3,B|339:276|339:276|326:228,1,100,2|0,3:2|0:0,0:1:0:0:
40,27,182690,6,1,P|23:78|103:138,1,150,2|0,1:2|0:0,0:0:0:0:
150,95,182920,1,2,3:2:0:0:
0,280,183152,2,1,P|42:281|112:328,1,112.500004291535,10|0,1:2|0:0,0:0:0:0:
158,372,183382,2,1,L|232:362,1,75.0000028610231,2|0,3:2|0:0,0:0:0:0:
327,301,183613,6,1,P|359:232|340:162,1,150.000005722046,2|0,1:2|3:3,0:0:0:0:
278,224,183959,1,2,2:3:0:0:
506,297,184074,2,1,L|431:304,1,75.0000028610231,10|0,1:2|0:0,0:0:0:0:
90,191,184305,5,2,3:2:0:0:
134,121,184420,1,0,0:0:0:0:
171,192,184536,2,1,P|173:234|140:281,1,87.500000834465,2|0,1:2|0:0,0:0:0:0:
21,133,184767,2,1,P|18:90|51:43,1,87.500000834465,2|2,3:2|2:3,0:0:0:0:
255,35,184997,6,1,P|273:84|268:133,1,87.500000834465,10|0,1:2|0:0,0:0:0:0:
74,271,185228,2,1,P|40:257|-18:248,1,87.500000834465,2|0,3:2|0:0,0:0:0:0:
304,338,185459,6,1,P|383:341|448:272,1,175.00000166893,2|0,1:2|3:3,0:0:0:0:
480,204,185805,1,2,2:3:0:0:
375,89,185920,6,1,B|315:55|315:55|252:71,1,131.250001251698,10|0,1:2|0:0,0:0:0:0:
95,307,186151,6,3,B|153:315|153:315|199:281,1,112.500004291535,2|0,3:2|0:0,0:1:0:0:
194,145,186382,6,1,P|173:81|180:-6,1,150.000005722046,2|0,1:2|3:3,0:0:0:0:
422,97,186843,2,1,L|413:180,1,75.0000028610231,10|0,1:2|0:0,0:0:0:0:
472,302,187074,1,2,3:2:0:0:
472,302,187190,1,0,0:0:0:0:
472,302,187305,2,1,P|409:333|309:322,1,150.000005722046,2|0,1:2|3:3,0:0:0:0:
258,361,187651,1,2,2:3:0:0:
410,190,187767,2,1,P|358:166|311:167,1,75.0000028610231,10|0,1:2|0:0,0:0:0:0:
96,136,187998,2,1,P|72:176|97:264,1,134.999995880127,2|0,3:2|0:0,0:0:0:0:
163,283,188228,6,1,P|172:240|174:183,1,75.0000028610231,2|0,1:2|0:0,0:0:0:0:
8,91,188459,2,1,P|10:134|28:190,1,75.0000028610231,2|2,3:2|2:3,0:0:0:0:
259,235,188690,6,1,P|274:176|270:153,1,75.0000028610231,10|0,1:2|0:0,0:0:0:0:
10,324,188920,2,1,P|59:339|95:337,1,75.0000028610231,2|0,3:2|0:0,0:0:0:0:
363,339,189151,6,1,P|345:274|366:181,1,150.000005722046,2|0,1:2|3:3,0:0:0:0:
416,125,189497,1,2,2:3:0:0:
259,235,189613,6,1,B|211:278|211:278|145:266,1,131.250001251698,10|0,1:2|0:0,0:0:0:0:
5,59,189843,6,3,B|45:21|45:21|102:32,1,112.500004291535,2|0,3:2|0:0,0:1:0:0:
293,149,190074,6,1,P|340:139|345:46,1,150.000005722046,2|0,1:2|0:0,0:0:0:0:
285,16,190305,1,2,3:2:0:0:
502,160,190536,6,1,P|480:247|476:266,1,75.0000028610231,10|0,1:2|0:0,0:0:0:0:
334,343,190767,2,1,L|323:255,1,75.0000028610231,2|0,3:2|0:0,0:0:0:0:
487,73,190997,6,1,P|428:43|360:57,1,112.500004291535,2|0,1:2|0:0,0:0:0:0:
285,142,191228,2,1,P|346:137|369:109,1,75.0000028610231,2|2,3:2|2:3,0:0:0:0:
212,21,191459,6,1,L|121:6,1,75.0000028610231,10|0,1:2|0:0,0:0:0:0:
22,175,191690,1,2,3:2:0:0:
22,175,191805,1,0,0:0:0:0:
22,175,191920,6,1,P|22:222|45:271,1,75.0000028610231,2|0,1:2|0:0,0:0:0:0:
222,117,192151,2,1,P|222:70|199:21,1,75.0000028610231,2|2,3:2|2:3,0:0:0:0:
33,326,192382,6,1,P|81:311|163:307,1,112.500004291535,10|0,1:2|0:0,0:0:0:0:
213,339,192613,1,2,3:2:0:0:
84,32,192843,2,1,L|103:206,1,150.000005722046,2|0,1:2|3:3,0:0:0:0:
181,238,193190,1,2,2:3:0:0:
181,238,193305,1,2,3:2:0:0:
165,60,193536,2,1,L|176:156,1,87.500000834465,2|0,2:2|0:0,0:0:0:0:
296,297,193767,6,1,P|364:293|425:264,1,125,2|0,1:2|3:3,0:0:0:0:
212,6,194113,1,2,2:3:0:0:
212,6,194228,2,1,P|144:10|83:39,1,125,10|0,1:2|3:3,0:0:0:0:
244,384,194690,6,1,P|176:380|115:351,1,125,2|0,1:2|3:3,0:0:0:0:
328,93,195036,1,2,2:3:0:0:
328,93,195151,2,1,P|396:97|457:126,1,125,10|0,1:2|3:3,0:0:0:0:
447,119,195497,1,0,0:0:0:0:
496,200,195613,6,1,P|492:238|481:266,1,62.5,2|0,1:2|0:0,0:0:0:0:
332,384,195843,1,2,3:2:0:0:
214,341,195958,1,2,2:3:0:0:
332,384,196074,2,1,P|328:345|317:318,1,62.5,10|0,1:2|0:0,0:0:0:0:
383,122,196305,2,1,P|379:160|368:188,1,62.5,2|0,3:2|0:0,0:0:0:0:
129,262,196536,2,1,P|140:226|144:196,1,62.5,2|0,1:2|0:0,0:0:0:0:
143,201,196767,1,0,3:3:0:0:
0,231,196882,1,2,2:3:0:0:
74,291,196997,6,1,B|124:319|124:319|177:306,1,112.500004291535,10|0,1:2|0:0,0:0:0:0:
370,182,197228,6,3,B|325:157|325:157|277:170,1,100,2|0,3:2|0:0,0:1:0:0:
0,231,197459,6,1,P|30:301|21:374,1,150.000005722046,2|0,1:2|3:3,0:0:0:0:
402,243,197805,1,2,2:3:0:0:
402,243,197920,2,1,P|370:167|375:99,1,150.000005722046,10|0,1:2|3:3,0:0:0:0:
39,2,198382,6,1,P|12:71|14:146,1,150.000005722046,2|0,1:2|3:3,0:0:0:0:
271,384,198728,1,2,2:3:0:0:
271,384,198843,2,1,P|305:317|310:243,1,150.000005722046,10|0,1:2|3:3,0:0:0:0:
443,288,199190,1,0,0:0:0:0:
496,184,199306,6,1,P|492:146|481:118,1,62.5,2|0,1:2|0:0,0:0:0:0:
332,0,199536,1,2,3:2:0:0:
214,43,199651,1,2,2:3:0:0:
332,0,199767,2,1,P|328:39|317:66,1,62.5,10|0,1:2|0:0,0:0:0:0:
383,262,199998,2,1,P|379:224|368:196,1,62.5,2|0,3:2|0:0,0:0:0:0:
129,122,200229,2,1,P|140:158|144:188,1,62.5,2|0,1:2|0:0,0:0:0:0:
54,295,200460,1,0,3:3:0:0:
54,295,200575,1,2,2:3:0:0:
0,184,200690,6,3,B|252:217|89:264|352:342,1,393.750015020371,10|0,1:2|0:0,0:1:0:0:
512,168,201151,6,1,P|501:242|465:306,1,150.000005722046,2|0,1:2|3:3,0:0:0:0:
160,384,201497,1,2,2:3:0:0:
160,384,201612,2,1,P|118:322|103:250,1,150.000005722046,10|0,1:2|3:3,0:0:0:0:
512,0,202074,6,1,B|408:32|448:-11|364:22,1,150.000005722046,2|0,1:2|3:3,0:0:0:0:
150,227,202420,1,2,2:3:0:0:
150,227,202535,2,1,P|156:301|189:367,1,150.000005722046,10|0,1:2|3:3,0:0:0:0:
55,300,202882,1,0,0:0:0:0:
16,184,202997,6,1,P|18:152|28:123,1,62.5,2|0,1:2|0:0,0:0:0:0:
180,0,203227,1,2,3:2:0:0:
298,43,203342,1,2,2:3:0:0:
180,0,203458,2,1,P|184:39|195:66,1,62.5,10|0,1:2|0:0,0:0:0:0:
129,262,203689,2,1,P|133:224|144:196,1,62.5,2|0,3:2|0:0,0:0:0:0:
383,122,203920,2,1,P|372:158|368:188,1,62.5,2|0,1:2|0:0,0:0:0:0:
417,260,204151,1,0,3:3:0:0:
417,260,204266,1,2,2:3:0:0:
438,93,204382,6,1,B|388:65|388:65|335:78,1,112.500004291535,10|0,1:2|0:0,0:0:0:0:
142,202,204613,6,3,B|187:227|187:227|235:214,1,100,2|0,3:2|0:0,0:1:0:0:
228,0,204843,5,2,1:2:0:0:
228,0,205074,2,1,P|239:66|271:155,1,150,2|0,3:2|0:0,0:0:0:0:
266,144,205305,2,1,P|255:210|223:299,1,150,10|0,1:2|0:0,0:0:0:0:
227,288,205536,2,1,P|293:299|382:331,1,150,2|0,3:2|0:0,0:0:0:0:
371,326,205767,2,1,P|405:268|413:214,1,100,2|0,1:2|0:0,0:0:0:0:
350,179,205997,1,0,3:3:0:0:
350,179,206113,1,2,2:3:0:0:
476,40,206228,2,1,B|481:166|493:93|512:245,1,200,10|2,1:2|3:2,0:0:0:0:
147,384,206690,6,1,B|94:300|149:337|106:239,1,150,2|0,2:2|0:0,0:0:0:0:
258,0,207152,6,1,B|187:128|265:69|209:217,1,225.000008583069,2|0,2:2|0:0,0:0:0:0:
458,246,207613,6,1,B|370:200|412:252|310:217,1,150,2|0,2:2|0:0,0:0:0:0:
0,379,208075,6,3,B|236:282|118:404|384:340,1,394.000000901794,2|0,2:2|0:0,0:1:0:0:
