osu file format v14

[General]
AudioFilename: audio.ogg
AudioLeadIn: 0
PreviewTime: 75151
Countdown: 0
SampleSet: Soft
StackLeniency: 0.6
Mode: 0
LetterboxInBreaks: 0
WidescreenStoryboard: 1

[Editor]
Bookmarks: 31305,46074,60843,75613,90382,105151,119920,134690,149459,164228,178997,193767
DistanceSpacing: 1.4
BeatDivisor: 4
GridSize: 8
TimelineZoom: 1.8

[Metadata]
Title:Where Them Girls At feat. Nicki Minaj, Flo Rida
TitleUnicode:Where Them Girls At feat. Nicki Minaj, Flo Rida
Artist:David Guetta
ArtistUnicode:David Guetta
Creator:AJT
Version:Hard
Source:
Tags:english pop hip hop dance electronic edm dem florida avena priti rho smh fsjallink wanpachi gorou visionary
BeatmapID:2631918
BeatmapSetID:1266351

[Difficulty]
HPDrainRate:4
CircleSize:3.6
OverallDifficulty:6.5
ApproachRate:7.6
SliderMultiplier:1.6
SliderTickRate:1

[Events]
//Background and Video events
0,0,"bg.jpg",0,0
Video,225,"video.avi"
//Break Periods
2,61043,74803
2,110890,111726
2,120120,133880
//Storyboard Layer 0 (Background)
//Storyboard Layer 1 (Fail)
//Storyboard Layer 2 (Pass)
//Storyboard Layer 3 (Foreground)
//Storyboard Layer 4 (Overlay)
//Storyboard Sound Samples

[TimingPoints]
1767,461.538461538462,4,2,1,55,1,0
16536,-100,4,2,1,65,0,0
30843,-100,4,2,16,65,0,0
31305,-100,4,2,17,80,0,0
31535,-100,4,2,2,80,0,0
31651,-100,4,2,7,80,0,0
31767,-100,4,2,17,80,0,0
31997,-100,4,2,2,80,0,0
32228,-100,4,2,18,80,0,0
32458,-100,4,2,2,80,0,0
32574,-100,4,2,7,80,0,0
32804,-100,4,2,2,80,0,0
33613,-100,4,2,20,80,0,0
33843,-100,4,2,2,80,0,0
34074,-100,4,2,21,80,0,0
34304,-100,4,2,2,80,0,0
34536,-100,4,2,21,80,0,0
34766,-100,4,2,11,80,0,0
34997,-100,4,2,22,80,0,0
35113,-100,4,2,2,80,0,0
35343,-100,4,2,7,80,0,0
35459,-100,4,2,17,80,0,0
35689,-100,4,2,2,80,0,0
36382,-100,4,2,18,80,0,0
36612,-100,4,2,2,80,0,0
37305,-100,4,2,20,80,0,0
37535,-100,4,2,2,80,0,0
37767,-100,4,2,21,80,0,0
37997,-100,4,2,2,80,0,0
38228,-100,4,2,21,80,0,0
38689,-100,4,2,22,80,0,0
38805,-100,4,2,2,80,0,0
39035,-100,4,2,7,80,0,0
39152,-100,4,2,17,80,0,0
39267,-100,4,2,2,80,0,0
39959,-100,4,2,7,80,0,0
40074,-100,4,2,18,80,0,0
40189,-100,4,2,2,80,0,0
40997,-100,4,2,20,80,0,0
41113,-100,4,2,2,80,0,0
41459,-100,4,2,21,80,0,0
41689,-100,4,2,2,80,0,0
41921,-100,4,2,21,80,0,0
42151,-100,4,2,11,80,0,0
42382,-100,4,2,22,80,0,0
42612,-100,4,2,2,80,0,0
42843,-100,4,2,17,80,0,0
43073,-100,4,2,2,80,0,0
43767,-100,4,2,18,80,0,0
43883,-100,4,2,2,80,0,0
44690,-100,4,2,20,80,0,0
44920,-100,4,2,2,80,0,0
45151,-100,4,2,21,80,0,0
45381,-100,4,2,2,80,0,0
45612,-100,4,2,10,80,0,0
46074,-100,4,2,22,80,0,0
46305,-100,4,2,2,80,0,0
46419,-100,4,2,7,80,0,0
46536,-100,4,2,17,80,0,0
46651,-100,4,2,2,80,0,0
46997,-100,4,2,18,80,0,0
47227,-100,4,2,2,80,0,0
47459,-100,4,2,18,80,0,0
47689,-100,4,2,2,80,0,0
47920,-100,4,2,23,80,0,0
48151,-100,4,2,2,80,0,0
48381,-100,4,2,20,80,0,0
48613,-100,4,2,2,80,0,0
48844,-100,4,2,21,80,0,0
49074,-100,4,2,2,80,0,0
49305,-100,4,2,21,80,0,0
49536,-100,4,2,11,80,0,0
49767,-100,4,2,22,80,0,0
49997,-100,4,2,2,80,0,0
50113,-100,4,2,7,80,0,0
50228,-100,4,2,17,80,0,0
50343,-100,4,2,2,80,0,0
50690,-100,4,2,18,80,0,0
50920,-100,4,2,2,80,0,0
51151,-100,4,2,18,80,0,0
51208,-100,4,2,1,80,0,0
51381,-100,4,2,2,80,0,0
51439,-100,4,2,1,80,0,0
51497,-100,4,2,2,80,0,0
51554,-100,4,2,1,80,0,0
53459,-100,4,2,17,80,0,0
53689,-100,4,2,2,80,0,0
53920,-100,4,2,17,80,0,0
54150,-100,4,2,2,80,0,0
54382,-100,4,2,18,80,0,0
54612,-100,4,2,2,80,0,0
54843,-100,4,2,18,80,0,0
55073,-100,4,2,2,80,0,0
55651,-100,4,2,7,80,0,0
55767,-100,4,2,20,80,0,0
55997,-100,4,2,2,80,0,0
56228,-100,4,2,21,80,0,0
56343,-100,4,2,2,80,0,0
56690,-100,4,2,21,80,0,0
57036,-100,4,2,2,80,0,0
57151,-100,4,2,17,80,0,0
57266,-100,4,2,2,80,0,0
57613,-100,4,2,17,80,0,0
57843,-100,4,2,2,80,0,0
58074,-100,4,2,18,80,0,0
58304,-100,4,2,2,80,0,0
58535,-100,4,2,18,80,0,0
58766,-100,4,2,2,80,0,0
58997,-100,4,2,5,80,0,0
59112,-100,4,2,2,80,0,0
59459,-100,4,2,24,80,0,0
59574,-100,4,2,2,80,0,0
59920,-100,4,2,6,80,0,0
60035,-100,4,2,2,80,0,0
60382,-100,4,2,10,80,0,0
60843,-100,4,2,1,55,0,0
75613,-100,4,2,3,65,0,0
76536,-100,4,2,4,65,0,0
77459,-100,4,2,5,65,0,0
77690,-100,4,2,2,65,0,0
77920,-100,4,2,5,65,0,0
78150,-100,4,2,2,65,0,0
78381,-100,4,2,6,65,0,0
79073,-100,4,2,11,65,0,0
79305,-100,4,2,3,65,0,0
80228,-100,4,2,4,65,0,0
81151,-100,4,2,5,65,0,0
81381,-100,4,2,2,65,0,0
81613,-100,4,2,5,65,0,0
81843,-100,4,2,2,65,0,0
82074,-100,4,2,6,65,0,0
82882,-100,4,2,1,65,0,0
83459,-100,4,2,12,65,0,0
83920,-100,4,2,2,65,0,0
84382,-100,4,2,13,65,0,0
84843,-100,4,2,3,65,0,0
85073,-100,4,2,2,65,0,0
85305,-100,4,2,14,65,0,0
85535,-100,4,2,2,65,0,0
85766,-100,4,2,4,65,0,0
86228,-100,4,2,15,65,0,0
86458,-100,4,2,8,65,0,0
86690,-100,4,2,5,65,0,0
86920,-100,4,2,2,65,0,0
87150,-100,4,2,12,65,0,0
87381,-100,4,2,2,65,0,0
87959,-100,4,2,1,65,0,0
88074,-100,4,2,13,65,0,0
88305,-100,4,2,2,65,0,0
88536,-100,4,2,3,65,0,0
88882,-100,4,2,1,65,0,0
88997,-100,4,2,14,65,0,0
89113,-100,4,2,1,65,0,0
89228,-100,4,2,2,65,0,0
89343,-100,4,2,1,65,0,0
89459,-100,4,2,6,65,0,0
89574,-100,4,2,1,65,0,0
89689,-100,4,2,2,65,0,0
89805,-100,4,2,1,65,0,0
89920,-100,4,2,16,65,0,0
90035,-100,4,2,1,65,0,0
90150,-100,4,2,16,65,0,0
90266,-100,4,2,1,65,0,0
90382,-100,4,2,25,85,0,0
91305,-100,4,2,26,85,0,0
91766,-100,4,2,2,85,0,0
92228,-100,4,2,20,85,0,0
92458,-100,4,2,2,85,0,0
92574,-100,4,2,8,85,0,0
92690,-100,4,2,20,85,0,0
92920,-100,4,2,2,85,0,0
93151,-100,4,2,21,85,0,0
93382,-100,4,2,2,85,0,0
93613,-100,4,2,21,85,0,0
93843,-100,4,2,11,85,0,0
94074,-100,4,2,17,85,0,0
94189,-100,4,2,2,85,0,0
94536,-100,4,2,17,85,0,0
94766,-100,4,2,2,85,0,0
95459,-100,4,2,18,85,0,0
95689,-100,4,2,2,85,0,0
95920,-100,4,2,20,85,0,0
96035,-100,4,2,2,85,0,0
96266,-100,4,2,7,85,0,0
96382,-100,4,2,20,85,0,0
96612,-100,4,2,2,85,0,0
96844,-100,4,2,21,85,0,0
96959,-100,4,2,2,85,0,0
97190,-100,4,2,7,85,0,0
97305,-100,4,2,21,85,0,0
97535,-100,4,2,11,85,0,0
97767,-100,4,2,17,85,0,0
97997,-100,4,2,8,85,0,0
98228,-100,4,2,17,85,0,0
98574,-100,4,2,2,85,0,0
98690,-100,4,2,18,85,0,0
98843,-100,4,2,2,85,0,0
99151,-100,4,2,18,85,0,0
99382,-100,4,2,2,85,0,0
99613,-100,4,2,27,85,0,0
99728,-100,4,2,2,85,0,0
100536,-100,4,2,28,85,0,0
100651,-100,4,2,2,85,0,0
101459,-100,4,2,17,85,0,0
101574,-100,4,2,2,85,0,0
101805,-100,4,2,7,85,0,0
101920,-100,4,2,17,85,0,0
102035,-100,4,2,2,85,0,0
102382,-100,4,2,18,85,0,0
102613,-100,4,2,2,85,0,0
102844,-100,4,2,18,85,0,0
103074,-100,4,2,2,85,0,0
103305,-100,4,2,20,85,0,0
103420,-100,4,2,2,85,0,0
103651,-100,4,2,7,85,0,0
103767,-100,4,2,20,85,0,0
103997,-100,4,2,2,85,0,0
104228,-100,4,2,21,85,0,0
104458,-100,4,2,2,85,0,0
104690,-100,4,2,29,85,0,0
105036,-100,4,2,1,85,0,0
105151,-100,4,2,17,80,0,0
105498,-100,4,2,8,80,0,0
105613,-100,4,2,17,80,0,0
105843,-100,4,2,2,80,0,0
106536,-100,4,2,18,80,0,0
106882,-100,4,2,1,80,0,0
106997,-100,4,2,20,80,0,0
107228,-100,4,2,2,80,0,0
107344,-100,4,2,7,80,0,0
107459,-100,4,2,20,80,0,0
107689,-100,4,2,2,80,0,0
108382,-100,4,2,21,80,0,0
108497,-100,4,2,2,80,0,0
108612,-100,4,2,11,80,0,0
108728,-100,4,2,2,80,0,0
108843,-100,4,2,17,85,0,0
108958,-100,4,2,2,85,0,0
109189,-100,4,2,7,85,0,0
109305,-100,4,2,17,85,0,0
109535,-100,4,2,2,85,0,0
109766,-100,4,2,18,85,0,0
109997,-100,4,2,2,85,0,0
110113,-100,4,2,7,85,0,0
110228,-100,4,2,18,85,0,0
110343,-100,4,2,2,85,0,0
112536,-100,4,2,17,85,0,0
112690,-100,4,2,1,85,0,0
112997,-100,4,2,17,85,0,0
113227,-100,4,2,2,85,0,0
113459,-100,4,2,18,85,0,0
113689,-100,4,2,2,85,0,0
113804,-100,4,2,7,85,0,0
113920,-100,4,2,18,85,0,0
114150,-100,4,2,2,85,0,0
114382,-100,4,2,20,85,0,0
114536,-100,4,2,1,85,0,0
114844,-100,4,2,20,85,0,0
114959,-100,4,2,2,85,0,0
115305,-100,4,2,21,85,0,0
115420,-100,4,2,2,85,0,0
115766,-100,4,2,21,85,0,0
115997,-100,4,2,11,85,0,0
116228,-100,4,2,17,85,0,0
116382,-100,4,2,1,85,0,0
116690,-100,4,2,17,85,0,0
116805,-100,4,2,2,85,0,0
117152,-100,4,2,18,85,0,0
117382,-100,4,2,2,85,0,0
117497,-100,4,2,7,85,0,0
117613,-100,4,2,18,85,0,0
117843,-100,4,2,2,85,0,0
118074,-100,4,2,20,85,0,0
118228,-100,4,2,1,85,0,0
118536,-100,4,2,20,85,0,0
118690,-100,4,2,1,85,0,0
118997,-100,4,2,21,85,0,0
119151,-100,4,2,1,85,0,0
119459,-100,4,2,29,85,0,0
119613,-100,4,2,1,85,0,0
119920,-100,4,2,1,55,0,0
134690,-100,4,2,3,65,0,0
135613,-100,4,2,4,65,0,0
136536,-100,4,2,5,65,0,0
136767,-100,4,2,2,65,0,0
136997,-100,4,2,5,65,0,0
137227,-100,4,2,2,65,0,0
137458,-100,4,2,6,65,0,0
138150,-100,4,2,11,65,0,0
138382,-100,4,2,3,65,0,0
139305,-100,4,2,4,65,0,0
140228,-100,4,2,5,65,0,0
140458,-100,4,2,2,65,0,0
140690,-100,4,2,5,65,0,0
140920,-100,4,2,2,65,0,0
141151,-100,4,2,6,65,0,0
141959,-100,4,2,1,65,0,0
142536,-100,4,2,12,65,0,0
142997,-100,4,2,2,65,0,0
143459,-100,4,2,13,65,0,0
143920,-100,4,2,3,65,0,0
144150,-100,4,2,2,65,0,0
144382,-100,4,2,14,65,0,0
144612,-100,4,2,2,65,0,0
144843,-100,4,2,4,65,0,0
145305,-100,4,2,15,65,0,0
145535,-100,4,2,8,65,0,0
145767,-100,4,2,5,65,0,0
145997,-100,4,2,2,65,0,0
146227,-100,4,2,12,65,0,0
146458,-100,4,2,2,65,0,0
147036,-100,4,2,1,65,0,0
147151,-100,4,2,13,65,0,0
147382,-100,4,2,2,65,0,0
147613,-100,4,2,3,65,0,0
147959,-100,4,2,1,65,0,0
148074,-100,4,2,14,65,0,0
148190,-100,4,2,1,65,0,0
148305,-100,4,2,2,65,0,0
148420,-100,4,2,1,65,0,0
148536,-100,4,2,6,65,0,0
148651,-100,4,2,1,65,0,0
148766,-100,4,2,6,65,0,0
148882,-100,4,2,1,65,0,0
148997,-100,4,2,16,65,0,0
149112,-100,4,2,1,65,0,0
149228,-100,4,2,2,65,0,0
149459,-100,4,2,17,80,0,0
149805,-100,4,2,8,80,0,0
149920,-100,4,2,17,80,0,0
150266,-100,4,2,2,80,0,0
150382,-100,4,2,19,80,0,0
150497,-100,4,2,2,80,0,0
150843,-100,4,2,18,80,0,0
151189,-100,4,2,1,80,0,0
151305,-100,4,2,20,80,0,0
151535,-100,4,2,2,80,0,0
151652,-100,4,2,7,80,0,0
151767,-100,4,2,20,80,0,0
151997,-100,4,2,2,80,0,0
152689,-100,4,2,21,80,0,0
152920,-100,4,2,8,80,0,0
153151,-100,4,2,17,80,0,0
153497,-100,4,2,8,80,0,0
153612,-100,4,2,17,80,0,0
153842,-100,4,2,2,80,0,0
154536,-100,4,2,18,80,0,0
154882,-100,4,2,1,80,0,0
154997,-100,4,2,20,80,0,0
155227,-100,4,2,2,80,0,0
155344,-100,4,2,7,80,0,0
155460,-100,4,2,20,80,0,0
155690,-100,4,2,2,80,0,0
156843,-100,4,2,17,80,0,0
157189,-100,4,2,8,80,0,0
157304,-100,4,2,17,80,0,0
157534,-100,4,2,2,80,0,0
157766,-100,4,2,19,80,0,0
157881,-100,4,2,2,80,0,0
158227,-100,4,2,18,80,0,0
158573,-100,4,2,1,80,0,0
158690,-100,4,2,20,80,0,0
158919,-100,4,2,2,80,0,0
159036,-100,4,2,7,80,0,0
159151,-100,4,2,20,80,0,0
159381,-100,4,2,2,80,0,0
160073,-100,4,2,21,80,0,0
160304,-100,4,2,8,80,0,0
160535,-100,4,2,17,80,0,0
160881,-100,4,2,8,80,0,0
160996,-100,4,2,17,80,0,0
161226,-100,4,2,2,80,0,0
161920,-100,4,2,18,80,0,0
162266,-100,4,2,1,80,0,0
162381,-100,4,2,20,80,0,0
162613,-100,4,2,2,80,0,0
162728,-100,4,2,7,80,0,0
162843,-100,4,2,20,80,0,0
163073,-100,4,2,2,80,0,0
163765,-100,4,2,10,80,0,0
163996,-100,4,2,2,80,0,0
164228,-100,4,2,17,80,0,0
164458,-100,4,2,8,80,0,0
164690,-100,4,2,17,80,0,0
164920,-100,4,2,1,80,0,0
165151,-100,4,2,18,80,0,0
165844,-100,4,2,2,80,0,0
166074,-100,4,2,20,80,0,0
166304,-100,4,2,8,80,0,0
166536,-100,4,2,23,80,0,0
166766,-100,4,2,1,80,0,0
166997,-100,4,2,30,80,0,0
167227,-100,4,2,2,80,0,0
167459,-100,4,2,21,80,0,0
167690,-100,4,2,11,80,0,0
167920,-100,4,2,17,80,0,0
168150,-100,4,2,8,80,0,0
168382,-100,4,2,17,80,0,0
168612,-100,4,2,1,80,0,0
168843,-100,4,2,18,80,0,0
169073,-100,4,2,8,80,0,0
169305,-100,4,2,18,80,0,0
169535,-100,4,2,2,80,0,0
169767,-100,4,2,20,80,0,0
170228,-100,4,2,23,80,0,0
170690,-100,4,2,30,80,0,0
170920,-100,4,2,2,80,0,0
171035,-100,4,2,8,80,0,0
171150,-100,4,2,2,80,0,0
171613,-100,4,2,17,80,0,0
171843,-100,4,2,8,80,0,0
172074,-100,4,2,17,80,0,0
172304,-100,4,2,1,80,0,0
172536,-100,4,2,18,80,0,0
172766,-100,4,2,8,80,0,0
172997,-100,4,2,18,80,0,0
173227,-100,4,2,2,80,0,0
173459,-100,4,2,20,80,0,0
173920,-100,4,2,23,80,0,0
174382,-100,4,2,30,80,0,0
174613,-100,4,2,2,80,0,0
174843,-100,4,2,21,80,0,0
175074,-100,4,2,11,80,0,0
175305,-100,4,2,17,80,0,0
175997,-100,4,2,2,80,0,0
176228,-100,4,2,19,80,0,0
176458,-100,4,2,2,80,0,0
176689,-100,4,2,18,80,0,0
176920,-100,4,2,2,80,0,0
177151,-100,4,2,5,80,0,0
177613,-100,4,2,31,80,0,0
178074,-100,4,2,6,80,0,0
178536,-100,4,2,32,80,0,0
178997,-100,4,2,22,80,0,1
179228,-100,4,2,2,80,0,1
179343,-100,4,2,8,80,0,1
179458,-100,4,2,17,80,0,1
179690,-100,4,2,2,80,0,1
179920,-100,4,2,18,80,0,1
180151,-100,4,2,2,80,0,1
180267,-100,4,2,8,80,0,1
180382,-90.9090909090909,4,2,18,80,0,1
180612,-90.9090909090909,4,2,1,80,0,1
180843,-90.9090909090909,4,2,20,80,0,1
181073,-90.9090909090909,4,2,2,80,0,1
181190,-90.9090909090909,4,2,8,80,0,1
181306,-90.9090909090909,4,2,20,80,0,1
181537,-90.9090909090909,4,2,2,80,0,1
181767,-90.9090909090909,4,2,21,80,0,1
182113,-90.9090909090909,4,2,8,80,0,1
182228,-90.9090909090909,4,2,30,80,0,1
182459,-90.9090909090909,4,2,8,80,0,1
182690,-90.9090909090909,4,2,22,80,0,1
182920,-90.9090909090909,4,2,2,80,0,1
183035,-90.9090909090909,4,2,8,80,0,1
183150,-90.9090909090909,4,2,17,80,0,1
183383,-90.9090909090909,4,2,2,80,0,1
183613,-90.9090909090909,4,2,18,80,0,1
183843,-90.9090909090909,4,2,8,80,0,1
184074,-90.9090909090909,4,2,19,80,0,1
184305,-90.9090909090909,4,2,2,80,0,1
184536,-90.9090909090909,4,2,20,80,0,1
184766,-90.9090909090909,4,2,2,80,0,1
184882,-90.9090909090909,4,2,8,80,0,1
184997,-90.9090909090909,4,2,20,80,0,1
185228,-90.9090909090909,4,2,2,80,0,1
185689,-90.9090909090909,4,2,8,80,0,1
185920,-90.9090909090909,4,2,30,80,0,1
186381,-90.9090909090909,4,2,22,80,0,1
186843,-90.9090909090909,4,2,17,80,0,1
187074,-90.9090909090909,4,2,2,80,0,1
187305,-90.9090909090909,4,2,18,80,0,1
187766,-90.9090909090909,4,2,19,80,0,1
187997,-90.9090909090909,4,2,2,80,0,1
188228,-90.9090909090909,4,2,20,80,0,1
188458,-90.9090909090909,4,2,2,80,0,1
188574,-90.9090909090909,4,2,8,80,0,1
188690,-90.9090909090909,4,2,20,80,0,1
188920,-90.9090909090909,4,2,2,80,0,1
189381,-90.9090909090909,4,2,8,80,0,1
189613,-90.9090909090909,4,2,30,80,0,1
190074,-90.9090909090909,4,2,22,80,0,1
190305,-90.9090909090909,4,2,2,80,0,1
190420,-90.9090909090909,4,2,8,80,0,1
190536,-90.9090909090909,4,2,17,80,0,1
190766,-90.9090909090909,4,2,2,80,0,1
190997,-90.9090909090909,4,2,18,80,0,1
191228,-90.9090909090909,4,2,2,80,0,1
191344,-90.9090909090909,4,2,8,80,0,1
191459,-90.9090909090909,4,2,19,80,0,1
191690,-90.9090909090909,4,2,2,80,0,1
191920,-90.9090909090909,4,2,20,80,0,1
192151,-90.9090909090909,4,2,2,80,0,1
192267,-90.9090909090909,4,2,8,80,0,1
192382,-90.9090909090909,4,2,20,80,0,1
192612,-90.9090909090909,4,2,2,80,0,1
192843,-90.9090909090909,4,2,30,80,0,1
193073,-90.9090909090909,4,2,8,80,0,1
193305,-90.9090909090909,4,2,2,80,0,1
193767,-90.9090909090909,4,2,17,80,0,1
193997,-90.9090909090909,4,2,8,80,0,1
194228,-90.9090909090909,4,2,17,80,0,1
194458,-90.9090909090909,4,2,1,80,0,1
194690,-90.9090909090909,4,2,18,80,0,1
194920,-90.9090909090909,4,2,8,80,0,1
195151,-90.9090909090909,4,2,18,80,0,1
195381,-90.9090909090909,4,2,1,80,0,1
195613,-90.9090909090909,4,2,20,80,0,1
195844,-90.9090909090909,4,2,2,80,0,1
195959,-90.9090909090909,4,2,8,80,0,1
196074,-90.9090909090909,4,2,20,80,0,1
196305,-90.9090909090909,4,2,2,80,0,1
196536,-90.9090909090909,4,2,21,80,0,1
196766,-90.9090909090909,4,2,8,80,0,1
196997,-90.9090909090909,4,2,21,80,0,1
197227,-90.9090909090909,4,2,11,80,0,1
197459,-90.9090909090909,4,2,17,80,0,1
197689,-90.9090909090909,4,2,8,80,0,1
197920,-90.9090909090909,4,2,17,80,0,1
198150,-90.9090909090909,4,2,1,80,0,1
198382,-90.9090909090909,4,2,18,80,0,1
198612,-90.9090909090909,4,2,8,80,0,1
198843,-90.9090909090909,4,2,18,80,0,1
199073,-90.9090909090909,4,2,1,80,0,1
199305,-90.9090909090909,4,2,20,80,0,1
199536,-90.9090909090909,4,2,2,80,0,1
199651,-90.9090909090909,4,2,8,80,0,1
199767,-90.9090909090909,4,2,20,80,0,1
199997,-90.9090909090909,4,2,2,80,0,1
200228,-90.9090909090909,4,2,21,80,0,1
200459,-90.9090909090909,4,2,8,80,0,1
200690,-90.9090909090909,4,2,21,80,0,1
200920,-90.9090909090909,4,2,11,80,0,1
201151,-90.9090909090909,4,2,17,80,0,1
201382,-90.9090909090909,4,2,8,80,0,1
201613,-90.9090909090909,4,2,17,80,0,1
201843,-90.9090909090909,4,2,1,80,0,1
202074,-90.9090909090909,4,2,18,80,0,1
202305,-90.9090909090909,4,2,8,80,0,1
202536,-90.9090909090909,4,2,18,80,0,1
202766,-90.9090909090909,4,2,1,80,0,1
202997,-90.9090909090909,4,2,20,80,0,1
203228,-90.9090909090909,4,2,2,80,0,1
203459,-90.9090909090909,4,2,20,80,0,1
203690,-90.9090909090909,4,2,2,80,0,1
203920,-90.9090909090909,4,2,21,80,0,1
204150,-90.9090909090909,4,2,8,80,0,1
204382,-90.9090909090909,4,2,30,80,0,1
204613,-90.9090909090909,4,2,8,80,0,1
204844,-90.9090909090909,4,2,22,80,0,1
205074,-90.9090909090909,4,2,2,80,0,1
205304,-90.9090909090909,4,2,17,80,0,1
205535,-90.9090909090909,4,2,2,80,0,1
205767,-90.9090909090909,4,2,18,80,0,1
206113,-90.9090909090909,4,2,8,80,0,1
206228,-90.9090909090909,4,2,18,80,0,1
206459,-90.9090909090909,4,2,2,80,0,1
206690,-111.111111111111,4,2,5,75,0,1
206920,-111.111111111111,4,2,1,75,0,1
207151,-111.111111111111,4,2,5,75,0,1
207382,-111.111111111111,4,2,2,75,0,1
207613,-111.111111111111,4,2,7,70,0,1
208074,-111.111111111111,4,2,33,70,0,1
208536,-111.111111111111,4,2,1,70,0,0

[Colours]
Combo1 : 244,210,159
Combo2 : 152,188,241
Combo3 : 248,158,185
Combo4 : 182,140,232

[HitObjects]
256,192,27613,12,10,30843,3:2:0:0:
106,56,31305,6,1,P|116:94|119:153,1,80,2|2,1:2|3:2,0:0:0:0:
119,134,31651,1,2,2:3:0:0:
119,134,31767,1,10,1:2:0:0:
90,259,31997,1,2,3:2:0:0:
203,305,32228,2,1,B|243:312|243:312|277:289,1,80,2|2,1:2|3:2,0:0:0:0:
301,345,32574,2,1,P|335:362|384:358,1,80,2|2,2:3|2:2,0:0:0:0:
428,334,32920,1,2,3:2:0:0:
428,334,33036,6,1,P|439:315|450:253,1,80,2|2,2:2|2:2,0:0:0:0:
450,258,33382,1,2,3:2:0:0:
343,138,33613,1,10,1:2:0:0:
403,259,33843,1,2,3:2:0:0:
491,216,34074,2,1,P|508:182|511:136,1,80,2|2,1:2|3:2,0:0:0:0:
381,143,34536,1,10,1:2:0:0:
395,7,34766,1,2,3:2:0:0:
326,130,34997,5,2,1:2:0:0:
326,130,35113,2,1,L|335:168,2,40,2|2|2,2:2|3:2|2:3,0:0:0:0:
269,128,35459,2,1,P|226:118|189:100,1,80,10|2,1:2|3:2,0:0:0:0:
155,144,35805,2,1,B|152:184|152:184|127:222,1,80,2|2,2:2|2:2,0:0:0:0:
95,200,36151,1,2,3:2:0:0:
0,296,36382,2,1,P|38:287|97:281,1,80,10|2,1:2|3:2,0:0:0:0:
135,304,36728,2,1,P|136:347|117:380,1,80,2|2,2:2|2:2,0:0:0:0:
85,384,37074,1,2,3:2:0:0:
228,341,37305,6,1,P|240:298|246:249,1,80,10|2,1:2|3:2,0:0:0:0:
190,178,37767,1,2,1:2:0:0:
320,265,37997,1,2,3:2:0:0:
298,384,38228,2,1,P|291:347|261:215,1,160,10|2,1:2|1:2,0:0:0:0:
312,200,38805,6,1,L|355:207,2,40,2|2|2,2:2|3:2|2:3,0:0:0:0:
289,175,39152,1,10,1:2:0:0:
310,149,39267,1,2,2:2:0:0:
180,0,39497,2,1,B|168:39|168:39|183:77,1,80,2|2,2:2|2:2,0:0:0:0:
220,115,39843,1,2,3:2:0:0:
220,115,39959,1,2,2:3:0:0:
220,115,40074,2,1,L|177:122,1,40,10|2,1:2|2:2,0:0:0:0:
51,185,40420,6,1,P|53:220|75:278,1,80,2|2,2:2|2:2,0:0:0:0:
100,267,40767,1,2,3:2:0:0:
0,343,40997,1,10,1:2:0:0:
0,343,41113,1,2,2:2:0:0:
0,343,41228,1,2,3:2:0:0:
133,384,41459,2,1,P|178:374|217:352,1,80,2|2,1:2|3:2,0:0:0:0:
260,209,41921,1,10,1:2:0:0:
143,293,42151,1,2,3:2:0:0:
294,384,42382,6,1,P|311:350|318:309,1,80,2|2,1:2|3:2,0:0:0:0:
428,290,42843,2,1,P|424:252|408:213,1,80,10|2,1:2|3:2,0:0:0:0:
457,184,43190,2,1,P|441:126|406:71,1,120,2|2,2:2|3:2,0:0:0:0:
242,135,43767,1,10,1:2:0:0:
242,135,43883,1,2,2:2:0:0:
242,135,43997,1,2,3:2:0:0:
242,135,44113,2,1,P|226:192|192:247,1,120,2|2,2:2|3:2,0:0:0:0:
0,290,44690,2,1,P|6:287|78:270,1,80,10|2,1:2|3:2,0:0:0:0:
120,276,45036,1,2,2:2:0:0:
150,308,45151,2,1,P|165:342|170:386,2,80,2|2|10,1:2|3:2|3:2,0:0:0:0:
59,66,46074,5,2,1:2:0:0:
154,137,46305,1,2,3:2:0:0:
154,137,46419,1,2,2:3:0:0:
154,137,46536,2,1,P|145:160|134:178,2,40,10|2|2,1:2|2:2|3:2,0:0:0:0:
212,0,46997,2,1,P|220:50|232:78,1,80,2|2,1:2|3:2,0:0:0:0:
336,120,47459,2,1,P|386:112|414:100,2,80,10|2|2,1:2|3:2|1:2,0:0:0:0:
265,242,48151,5,2,3:2:0:0:
295,349,48381,1,10,1:2:0:0:
404,374,48613,1,2,3:2:0:0:
494,307,48844,2,1,P|504:269|512:223,3,80,2|2|10|2,1:2|3:2|1:2|3:2,0:0:0:0:
440,142,49767,6,1,P|390:127|353:123,1,80,2|2,1:2|3:2,0:0:0:0:
335,174,50113,1,2,2:3:0:0:
335,174,50228,2,1,L|342:221,3,40,10|2|2|2,1:2|2:2|3:2|2:2,0:0:0:0:
335,269,50690,2,1,P|302:277|251:280,1,80,2|2,1:2|3:2,0:0:0:0:
182,364,51151,6,3,L|178:387,8,20,10|0|0|0|2|0|2|0|0,1:2|0:0|0:0|0:0|2:2|0:0|2:2|0:0|0:0,0:1:0:0:
81,251,51843,2,3,P|90:289|92:329,1,80,0|0,0:0|0:0,0:1:0:0:
512,0,53459,6,1,P|510:41|498:82,1,80,2|2,1:2|3:2,0:0:0:0:
432,168,53920,2,1,B|391:165|348:144,1,80,10|2,1:2|3:2,0:0:0:0:
312,183,54267,1,2,2:2:0:0:
312,183,54382,2,1,B|306:265,1,80,2|2,1:2|3:2,0:0:0:0:
205,262,54843,2,1,B|200:183,1,80,10|0,1:2|3:3,0:0:0:0:
156,147,55190,6,1,B|121:165|80:168,1,80,2|2,2:2|2:2,0:0:0:0:
60,146,55536,1,2,3:2:0:0:
52,118,55651,1,2,2:3:0:0:
60,88,55767,2,1,B|95:70|136:67,1,80,10|2,1:2|3:2,0:0:0:0:
191,37,56113,1,2,2:2:0:0:
191,37,56228,2,1,P|200:12|200:-10,2,40,2|2|2,1:2|2:2|3:2,0:0:0:0:
360,81,56690,2,1,B|369:147|332:201,1,120,10|2,1:2|2:2,0:0:0:0:
323,223,57151,5,2,1:2:0:0:
334,248,57266,1,2,2:2:0:0:
357,263,57382,1,2,3:2:0:0:
257,384,57613,2,1,P|294:373|335:367,1,80,10|2,1:2|3:2,0:0:0:0:
389,367,57959,1,2,2:2:0:0:
424,326,58074,2,1,L|444:248,3,80,2|2|10|0,1:2|3:2|1:2|3:3,0:0:0:0:
376,189,58997,6,1,L|331:196,2,40,2|2|2,3:2|2:2|3:2,0:0:0:0:
451,132,59459,1,10,3:2:0:0:
446,120,59574,1,2,2:2:0:0:
434,112,59690,1,2,3:2:0:0:
472,15,59920,2,1,L|517:8,2,40,2|2|2,3:2|2:2|3:2,0:0:0:0:
320,100,60382,2,1,P|237:88|162:63,1,160,10|2,3:2|2:2,0:0:0:0:
424,144,75613,6,1,P|410:109|410:67,1,80,2|0,3:2|3:3,0:0:0:0:
511,176,76074,2,1,P|510:215|490:256,1,80,10|0,3:2|3:3,0:0:0:0:
412,325,76536,2,1,B|267:277|370:365|177:303,1,240,2|0,3:2|3:3,0:0:0:0:
119,384,77459,1,2,3:2:0:0:
161,275,77690,1,2,3:2:0:0:
30,237,77920,2,1,P|31:276|51:317,2,80,10|2|2,3:2|3:2|3:2,0:0:0:0:
30,237,78843,1,10,3:2:0:0:
59,165,79073,1,2,3:2:0:0:
146,133,79305,6,1,P|160:98|160:56,1,80,2|0,3:2|3:3,0:0:0:0:
59,165,79766,2,1,P|60:204|80:245,1,80,10|0,3:2|3:3,0:0:0:0:
158,314,80228,2,1,B|303:266|200:354|393:292,1,240,2|0,3:2|3:3,0:0:0:0:
495,329,81151,2,1,P|511:292|512:253,1,80,2|2,3:2|3:2,0:0:0:0:
426,191,81613,2,1,P|416:152|393:120,1,80,10|2,3:2|3:2,0:0:0:0:
512,48,82074,1,2,3:2:0:0:
512,48,82536,2,1,P|457:38|396:14,1,120,10|0,3:2|0:0,0:0:0:0:
362,65,82997,6,1,L|372:149,1,80,2|0,3:3|3:3,0:0:0:0:
328,232,83459,2,1,L|318:316,1,80,10|0,3:2|3:3,0:0:0:0:
193,311,83920,2,1,L|184:232,1,80,2|0,3:3|3:3,0:0:0:0:
140,144,84382,2,1,L|150:65,1,80,10|0,3:2|3:3,0:0:0:0:
235,138,84843,2,1,L|245:222,1,80,2|2,3:3|3:2,0:0:0:0:
201,305,85305,2,1,L|191:389,1,80,10|2,3:2|3:2,0:0:0:0:
66,384,85766,2,1,L|56:304,1,80,2|0,3:3|3:3,0:0:0:0:
13,217,86228,2,1,L|22:137,1,80,10|2,3:2|3:2,0:0:0:0:
120,109,86690,5,2,3:3:0:0:
94,17,86920,2,1,P|52:2|14:0,2,80,2|10|2,3:2|3:2|3:2,0:0:0:0:
216,72,87613,2,1,B|218:133|218:133|180:192,1,120,2|0,3:3|0:0,0:0:0:0:
186,182,88074,1,10,3:2:0:0:
224,285,88305,1,2,3:2:0:0:
256,384,88536,2,1,L|271:261,1,120,2|0,3:3|0:0,0:0:0:0:
289,234,88997,5,10,3:2:0:0:
310,243,89113,1,0,0:0:0:0:
331,224,89228,1,2,3:2:0:0:
344,246,89343,1,0,0:0:0:0:
369,233,89459,2,1,L|416:226,3,40,2|0|2|0,3:3|0:0|3:2|0:0,0:0:0:0:
436,190,89920,2,1,L|483:197,3,40,10|0|0|0,3:2|0:0|3:3|0:0,0:0:0:0:
512,248,90382,5,2,1:2:0:0:
158,384,91305,2,1,B|177:385|199:385|219:381|248:364|219:365|246:348|267:343|289:343|309:343,1,160,2|2,1:2|2:2,0:0:0:0:
308,343,92228,6,1,P|319:314|321:265,1,80,2|2,1:2|3:2,0:0:0:0:
362,246,92574,1,2,2:3:0:0:
387,216,92690,2,1,P|384:185|365:139,1,80,10|2,1:2|3:2,0:0:0:0:
319,27,93151,1,2,1:2:0:0:
254,125,93382,1,2,3:2:0:0:
162,0,93613,2,1,P|124:11|82:31,1,80,10|2,1:2|3:2,0:0:0:0:
158,210,94074,5,2,1:2:0:0:
158,210,94189,1,2,2:2:0:0:
158,210,94305,1,2,3:2:0:0:
0,262,94536,2,1,P|7:304|21:344,1,80,10|2,1:2|3:2,0:0:0:0:
64,332,94882,1,2,2:2:0:0:
154,384,95112,1,2,2:2:0:0:
154,384,95228,1,2,3:2:0:0:
246,323,95459,2,1,P|263:282|268:233,1,80,10|2,1:2|3:2,0:0:0:0:
379,194,95920,6,1,L|340:189,3,40,2|2|2|2,1:2|2:2|3:2|2:3,0:0:0:0:
290,170,96382,2,1,P|281:135|277:80,1,80,10|2,1:2|3:2,0:0:0:0:
297,72,96728,1,2,2:2:0:0:
314,42,96844,2,1,L|304:-4,2,40,2|2|2,1:2|2:2|3:2,0:0:0:0:
345,53,97190,1,2,2:3:0:0:
371,68,97305,1,10,1:2:0:0:
359,223,97535,1,2,3:2:0:0:
467,288,97767,6,1,P|479:254|485:204,1,80,2|0,1:2|3:3,0:0:0:0:
257,172,98228,2,1,P|264:229|292:306,1,120,10|2,1:2|2:2,0:0:0:0:
269,317,98690,6,1,P|242:314|206:305,2,53.3333333333333,2|2|2,1:2|2:2|2:2,0:0:0:0:
327,384,99151,1,10,1:2:0:0:
367,251,99382,1,2,3:2:0:0:
288,185,99613,5,2,1:2:0:0:
305,165,99728,1,2,2:2:0:0:
327,151,99843,1,2,2:2:0:0:
353,144,99959,1,2,2:2:0:0:
379,146,100074,1,2,2:2:0:0:
194,384,100536,5,2,1:2:0:0:
177,364,100651,1,2,2:2:0:0:
155,350,100766,1,2,2:2:0:0:
129,343,100882,1,2,2:2:0:0:
103,345,100997,2,1,P|99:296|92:257,1,80,2|2,2:2|2:2,0:0:0:0:
0,111,101459,6,1,P|6:129|10:149,3,40,2|2|2|2,1:2|2:2|3:2|2:3,0:0:0:0:
60,184,101920,1,10,1:2:0:0:
60,184,102035,1,2,2:2:0:0:
60,184,102151,2,1,P|81:183|101:176,1,40,2|2,3:2|2:2,0:0:0:0:
118,135,102382,1,2,1:2:0:0:
237,89,102613,1,2,3:2:0:0:
132,15,102844,1,10,1:2:0:0:
208,117,103074,1,2,3:2:0:0:
326,68,103305,6,1,P|329:42|338:16,1,40,2|2,1:2|2:2,0:0:0:0:
390,10,103536,1,2,3:2:0:0:
390,10,103651,1,2,2:3:0:0:
390,10,103767,2,1,P|432:14|468:33,1,80,10|2,1:2|3:2,0:0:0:0:
496,83,104113,1,2,2:2:0:0:
496,83,104228,2,1,P|486:127|467:162,1,80,2|2,1:2|3:2,0:0:0:0:
486,317,104690,2,1,B|394:310|462:267|359:284,1,120,10|0,1:2|0:0,0:0:0:0:
336,318,105152,6,1,P|275:312|231:272,1,120,2|2,1:2|2:3,0:0:0:0:
188,281,105613,2,1,P|184:320|158:350,1,80,10|0,1:2|3:3,0:0:0:0:
131,384,105958,1,2,2:2:0:0:
42,299,106189,1,2,2:2:0:0:
42,299,106304,1,2,3:2:0:0:
111,190,106536,2,1,P|103:143|74:61,1,120,10|0,1:2|0:0,0:0:0:0:
21,69,106997,5,2,1:2:0:0:
145,0,107228,1,2,3:2:0:0:
145,0,107344,1,2,2:3:0:0:
145,0,107459,2,1,P|184:-2|223:16,1,80,10|2,1:2|3:2,0:0:0:0:
239,35,107805,1,2,2:2:0:0:
157,141,108036,1,2,2:2:0:0:
157,141,108151,1,2,3:2:0:0:
233,221,108382,2,1,L|224:269,1,40,10|2,1:2|2:2,0:0:0:0:
261,310,108613,1,2,3:2:0:0:
261,310,108728,1,2,2:2:0:0:
261,310,108843,6,1,L|252:358,3,40,2|2|2|2,1:2|2:2|3:2|2:3,0:0:0:0:
293,384,109305,2,1,P|336:382|382:363,1,80,10|2,1:2|3:2,0:0:0:0:
394,356,109651,1,2,2:2:0:0:
404,330,109766,1,2,1:2:0:0:
468,260,109997,1,2,3:2:0:0:
468,260,110113,1,2,2:3:0:0:
468,260,110228,2,1,P|484:263|516:279,2,40,10|2|2,1:2|2:2|3:2,0:0:0:0:
404,117,110690,5,2,2:2:0:0:
256,192,112536,6,0,L|263:130,1,53.3333333333333,2|0,1:2|0:0,0:0:0:0:
190,307,112997,5,10,1:2:0:0:
85,233,113227,1,2,3:2:0:0:
0,379,113459,2,1,P|39:382|74:363,1,80,2|2,1:2|3:2,0:0:0:0:
124,363,113804,1,2,2:3:0:0:
172,381,113920,2,1,P|191:346|189:306,1,80,10|2,1:2|3:2,0:0:0:0:
256,192,114382,6,0,L|249:130,1,53.3333333333333,2|0,1:2|0:0,0:0:0:0:
322,307,114844,6,1,L|375:313,1,40,10|2,1:2|2:2,0:0:0:0:
379,273,115074,2,1,L|418:277,1,40,2|2,3:2|2:2,0:0:0:0:
459,245,115305,1,2,1:2:0:0:
459,245,115420,1,2,2:2:0:0:
459,245,115536,2,1,P|457:197|442:162,1,80,2|10,3:2|1:2,0:0:0:0:
342,121,115997,1,2,3:2:0:0:
256,192,116228,5,2,1:2:0:0:
256,192,116382,1,0,0:0:0:0:
190,77,116690,5,10,1:2:0:0:
190,77,116805,1,2,2:2:0:0:
190,77,116920,1,2,3:2:0:0:
190,77,117035,1,2,2:2:0:0:
190,77,117152,2,1,P|154:82|107:96,1,80,2|2,1:2|3:2,0:0:0:0:
75,145,117497,1,2,2:3:0:0:
75,145,117613,2,1,P|77:188|90:230,1,80,10|2,1:2|3:2,0:0:0:0:
178,309,118074,5,2,1:2:0:0:
178,309,118228,1,0,0:0:0:0:
373,270,118536,5,10,1:2:0:0:
373,270,118690,1,0,0:0:0:0:
334,75,118997,5,2,1:2:0:0:
334,75,119151,1,0,0:0:0:0:
139,114,119459,5,10,1:2:0:0:
139,114,119613,1,0,0:0:0:0:
256,192,119920,5,2,2:2:0:0:
88,240,134690,6,1,P|102:275|102:317,1,80,2|0,3:2|3:3,0:0:0:0:
1,208,135151,2,1,P|2:169|22:128,1,80,10|0,3:2|3:3,0:0:0:0:
100,59,135613,2,1,B|245:107|142:19|335:81,1,240,2|0,3:2|3:3,0:0:0:0:
393,0,136536,1,2,3:2:0:0:
351,109,136767,1,2,3:2:0:0:
482,147,136997,2,1,P|481:108|461:67,2,80,10|2|2,3:2|3:2|3:2,0:0:0:0:
482,147,137920,1,10,3:2:0:0:
512,296,138150,1,2,3:2:0:0:
366,251,138382,6,1,P|352:286|352:328,1,80,2|0,3:2|3:3,0:0:0:0:
453,219,138843,2,1,P|452:180|432:139,1,80,10|0,3:2|3:3,0:0:0:0:
354,70,139305,2,1,B|209:118|312:30|119:92,1,240,2|0,3:2|3:3,0:0:0:0:
17,55,140228,1,2,3:2:0:0:
151,120,140458,1,2,3:2:0:0:
86,193,140690,2,1,P|96:232|119:264,1,80,10|2,3:2|3:2,0:0:0:0:
0,336,141151,1,2,3:2:0:0:
0,336,141613,2,1,P|55:346|116:370,1,120,10|0,3:2|0:0,0:0:0:0:
150,319,142074,6,1,L|140:235,1,80,2|0,3:3|3:3,0:0:0:0:
184,152,142536,2,1,L|194:68,1,80,10|0,3:2|3:3,0:0:0:0:
319,73,142997,2,1,L|328:152,1,80,2|0,3:3|3:3,0:0:0:0:
372,240,143459,2,1,L|362:319,1,80,10|0,3:2|3:3,0:0:0:0:
277,246,143920,1,2,3:3:0:0:
237,151,144150,1,2,3:2:0:0:
311,79,144382,2,1,L|321:-5,1,80,10|2,3:2|3:2,0:0:0:0:
446,0,144843,2,1,L|456:80,1,80,2|0,3:3|3:3,0:0:0:0:
499,167,145305,1,10,3:2:0:0:
494,266,145535,1,2,3:2:0:0:
392,275,145767,5,2,3:3:0:0:
418,367,145997,2,1,P|460:382|498:384,2,80,2|10|2,3:2|3:2|3:2,0:0:0:0:
296,312,146690,2,1,B|294:251|294:251|332:192,1,120,2|0,3:3|0:0,0:0:0:0:
326,202,147151,1,10,3:2:0:0:
288,99,147382,1,2,3:2:0:0:
256,0,147613,2,1,L|241:123,1,120,2|0,3:3|0:0,0:0:0:0:
223,150,148074,5,10,3:2:0:0:
202,141,148190,1,0,0:0:0:0:
181,160,148305,1,2,3:2:0:0:
168,138,148420,1,0,0:0:0:0:
143,151,148536,2,1,L|96:158,3,40,2|0|0|0,3:3|0:0|3:3|0:0,0:0:0:0:
91,182,148997,2,1,L|44:175,1,40,10|0,3:2|0:0,0:0:0:0:
24,144,149228,1,2,3:2:0:0:
0,266,149459,6,1,P|11:319|43:381,1,120,2|2,1:2|2:3,0:0:0:0:
40,377,149920,2,1,P|93:365|155:333,1,120,10|2,1:2|2:2,0:0:0:0:
179,342,150382,1,2,1:2:0:0:
201,358,150497,1,2,2:2:0:0:
211,384,150613,1,2,3:2:0:0:
242,278,150843,2,1,P|278:237|310:175,1,120,10|0,1:2|0:0,0:0:0:0:
309,180,151305,6,1,P|274:171|221:168,1,80,2|2,1:2|3:2,0:0:0:0:
192,141,151652,1,2,2:3:0:0:
192,141,151767,2,1,P|175:107|172:61,1,80,10|2,1:2|3:2,0:0:0:0:
202,20,152113,2,1,P|235:3|281:0,1,80,2|2,2:2|2:2,0:0:0:0:
319,36,152459,2,1,P|315:79|304:121,1,80,2|10,3:2|1:2,0:0:0:0:
262,223,152920,1,2,3:2:0:0:
345,331,153151,6,1,P|408:330|468:303,1,120,2|2,1:2|2:3,0:0:0:0:
484,278,153612,2,1,P|483:242|456:208,1,80,10|0,1:2|3:3,0:0:0:0:
417,188,153959,2,1,P|397:158|401:115,1,80,2|2,2:2|2:2,0:0:0:0:
419,75,154305,1,2,3:2:0:0:
277,0,154536,2,1,P|213:5|149:18,1,120,10|0,1:2|0:0,0:0:0:0:
126,55,154997,6,1,P|116:89|132:129,1,80,2|2,1:2|3:2,0:0:0:0:
174,173,155344,1,2,2:3:0:0:
174,173,155460,2,1,P|208:160|255:176,1,80,10|2,1:2|3:2,0:0:0:0:
270,199,155805,1,2,2:2:0:0:
374,183,156035,1,2,2:2:0:0:
374,183,156151,2,1,L|362:102,1,80,2|2,3:2|2:2,0:0:0:0:
512,266,156843,6,1,P|501:319|469:381,1,120,2|2,1:2|2:3,0:0:0:0:
471,377,157304,2,1,P|418:365|385:348,1,80,10|0,1:2|3:3,0:0:0:0:
372,321,157651,2,1,L|324:339,1,40,2|2,2:2|1:2,0:0:0:0:
306,384,157881,1,2,2:2:0:0:
260,384,157997,1,2,3:2:0:0:
270,278,158227,2,1,P|233:237|201:175,1,120,10|0,1:2|0:0,0:0:0:0:
171,192,158690,5,2,1:2:0:0:
320,141,158919,1,2,3:2:0:0:
320,141,159036,1,2,2:3:0:0:
320,141,159151,2,1,P|336:107|339:61,1,80,10|2,1:2|3:2,0:0:0:0:
310,20,159497,1,2,2:2:0:0:
166,43,159727,1,2,2:2:0:0:
166,43,159843,2,1,P|170:86|181:128,1,80,2|10,3:2|1:2,0:0:0:0:
250,223,160304,1,2,3:2:0:0:
167,331,160535,6,1,P|103:330|43:303,1,120,2|2,1:2|2:3,0:0:0:0:
28,278,160996,2,1,P|28:242|55:208,1,80,10|0,1:2|3:3,0:0:0:0:
95,188,161343,1,2,2:2:0:0:
115,58,161573,1,2,2:2:0:0:
115,58,161689,1,2,3:2:0:0:
266,38,161920,2,1,P|330:43|394:56,1,120,10|0,1:2|0:0,0:0:0:0:
385,54,162381,5,2,1:2:0:0:
459,151,162613,1,2,3:2:0:0:
459,151,162728,1,2,2:3:0:0:
459,151,162843,2,1,P|455:187|419:221,1,80,10|2,1:2|3:2,0:0:0:0:
456,255,163189,1,2,2:2:0:0:
397,360,163419,1,2,2:2:0:0:
433,384,163535,2,1,L|529:368,2,80,2|10|2,3:2|1:2|3:2,0:0:0:0:
287,319,164228,6,1,B|289:280|298:225,1,80,2|0,1:2|3:3,0:0:0:0:
326,218,164574,1,2,2:3:0:0:
326,218,164690,2,1,B|323:179|314:124,1,80,10|0,1:2|3:3,0:0:0:0:
349,27,165151,2,1,B|281:-4|253:47|193:-3,1,160,2|10,1:2|1:2,0:0:0:0:
145,114,165844,1,2,3:2:0:0:
54,0,166074,2,1,P|60:44|64:79,1,80,2|0,1:2|3:3,0:0:0:0:
107,187,166536,2,1,P|101:231|96:265,1,80,10|0,1:2|3:3,0:0:0:0:
10,384,166997,2,1,P|4:339|0:305,1,80,2|2,1:2|3:2,0:0:0:0:
155,350,167459,1,10,1:2:0:0:
52,227,167690,1,2,3:2:0:0:
155,350,167920,6,1,B|198:352|232:324,1,80,2|0,1:2|3:3,0:0:0:0:
281,321,168267,1,2,2:3:0:0:
329,338,168382,2,1,B|331:295|303:261,1,80,10|0,1:2|3:3,0:0:0:0:
311,97,168843,2,1,B|268:99|236:73,1,80,2|0,1:2|3:3,0:0:0:0:
107,187,169305,2,1,B|150:189|181:163,1,80,10|2,1:2|3:2,0:0:0:0:
353,184,169767,2,1,B|432:172|534:165,2,160,2|10|2,1:2|1:2|1:2,0:0:0:0:
305,263,170920,2,1,P|302:287|302:314,2,40,2|2|2,3:2|2:3|2:2,0:0:0:0:
0,106,171613,6,1,P|37:96|85:92,1,80,2|0,1:2|3:3,0:0:0:0:
127,126,171959,1,2,2:3:0:0:
127,126,172074,2,1,P|124:172|116:221,1,80,10|0,1:2|3:3,0:0:0:0:
99,371,172536,2,1,P|136:381|184:385,1,80,2|0,1:2|3:3,0:0:0:0:
226,351,172882,1,2,2:3:0:0:
226,351,172997,2,1,P|223:305|215:256,1,80,10|2,1:2|3:2,0:0:0:0:
320,160,173459,2,1,B|433:124|372:180|511:131,2,160,2|10|2,1:2|1:2|1:2,0:0:0:0:
305,248,174613,1,2,3:2:0:0:
183,206,174843,1,10,1:2:0:0:
280,121,175074,1,2,3:2:0:0:
136,0,175305,6,1,P|140:76|164:162,1,160,2|10,1:2|1:2,0:0:0:0:
174,304,175997,1,2,3:2:0:0:
305,248,176228,2,1,P|342:249|393:236,2,80,2|2|10,1:2|3:2|1:2,0:0:0:0:
254,171,176920,1,2,3:2:0:0:
174,304,177151,5,2,3:2:0:0:
174,304,177613,5,10,3:2:0:0:
174,304,178074,5,2,3:2:0:0:
174,304,178536,6,1,P|169:225|151:136,1,160,10|2,3:2|1:2,0:0:0:0:
39,65,179228,1,2,3:2:0:0:
63,65,179343,1,2,2:3:0:0:
88,74,179458,1,10,1:2:0:0:
117,192,179690,1,2,3:2:0:0:
282,168,179920,1,2,1:2:0:0:
197,84,180151,1,2,3:2:0:0:
197,84,180267,1,2,2:3:0:0:
197,84,180382,2,1,P|195:39|220:-13,1,88.000002685547,10|0,1:2|3:3,0:0:0:0:
336,131,180843,6,1,P|337:175|313:228,1,88.000002685547,2|2,1:2|3:2,0:0:0:0:
321,215,181190,1,2,2:3:0:0:
321,215,181306,1,10,1:2:0:0:
374,318,181537,1,2,3:2:0:0:
244,384,181767,2,1,B|247:290|227:346|224:252,1,132.00000402832,2|2,1:2|2:3,0:0:0:0:
244,241,182228,1,10,1:2:0:0:
148,306,182459,1,2,3:2:0:0:
85,190,182690,5,2,1:2:0:0:
45,303,182920,1,2,3:2:0:0:
47,326,183035,1,2,2:3:0:0:
59,350,183150,1,10,1:2:0:0:
174,304,183383,1,2,3:2:0:0:
85,190,183613,2,1,P|39:194|-4:213,2,88.000002685547,2|0|10,1:2|3:3|1:2,0:0:0:0:
134,384,184305,5,2,3:2:0:0:
174,304,184536,2,1,P|218:297|254:274,1,88.000002685547,2|2,1:2|3:2,0:0:0:0:
254,273,184882,1,2,2:3:0:0:
254,273,184997,1,10,1:2:0:0:
328,192,185228,2,1,B|302:99|348:139|297:10,1,176.000005371094,2|0,3:2|3:3,0:0:0:0:
270,54,185805,1,2,2:3:0:0:
270,54,185920,2,1,P|230:35|96:28,2,176.000005371094,10|2|10,1:2|1:2|1:2,0:0:0:0:
439,71,187074,5,2,3:2:0:0:
367,135,187305,2,1,P|358:213|311:298,1,176.000005371094,2|10,1:2|1:2,0:0:0:0:
187,267,187997,1,2,3:2:0:0:
310,384,188228,2,1,P|298:343|276:291,1,88.000002685547,2|2,1:2|3:2,0:0:0:0:
281,300,188574,1,2,2:3:0:0:
281,300,188690,1,10,1:2:0:0:
420,336,188920,2,1,P|431:262|469:167,1,176.000005371094,2|0,3:2|3:3,0:0:0:0:
512,140,189497,1,2,2:3:0:0:
493,92,189613,2,1,B|372:55|429:97|310:61,1,176.000005371094,10|2,1:2|1:2,0:0:0:0:
190,0,190305,5,2,3:2:0:0:
190,0,190420,1,2,2:3:0:0:
190,0,190536,2,1,P|205:44|210:92,1,88.000002685547,10|2,1:2|3:2,0:0:0:0:
334,120,190997,1,2,1:2:0:0:
256,224,191228,1,2,3:2:0:0:
256,224,191344,1,2,2:3:0:0:
256,224,191459,1,10,1:2:0:0:
344,280,191690,1,2,3:2:0:0:
256,336,191920,5,2,1:2:0:0:
168,280,192151,1,2,3:2:0:0:
168,280,192267,1,2,2:3:0:0:
168,280,192382,2,1,P|154:232|155:186,1,88.000002685547,10|2,1:2|3:2,0:0:0:0:
358,194,192843,2,1,P|357:238|344:280,1,88.000002685547,2|0,1:2|3:3,0:0:0:0:
256,384,193305,1,2,3:2:0:0:
256,304,193536,1,2,2:2:0:0:
312,224,193767,6,1,P|298:171|297:133,1,88.000002685547,2|0,1:2|3:3,0:0:0:0:
256,120,194113,1,2,2:3:0:0:
214,137,194228,2,1,P|211:181|200:224,1,88.000002685547,10|0,1:2|3:3,0:0:0:0:
111,273,194690,2,1,P|58:287|20:288,1,88.000002685547,2|0,1:2|3:3,0:0:0:0:
7,329,195036,1,2,2:3:0:0:
24,371,195151,2,1,P|68:374|111:385,1,88.000002685547,10|0,1:2|3:3,0:0:0:0:
256,304,195613,5,2,1:2:0:0:
256,192,195844,1,2,3:2:0:0:
256,192,195959,1,2,2:3:0:0:
256,192,196074,1,10,1:2:0:0:
256,304,196305,1,2,3:2:0:0:
401,273,196536,2,1,P|454:287|492:288,1,88.000002685547,2|0,1:2|3:3,0:0:0:0:
505,329,196882,1,2,2:3:0:0:
488,371,196997,2,1,P|444:374|401:385,1,88.000002685547,10|2,1:2|3:2,0:0:0:0:
296,352,197459,6,1,P|306:302|310:258,1,88.000002685547,2|0,1:2|3:3,0:0:0:0:
355,237,197805,1,2,2:3:0:0:
384,192,197920,2,1,P|381:141|373:97,1,88.000002685547,10|0,1:2|3:3,0:0:0:0:
216,32,198382,2,1,P|206:82|202:126,1,88.000002685547,2|0,1:2|3:3,0:0:0:0:
157,147,198728,1,2,2:3:0:0:
128,192,198843,2,1,P|131:243|139:287,1,88.000002685547,10|0,1:2|3:3,0:0:0:0:
167,384,199305,5,2,1:2:0:0:
250,301,199536,1,2,3:2:0:0:
250,301,199651,1,2,2:3:0:0:
250,301,199767,2,1,P|301:304|345:312,1,88.000002685547,10|2,1:2|3:2,0:0:0:0:
413,384,200228,1,2,1:2:0:0:
512,250,200459,1,0,3:3:0:0:
512,250,200574,1,2,2:3:0:0:
512,250,200690,2,1,P|461:253|417:261,1,88.000002685547,10|2,1:2|3:2,0:0:0:0:
337,310,201151,5,2,1:2:0:0:
344,192,201382,1,0,3:3:0:0:
344,192,201497,1,2,2:3:0:0:
344,192,201613,2,1,P|350:135|358:92,1,88.000002685547,10|0,1:2|3:3,0:0:0:0:
175,74,202074,1,2,1:2:0:0:
168,192,202305,1,0,3:3:0:0:
168,192,202420,1,2,2:3:0:0:
168,192,202536,2,1,P|161:248|154:292,1,88.000002685547,10|0,1:2|3:3,0:0:0:0:
270,342,202997,5,2,1:2:0:0:
411,324,203228,1,2,3:2:0:0:
286,256,203459,1,10,1:2:0:0:
347,383,203690,1,2,3:2:0:0:
372,244,203920,2,1,P|379:191|394:152,1,88.000002685547,2|0,1:2|3:3,0:0:0:0:
390,158,204267,1,2,2:3:0:0:
390,158,204382,1,10,1:2:0:0:
298,107,204613,1,2,3:2:0:0:
484,91,204844,5,2,1:2:0:0:
427,17,205074,2,1,P|464:5|522:4,2,88.000002685547,2|10|2,3:2|1:2|3:2,0:0:0:0:
367,160,205767,2,1,B|307:193|307:193|244:186,1,132.00000402832,2|2,1:2|2:3,0:0:0:0:
243,186,206228,1,10,1:2:0:0:
168,263,206459,1,2,3:2:0:0:
87,205,206690,6,1,P|72:173|66:124,2,71.9999978027344,2|0|2,2:2|0:0|2:2,0:0:0:0:
168,263,207382,1,2,2:2:0:0:
141,358,207613,2,1,P|71:373|0:384,1,143.999995605469,2|2,2:2|2:2,0:0:0:0:
