osu file format v14

[General]
AudioFilename: audio.mp3
AudioLeadIn: 0
PreviewTime: 38331
Countdown: 0
SampleSet: Normal
StackLeniency: 0.7
Mode: 3
LetterboxInBreaks: 0
SpecialStyle: 0
WidescreenStoryboard: 1

[Editor]
Bookmarks: 8015,23173,38331,45910,61068,68647,83805,98016
DistanceSpacing: 1.1
BeatDivisor: 3
GridSize: 4
TimelineZoom: 1

[Metadata]
Title:Yeti Butts
TitleUnicode:Yeti Butts
Artist:David Fenn
ArtistUnicode:David Fenn
Creator:Gekido-kun
Version:Normal
Source:Titan Souls
Tags:orchestral epic instrumental indie videogame OST piano
BeatmapID:1327895
BeatmapSetID:629083

[Difficulty]
HPDrainRate:7.7
CircleSize:4
OverallDifficulty:7.2
ApproachRate:5
SliderMultiplier:1.4
SliderTickRate:1

[Events]
//Background and Video events
0,0,"yetibutts.jpg",0,0
//Break Periods
//Storyboard Layer 0 (Background)
//Storyboard Layer 1 (Fail)
//Storyboard Layer 2 (Pass)
//Storyboard Layer 3 (Foreground)
//Storyboard Sound Samples

[TimingPoints]
437,473.68670361423,4,1,0,35,1,0

[HitObjects]
64,192,437,5,0,0:0:0:0:
448,192,437,1,0,0:0:0:0:
448,192,910,1,0,0:0:0:0:
320,192,1068,1,0,0:0:0:0:
192,192,1226,1,0,0:0:0:0:
64,192,1384,1,0,0:0:0:0:
448,192,1384,1,0,0:0:0:0:
448,192,1858,1,0,0:0:0:0:
320,192,2015,1,0,0:0:0:0:
192,192,2173,1,0,0:0:0:0:
448,192,2331,1,0,0:0:0:0:
64,192,2331,1,0,0:0:0:0:
448,192,2805,1,0,0:0:0:0:
320,192,2963,1,0,0:0:0:0:
192,192,3121,1,0,0:0:0:0:
320,192,3279,1,0,0:0:0:0:
448,192,3279,1,0,0:0:0:0:
320,192,3752,1,0,0:0:0:0:
192,192,3910,1,0,0:0:0:0:
64,192,4068,1,0,0:0:0:0:
320,192,4226,1,0,0:0:0:0:
192,192,4226,1,0,0:0:0:0:
448,192,4700,1,0,0:0:0:0:
320,192,4858,1,0,0:0:0:0:
64,192,5015,1,0,0:0:0:0:
192,192,5173,1,0,0:0:0:0:
448,192,5173,1,0,0:0:0:0:
448,192,5647,1,0,0:0:0:0:
320,192,5805,1,0,0:0:0:0:
64,192,5963,1,0,0:0:0:0:
192,192,6121,1,0,0:0:0:0:
448,192,6121,1,0,0:0:0:0:
448,192,6594,1,0,0:0:0:0:
320,192,6752,1,0,0:0:0:0:
64,192,6910,1,0,0:0:0:0:
192,192,7068,1,0,0:0:0:0:
320,192,7068,1,0,0:0:0:0:
64,192,7542,1,0,0:0:0:0:
192,192,7700,1,0,0:0:0:0:
448,192,7858,1,0,0:0:0:0:
320,192,8015,1,0,0:0:0:0:
64,192,8489,1,0,0:0:0:0:
320,192,8963,1,0,0:0:0:0:
192,192,9437,1,0,0:0:0:0:
448,192,9910,1,0,0:0:0:0:
64,192,10384,1,0,0:0:0:0:
192,192,10542,1,0,0:0:0:0:
320,192,10700,1,0,0:0:0:0:
448,192,10858,1,0,0:0:0:0:
448,192,11331,1,0,0:0:0:0:
320,192,11489,1,0,0:0:0:0:
192,192,11647,1,0,0:0:0:0:
64,192,11805,1,0,0:0:0:0:
448,192,12279,1,0,0:0:0:0:
192,192,12752,1,0,0:0:0:0:
320,192,13226,1,0,0:0:0:0:
64,192,13700,1,0,0:0:0:0:
320,192,14173,1,0,0:0:0:0:
192,192,14331,1,0,0:0:0:0:
64,192,14489,1,0,0:0:0:0:
320,192,14647,1,0,0:0:0:0:
448,192,14805,1,0,0:0:0:0:
192,192,14963,1,0,0:0:0:0:
64,192,15121,1,0,0:0:0:0:
320,192,15279,1,0,0:0:0:0:
448,192,15437,1,0,0:0:0:0:
64,192,15594,128,0,16068:0:0:0:0:
320,192,16068,128,0,16542:0:0:0:0:
192,192,16542,128,0,17016:0:0:0:0:
448,192,17016,128,0,17489:0:0:0:0:
64,192,17489,128,0,17963:0:0:0:0:
192,192,17963,1,0,0:0:0:0:
320,192,18121,1,0,0:0:0:0:
448,192,18279,1,0,0:0:0:0:
320,192,18437,128,0,18910:0:0:0:0:
64,192,18910,1,0,0:0:0:0:
192,192,19068,1,0,0:0:0:0:
320,192,19226,1,0,0:0:0:0:
448,192,19384,128,0,19858:0:0:0:0:
192,192,19858,128,0,20331:0:0:0:0:
320,192,20331,128,0,20805:0:0:0:0:
64,192,20805,128,0,21279:0:0:0:0:
448,192,21279,128,0,21752:0:0:0:0:
320,192,21752,1,0,0:0:0:0:
192,192,21910,1,0,0:0:0:0:
64,192,22068,1,0,0:0:0:0:
192,192,22226,128,0,23173:0:0:0:0:
448,192,22226,1,0,0:0:0:0:
320,192,22700,1,0,0:0:0:0:
64,192,23173,1,0,0:0:0:0:
320,192,23647,1,0,0:0:0:0:
192,192,24121,1,0,0:0:0:0:
448,192,24595,1,0,0:0:0:0:
64,192,25068,1,0,0:0:0:0:
320,192,25542,1,0,0:0:0:0:
192,192,26016,1,0,0:0:0:0:
64,192,26331,1,0,0:0:0:0:
448,192,26331,1,0,0:0:0:0:
192,192,26647,1,0,0:0:0:0:
320,192,26647,1,0,0:0:0:0:
64,192,26963,1,0,0:0:0:0:
448,192,27437,1,0,0:0:0:0:
192,192,27910,1,0,0:0:0:0:
320,192,28384,1,0,0:0:0:0:
64,192,28858,1,0,0:0:0:0:
192,192,29173,1,0,0:0:0:0:
320,192,29173,1,0,0:0:0:0:
64,192,29489,1,0,0:0:0:0:
448,192,29489,1,0,0:0:0:0:
320,192,29805,1,0,0:0:0:0:
192,192,29963,1,0,0:0:0:0:
64,192,30121,1,0,0:0:0:0:
192,192,30279,1,0,0:0:0:0:
320,192,30437,1,0,0:0:0:0:
448,192,30595,1,0,0:0:0:0:
64,192,30752,1,0,0:0:0:0:
192,192,30752,1,0,0:0:0:0:
320,192,31226,1,0,0:0:0:0:
448,192,31226,1,0,0:0:0:0:
64,192,31700,1,0,0:0:0:0:
320,192,31700,1,0,0:0:0:0:
448,192,32174,1,0,0:0:0:0:
192,192,32174,1,0,0:0:0:0:
64,192,32647,1,0,0:0:0:0:
192,192,32647,1,0,0:0:0:0:
320,192,33121,1,0,0:0:0:0:
448,192,33121,1,0,0:0:0:0:
64,192,33595,1,0,0:0:0:0:
448,192,33595,1,0,0:0:0:0:
192,192,33910,128,0,34226:0:0:0:0:
320,192,33910,128,0,34226:0:0:0:0:
64,192,34226,128,0,34542:0:0:0:0:
448,192,34226,128,0,34542:0:0:0:0:
192,192,34542,1,0,0:0:0:0:
320,192,34542,1,0,0:0:0:0:
64,192,35016,1,0,0:0:0:0:
448,192,35016,1,0,0:0:0:0:
448,192,35489,1,0,0:0:0:0:
320,192,35489,1,0,0:0:0:0:
64,192,35963,1,0,0:0:0:0:
192,192,35963,1,0,0:0:0:0:
192,192,36437,1,0,0:0:0:0:
320,192,36437,1,0,0:0:0:0:
64,192,36752,128,0,37068:0:0:0:0:
448,192,36752,128,0,37068:0:0:0:0:
192,192,37068,128,0,37384:0:0:0:0:
320,192,37068,128,0,37384:0:0:0:0:
64,192,37384,1,0,0:0:0:0:
448,192,37542,1,0,0:0:0:0:
192,192,37700,1,0,0:0:0:0:
320,192,37858,1,0,0:0:0:0:
448,192,38016,1,0,0:0:0:0:
320,192,38174,1,0,0:0:0:0:
64,192,38331,1,0,0:0:0:0:
192,192,38331,1,0,0:0:0:0:
64,192,38647,1,0,0:0:0:0:
320,192,38805,1,0,0:0:0:0:
192,192,38963,1,0,0:0:0:0:
320,192,39121,1,0,0:0:0:0:
448,192,39279,1,0,0:0:0:0:
320,192,39437,1,0,0:0:0:0:
64,192,39595,1,0,0:0:0:0:
192,192,39752,1,0,0:0:0:0:
320,192,39910,1,0,0:0:0:0:
448,192,40068,1,0,0:0:0:0:
192,192,40226,1,0,0:0:0:0:
320,192,40226,1,0,0:0:0:0:
320,192,40542,1,0,0:0:0:0:
64,192,40700,1,0,0:0:0:0:
192,192,40858,1,0,0:0:0:0:
64,192,41016,1,0,0:0:0:0:
448,192,41174,1,0,0:0:0:0:
320,192,41331,1,0,0:0:0:0:
192,192,41489,1,0,0:0:0:0:
320,192,41647,1,0,0:0:0:0:
192,192,41805,1,0,0:0:0:0:
64,192,41963,1,0,0:0:0:0:
448,192,42121,1,0,0:0:0:0:
320,192,42121,1,0,0:0:0:0:
320,192,42437,1,0,0:0:0:0:
64,192,42595,1,0,0:0:0:0:
192,192,42753,1,0,0:0:0:0:
320,192,42910,1,0,0:0:0:0:
192,192,43068,1,0,0:0:0:0:
448,192,43226,1,0,0:0:0:0:
320,192,43384,1,0,0:0:0:0:
64,192,43542,1,0,0:0:0:0:
192,192,43700,1,0,0:0:0:0:
320,192,43858,1,0,0:0:0:0:
448,192,44016,1,0,0:0:0:0:
64,192,44016,1,0,0:0:0:0:
448,192,44331,1,0,0:0:0:0:
192,192,44489,1,0,0:0:0:0:
320,192,44647,1,0,0:0:0:0:
192,192,44805,1,0,0:0:0:0:
64,192,44963,1,0,0:0:0:0:
448,192,44963,1,0,0:0:0:0:
64,192,45279,1,0,0:0:0:0:
320,192,45437,1,0,0:0:0:0:
192,192,45595,1,0,0:0:0:0:
320,192,45753,1,0,0:0:0:0:
448,192,45910,1,0,0:0:0:0:
448,192,46384,1,0,0:0:0:0:
320,192,46858,1,0,0:0:0:0:
320,192,47331,1,0,0:0:0:0:
192,192,47805,1,0,0:0:0:0:
192,192,48279,1,0,0:0:0:0:
64,192,48753,1,0,0:0:0:0:
64,192,49226,1,0,0:0:0:0:
192,192,49700,1,0,0:0:0:0:
320,192,50174,1,0,0:0:0:0:
448,192,50647,1,0,0:0:0:0:
320,192,51121,1,0,0:0:0:0:
192,192,51595,1,0,0:0:0:0:
64,192,52068,1,0,0:0:0:0:
192,192,52226,1,0,0:0:0:0:
320,192,52384,1,0,0:0:0:0:
64,192,52542,1,0,0:0:0:0:
64,192,53016,1,0,0:0:0:0:
448,192,53174,1,0,0:0:0:0:
320,192,53332,1,0,0:0:0:0:
192,192,53489,128,0,57279:0:0:0:0:
448,192,54437,128,0,56332:0:0:0:0:
320,192,56332,128,0,57279:0:0:0:0:
64,192,57279,128,0,60121:0:0:0:0:
448,192,57753,1,0,0:0:0:0:
320,192,57910,1,0,0:0:0:0:
192,192,58068,1,0,0:0:0:0:
448,192,58226,1,0,0:0:0:0:
448,192,58700,1,0,0:0:0:0:
320,192,58858,1,0,0:0:0:0:
192,192,59016,1,0,0:0:0:0:
448,192,59174,1,0,0:0:0:0:
448,192,59647,1,0,0:0:0:0:
320,192,59805,1,0,0:0:0:0:
192,192,59963,1,0,0:0:0:0:
448,192,60121,1,0,0:0:0:0:
192,192,60595,1,0,0:0:0:0:
320,192,60595,1,0,0:0:0:0:
448,192,61068,1,0,0:0:0:0:
320,192,61068,1,0,0:0:0:0:
192,192,61542,1,0,0:0:0:0:
64,192,61700,1,0,0:0:0:0:
192,192,61858,1,0,0:0:0:0:
320,192,62016,1,0,0:0:0:0:
448,192,62016,1,0,0:0:0:0:
192,192,62489,1,0,0:0:0:0:
64,192,62647,1,0,0:0:0:0:
192,192,62805,1,0,0:0:0:0:
320,192,62963,1,0,0:0:0:0:
448,192,62963,1,0,0:0:0:0:
192,192,63437,1,0,0:0:0:0:
64,192,63595,1,0,0:0:0:0:
192,192,63753,1,0,0:0:0:0:
64,192,63911,1,0,0:0:0:0:
320,192,63911,1,0,0:0:0:0:
448,192,64384,1,0,0:0:0:0:
192,192,64542,1,0,0:0:0:0:
320,192,64700,1,0,0:0:0:0:
192,192,64858,1,0,0:0:0:0:
64,192,64858,1,0,0:0:0:0:
448,192,65332,1,0,0:0:0:0:
320,192,65489,1,0,0:0:0:0:
448,192,65647,1,0,0:0:0:0:
192,192,65805,1,0,0:0:0:0:
64,192,65805,1,0,0:0:0:0:
448,192,66279,1,0,0:0:0:0:
320,192,66437,1,0,0:0:0:0:
448,192,66595,1,0,0:0:0:0:
192,192,66753,1,0,0:0:0:0:
64,192,66753,1,0,0:0:0:0:
448,192,67226,1,0,0:0:0:0:
320,192,67384,1,0,0:0:0:0:
448,192,67542,1,0,0:0:0:0:
320,192,67700,1,0,0:0:0:0:
64,192,67700,1,0,0:0:0:0:
192,192,68174,1,0,0:0:0:0:
320,192,68332,1,0,0:0:0:0:
64,192,68489,1,0,0:0:0:0:
448,192,68647,128,0,69121:0:0:0:0:
320,192,69121,128,0,69595:0:0:0:0:
192,192,69595,128,0,70068:0:0:0:0:
64,192,70068,128,0,70542:0:0:0:0:
192,192,70542,128,0,71016:0:0:0:0:
448,192,71016,1,0,0:0:0:0:
320,192,71174,1,0,0:0:0:0:
192,192,71332,1,0,0:0:0:0:
64,192,71490,128,0,71963:0:0:0:0:
192,192,71963,1,0,0:0:0:0:
320,192,72121,1,0,0:0:0:0:
448,192,72279,1,0,0:0:0:0:
64,192,72437,128,0,72911:0:0:0:0:
192,192,72911,128,0,73384:0:0:0:0:
320,192,73384,128,0,73858:0:0:0:0:
448,192,73858,128,0,74332:0:0:0:0:
192,192,74332,128,0,74805:0:0:0:0:
320,192,74805,1,0,0:0:0:0:
448,192,74963,1,0,0:0:0:0:
320,192,75121,1,0,0:0:0:0:
64,192,75279,128,0,76226:0:0:0:0:
192,192,75437,1,0,0:0:0:0:
320,192,75595,1,0,0:0:0:0:
448,192,75753,1,0,0:0:0:0:
320,192,75911,1,0,0:0:0:0:
192,192,76068,1,0,0:0:0:0:
448,192,76226,128,0,76700:0:0:0:0:
320,192,76226,1,0,0:0:0:0:
192,192,76700,128,0,77174:0:0:0:0:
64,192,76700,1,0,0:0:0:0:
320,192,77174,128,0,77647:0:0:0:0:
448,192,77174,1,0,0:0:0:0:
64,192,77647,128,0,78121:0:0:0:0:
192,192,77647,1,0,0:0:0:0:
448,192,78121,128,0,78595:0:0:0:0:
320,192,78121,1,0,0:0:0:0:
64,192,78595,1,0,0:0:0:0:
192,192,78753,1,0,0:0:0:0:
320,192,78911,1,0,0:0:0:0:
192,192,79068,128,0,79542:0:0:0:0:
64,192,79068,1,0,0:0:0:0:
448,192,79542,1,0,0:0:0:0:
320,192,79700,1,0,0:0:0:0:
192,192,79858,1,0,0:0:0:0:
64,192,80016,128,0,80490:0:0:0:0:
448,192,80016,1,0,0:0:0:0:
320,192,80490,128,0,80963:0:0:0:0:
192,192,80490,1,0,0:0:0:0:
192,192,80963,128,0,81437:0:0:0:0:
448,192,80963,1,0,0:0:0:0:
64,192,81437,1,0,0:0:0:0:
448,192,81437,128,0,81911:0:0:0:0:
320,192,81911,128,0,82384:0:0:0:0:
192,192,81911,1,0,0:0:0:0:
64,192,82384,1,0,0:0:0:0:
192,192,82542,1,0,0:0:0:0:
320,192,82700,1,0,0:0:0:0:
448,192,82858,128,0,83805:0:0:0:0:
64,192,82858,1,0,0:0:0:0:
192,192,83805,128,0,84279:0:0:0:0:
448,192,84279,128,0,84753:0:0:0:0:
64,192,84753,128,0,85226:0:0:0:0:
192,192,85226,128,0,85700:0:0:0:0:
448,192,85700,128,0,86174:0:0:0:0:
320,192,86174,128,0,86647:0:0:0:0:
64,192,86647,128,0,86963:0:0:0:0:
320,192,86963,1,0,0:0:0:0:
448,192,86963,1,0,0:0:0:0:
448,192,87279,1,0,0:0:0:0:
192,192,87279,1,0,0:0:0:0:
64,192,87595,128,0,88069:0:0:0:0:
448,192,88069,128,0,88542:0:0:0:0:
192,192,88542,128,0,89016:0:0:0:0:
320,192,89016,128,0,89490:0:0:0:0:
64,192,89490,128,0,89805:0:0:0:0:
192,192,89805,1,0,0:0:0:0:
448,192,89805,1,0,0:0:0:0:
320,192,90121,1,0,0:0:0:0:
448,192,90121,1,0,0:0:0:0:
192,192,90437,1,0,0:0:0:0:
64,192,90595,1,0,0:0:0:0:
448,192,90753,1,0,0:0:0:0:
320,192,90911,1,0,0:0:0:0:
192,192,91069,1,0,0:0:0:0:
320,192,91226,1,0,0:0:0:0:
64,192,91384,1,0,0:0:0:0:
448,192,91384,1,0,0:0:0:0:
64,192,91858,1,0,0:0:0:0:
192,192,91858,1,0,0:0:0:0:
64,192,92332,1,0,0:0:0:0:
320,192,92332,1,0,0:0:0:0:
64,192,92805,1,0,0:0:0:0:
448,192,92805,1,0,0:0:0:0:
64,192,93279,1,0,0:0:0:0:
192,192,93279,1,0,0:0:0:0:
64,192,93753,1,0,0:0:0:0:
448,192,93753,1,0,0:0:0:0:
64,192,94226,1,0,0:0:0:0:
320,192,94226,1,0,0:0:0:0:
448,192,94542,128,0,95174:0:0:0:0:
192,192,94542,1,0,0:0:0:0:
64,192,94858,128,0,95174:0:0:0:0:
320,192,94858,1,0,0:0:0:0:
192,192,95174,1,0,0:0:0:0:
320,192,95648,1,0,0:0:0:0:
448,192,95648,1,0,0:0:0:0:
192,192,96121,1,0,0:0:0:0:
448,192,96121,1,0,0:0:0:0:
448,192,96595,1,0,0:0:0:0:
64,192,96595,1,0,0:0:0:0:
448,192,97069,1,0,0:0:0:0:
320,192,97069,1,0,0:0:0:0:
64,192,97384,128,0,98016:0:0:0:0:
192,192,97384,1,0,0:0:0:0:
448,192,97700,128,0,98016:0:0:0:0:
320,192,97700,1,0,0:0:0:0:
192,192,98016,1,0,0:0:0:0:
320,192,98174,1,0,0:0:0:0:
448,192,98332,1,0,0:0:0:0:
320,192,98490,1,0,0:0:0:0:
192,192,98648,1,0,0:0:0:0:
320,192,98805,1,0,0:0:0:0:
192,192,98963,1,0,0:0:0:0:
64,192,98963,128,0,99279:0:0:0:0:
320,192,99279,1,0,0:0:0:0:
448,192,99437,1,0,0:0:0:0:
320,192,99595,1,0,0:0:0:0:
64,192,99753,1,0,0:0:0:0:
192,192,99911,1,0,0:0:0:0:
448,192,100069,1,0,0:0:0:0:
320,192,100226,1,0,0:0:0:0:
192,192,100384,1,0,0:0:0:0:
64,192,100542,1,0,0:0:0:0:
192,192,100700,1,0,0:0:0:0:
448,192,100858,128,0,101174:0:0:0:0:
320,192,100858,1,0,0:0:0:0:
192,192,101174,1,0,0:0:0:0:
64,192,101332,1,0,0:0:0:0:
448,192,101490,1,0,0:0:0:0:
320,192,101648,1,0,0:0:0:0:
64,192,101805,1,0,0:0:0:0:
192,192,101963,1,0,0:0:0:0:
320,192,102121,1,0,0:0:0:0:
192,192,102279,1,0,0:0:0:0:
320,192,102437,1,0,0:0:0:0:
448,192,102595,1,0,0:0:0:0:
64,192,102753,1,0,0:0:0:0:
192,192,102753,128,0,103069:0:0:0:0:
320,192,103069,1,0,0:0:0:0:
448,192,103227,1,0,0:0:0:0:
320,192,103384,1,0,0:0:0:0:
64,192,103542,1,0,0:0:0:0:
192,192,103700,1,0,0:0:0:0:
320,192,103858,1,0,0:0:0:0:
448,192,104016,1,0,0:0:0:0:
320,192,104174,1,0,0:0:0:0:
192,192,104332,1,0,0:0:0:0:
64,192,104490,1,0,0:0:0:0:
320,192,104648,128,0,104963:0:0:0:0:
448,192,104648,1,0,0:0:0:0:
192,192,104963,1,0,0:0:0:0:
448,192,105121,1,0,0:0:0:0:
64,192,105279,1,0,0:0:0:0:
448,192,105437,1,0,0:0:0:0:
64,192,105595,1,0,0:0:0:0:
192,192,105595,128,0,105911:0:0:0:0:
320,192,105911,1,0,0:0:0:0:
448,192,106069,1,0,0:0:0:0:
320,192,106227,1,0,0:0:0:0:
192,192,106384,1,0,0:0:0:0:
64,192,106542,128,0,107490:0:0:0:0:
320,192,107016,1,0,0:0:0:0:
192,192,107490,128,0,108437:0:0:0:0:
448,192,107963,1,0,0:0:0:0:
320,192,108437,128,0,109858:0:0:0:0:
64,192,108911,1,0,0:0:0:0:
192,192,109384,1,0,0:0:0:0:
192,192,109858,128,0,110332:0:0:0:0:
448,192,110332,128,0,111279:0:0:0:0:
320,192,110806,1,0,0:0:0:0:
64,192,111279,128,0,112227:0:0:0:0:
448,192,111753,1,0,0:0:0:0:
192,192,112227,128,0,113648:0:0:0:0:
448,192,112700,1,0,0:0:0:0:
320,192,112858,1,0,0:0:0:0:
64,192,113016,1,0,0:0:0:0:
448,192,113174,1,0,0:0:0:0:
448,192,113648,128,0,114121:0:0:0:0:
320,192,114121,128,0,117911:0:0:0:0:
192,192,115069,128,0,117911:0:0:0:0:
64,192,116963,128,0,117911:0:0:0:0:
448,192,117911,128,0,120753:0:0:0:0:
320,192,118384,1,0,0:0:0:0:
192,192,118542,1,0,0:0:0:0:
320,192,118700,1,0,0:0:0:0:
64,192,118858,1,0,0:0:0:0:
320,192,119332,1,0,0:0:0:0:
192,192,119490,1,0,0:0:0:0:
320,192,119648,1,0,0:0:0:0:
64,192,119806,1,0,0:0:0:0:
320,192,120279,1,0,0:0:0:0:
192,192,120437,1,0,0:0:0:0:
320,192,120595,1,0,0:0:0:0:
64,192,120753,1,0,0:0:0:0:
192,192,121227,1,0,0:0:0:0:
320,192,121227,1,0,0:0:0:0:
448,192,121227,1,0,0:0:0:0:
64,192,121227,1,0,0:0:0:0:
