osu file format v14

[General]
AudioFilename: audio.mp3
AudioLeadIn: 0
PreviewTime: 38331
Countdown: 0
SampleSet: Normal
StackLeniency: 0.7
Mode: 3
LetterboxInBreaks: 0
SpecialStyle: 0
WidescreenStoryboard: 1

[Editor]
Bookmarks: 8015,23173,38331,45910,61068,68647,83805,98016
DistanceSpacing: 1.1
BeatDivisor: 3
GridSize: 4
TimelineZoom: 1.4

[Metadata]
Title:Yeti Butts
TitleUnicode:Yeti Butts
Artist:David Fenn
ArtistUnicode:David Fenn
Creator:Gekido-kun
Version:Hard
Source:Titan Souls
Tags:orchestral epic instrumental indie videogame OST piano
BeatmapID:1330685
BeatmapSetID:629083

[Difficulty]
HPDrainRate:7.9
CircleSize:4
OverallDifficulty:7.8
ApproachRate:5
SliderMultiplier:1.4
SliderTickRate:1

[Events]
//Background and Video events
0,0,"yetibutts.jpg",0,0
//Break Periods
//Storyboard Layer 0 (Background)
//Storyboard Layer 1 (Fail)
//Storyboard Layer 2 (Pass)
//Storyboard Layer 3 (Foreground)
//Storyboard Sound Samples

[TimingPoints]
437,473.68670361423,4,1,0,35,1,0

[HitObjects]
64,192,437,5,0,0:0:0:0:
320,192,437,1,0,0:0:0:0:
448,192,437,1,0,0:0:0:0:
448,192,910,1,0,0:0:0:0:
320,192,910,1,0,0:0:0:0:
192,192,1068,1,0,0:0:0:0:
64,192,1226,1,0,0:0:0:0:
320,192,1384,1,0,0:0:0:0:
64,192,1384,1,0,0:0:0:0:
448,192,1384,1,0,0:0:0:0:
320,192,1858,1,0,0:0:0:0:
448,192,1858,1,0,0:0:0:0:
192,192,2015,1,0,0:0:0:0:
64,192,2173,1,0,0:0:0:0:
320,192,2331,1,0,0:0:0:0:
64,192,2331,1,0,0:0:0:0:
448,192,2331,1,0,0:0:0:0:
448,192,2805,1,0,0:0:0:0:
320,192,2805,1,0,0:0:0:0:
192,192,2963,1,0,0:0:0:0:
64,192,3121,1,0,0:0:0:0:
448,192,3279,1,0,0:0:0:0:
192,192,3279,1,0,0:0:0:0:
320,192,3279,1,0,0:0:0:0:
64,192,3752,1,0,0:0:0:0:
320,192,3752,1,0,0:0:0:0:
192,192,3910,1,0,0:0:0:0:
320,192,4068,1,0,0:0:0:0:
448,192,4226,1,0,0:0:0:0:
192,192,4226,1,0,0:0:0:0:
64,192,4226,1,0,0:0:0:0:
64,192,4700,1,0,0:0:0:0:
448,192,4700,1,0,0:0:0:0:
192,192,4858,1,0,0:0:0:0:
320,192,5015,1,0,0:0:0:0:
64,192,5173,1,0,0:0:0:0:
192,192,5173,1,0,0:0:0:0:
320,192,5173,1,0,0:0:0:0:
64,192,5647,1,0,0:0:0:0:
448,192,5647,1,0,0:0:0:0:
192,192,5805,1,0,0:0:0:0:
320,192,5963,1,0,0:0:0:0:
64,192,6121,1,0,0:0:0:0:
192,192,6121,1,0,0:0:0:0:
320,192,6121,1,0,0:0:0:0:
64,192,6594,1,0,0:0:0:0:
448,192,6594,1,0,0:0:0:0:
192,192,6752,1,0,0:0:0:0:
320,192,6910,1,0,0:0:0:0:
64,192,7068,1,0,0:0:0:0:
192,192,7068,1,0,0:0:0:0:
448,192,7068,1,0,0:0:0:0:
448,192,7542,1,0,0:0:0:0:
192,192,7542,1,0,0:0:0:0:
320,192,7700,1,0,0:0:0:0:
192,192,7858,1,0,0:0:0:0:
64,192,8015,1,0,0:0:0:0:
192,192,8173,1,0,0:0:0:0:
448,192,8331,1,0,0:0:0:0:
320,192,8489,1,0,0:0:0:0:
192,192,8647,1,0,0:0:0:0:
320,192,8805,1,0,0:0:0:0:
192,192,8963,1,0,0:0:0:0:
64,192,9121,1,0,0:0:0:0:
448,192,9279,1,0,0:0:0:0:
320,192,9437,1,0,0:0:0:0:
64,192,9594,1,0,0:0:0:0:
192,192,9752,1,0,0:0:0:0:
320,192,9910,1,0,0:0:0:0:
448,192,10068,1,0,0:0:0:0:
320,192,10226,1,0,0:0:0:0:
64,192,10384,1,0,0:0:0:0:
192,192,10542,1,0,0:0:0:0:
320,192,10700,1,0,0:0:0:0:
448,192,10858,1,0,0:0:0:0:
192,192,11016,1,0,0:0:0:0:
64,192,11173,1,0,0:0:0:0:
448,192,11331,1,0,0:0:0:0:
320,192,11489,1,0,0:0:0:0:
192,192,11647,1,0,0:0:0:0:
64,192,11805,1,0,0:0:0:0:
448,192,11963,1,0,0:0:0:0:
320,192,12121,1,0,0:0:0:0:
64,192,12279,1,0,0:0:0:0:
192,192,12437,1,0,0:0:0:0:
320,192,12594,1,0,0:0:0:0:
448,192,12752,1,0,0:0:0:0:
192,192,12910,1,0,0:0:0:0:
64,192,13068,1,0,0:0:0:0:
320,192,13226,1,0,0:0:0:0:
448,192,13384,1,0,0:0:0:0:
64,192,13542,1,0,0:0:0:0:
192,192,13700,1,0,0:0:0:0:
448,192,13858,1,0,0:0:0:0:
320,192,14016,1,0,0:0:0:0:
64,192,14173,1,0,0:0:0:0:
192,192,14331,1,0,0:0:0:0:
320,192,14489,1,0,0:0:0:0:
192,192,14647,128,0,14805:0:0:0:0:
448,192,14805,128,0,14963:0:0:0:0:
64,192,14963,128,0,15121:0:0:0:0:
320,192,15121,128,0,15279:0:0:0:0:
192,192,15279,128,0,15437:0:0:0:0:
448,192,15437,128,0,15594:0:0:0:0:
64,192,15594,128,0,16542:0:0:0:0:
320,192,15594,1,0,0:0:0:0:
320,192,16068,128,0,16542:0:0:0:0:
192,192,16068,1,0,0:0:0:0:
192,192,16542,128,0,17489:0:0:0:0:
448,192,16542,1,0,0:0:0:0:
448,192,17016,128,0,17489:0:0:0:0:
320,192,17016,1,0,0:0:0:0:
320,192,17489,128,0,17805:0:0:0:0:
64,192,17489,1,0,0:0:0:0:
64,192,17805,1,0,0:0:0:0:
192,192,17884,1,0,0:0:0:0:
448,192,17963,128,0,18121:0:0:0:0:
320,192,18121,128,0,18279:0:0:0:0:
64,192,18279,128,0,18437:0:0:0:0:
192,192,18437,128,0,18910:0:0:0:0:
448,192,18437,1,0,0:0:0:0:
448,192,18910,128,0,19068:0:0:0:0:
320,192,19068,128,0,19226:0:0:0:0:
192,192,19226,128,0,19384:0:0:0:0:
64,192,19384,128,0,20094:0:0:0:0:
448,192,19384,1,0,0:0:0:0:
448,192,19858,128,0,20094:0:0:0:0:
320,192,19858,1,0,0:0:0:0:
192,192,20173,1,0,0:0:0:0:
320,192,20252,1,0,0:0:0:0:
448,192,20331,128,0,21279:0:0:0:0:
64,192,20805,128,0,21279:0:0:0:0:
192,192,20805,1,0,0:0:0:0:
320,192,21279,128,0,21752:0:0:0:0:
192,192,21279,1,0,0:0:0:0:
192,192,21752,128,0,21910:0:0:0:0:
448,192,21910,128,0,22068:0:0:0:0:
64,192,22068,128,0,22226:0:0:0:0:
320,192,22226,128,0,23173:0:0:0:0:
192,192,22226,1,0,0:0:0:0:
448,192,22700,1,0,0:0:0:0:
192,192,23173,1,0,0:0:0:0:
64,192,23173,128,0,24121:0:0:0:0:
320,192,23647,128,0,24121:0:0:0:0:
448,192,23647,1,0,0:0:0:0:
192,192,24121,128,0,25068:0:0:0:0:
64,192,24595,128,0,25068:0:0:0:0:
320,192,24595,1,0,0:0:0:0:
448,192,25068,128,0,26016:0:0:0:0:
320,192,25068,1,0,0:0:0:0:
192,192,25542,128,0,26016:0:0:0:0:
64,192,25542,1,0,0:0:0:0:
320,192,26016,128,0,26331:0:0:0:0:
64,192,26331,1,0,0:0:0:0:
192,192,26331,1,0,0:0:0:0:
448,192,26331,1,0,0:0:0:0:
64,192,26647,1,0,0:0:0:0:
320,192,26647,1,0,0:0:0:0:
192,192,26647,1,0,0:0:0:0:
448,192,26963,128,0,27910:0:0:0:0:
320,192,26963,1,0,0:0:0:0:
64,192,27437,128,0,27910:0:0:0:0:
192,192,27437,1,0,0:0:0:0:
192,192,27910,128,0,28858:0:0:0:0:
320,192,27910,1,0,0:0:0:0:
448,192,28384,128,0,28858:0:0:0:0:
64,192,28384,1,0,0:0:0:0:
320,192,28858,128,0,29173:0:0:0:0:
64,192,28858,1,0,0:0:0:0:
192,192,29173,1,0,0:0:0:0:
448,192,29173,1,0,0:0:0:0:
64,192,29173,1,0,0:0:0:0:
192,192,29489,1,0,0:0:0:0:
320,192,29489,1,0,0:0:0:0:
448,192,29489,1,0,0:0:0:0:
64,192,29805,1,0,0:0:0:0:
320,192,29805,1,0,0:0:0:0:
192,192,29963,1,0,0:0:0:0:
448,192,30121,1,0,0:0:0:0:
448,192,30279,1,0,0:0:0:0:
64,192,30279,1,0,0:0:0:0:
320,192,30437,1,0,0:0:0:0:
192,192,30595,1,0,0:0:0:0:
64,192,30752,1,0,0:0:0:0:
320,192,30752,1,0,0:0:0:0:
448,192,30752,1,0,0:0:0:0:
64,192,31226,1,0,0:0:0:0:
192,192,31226,1,0,0:0:0:0:
320,192,31226,1,0,0:0:0:0:
192,192,31700,1,0,0:0:0:0:
320,192,31700,1,0,0:0:0:0:
448,192,31700,1,0,0:0:0:0:
64,192,32174,1,0,0:0:0:0:
192,192,32174,1,0,0:0:0:0:
448,192,32174,1,0,0:0:0:0:
320,192,32647,1,0,0:0:0:0:
448,192,32647,1,0,0:0:0:0:
64,192,32647,1,0,0:0:0:0:
64,192,33121,1,0,0:0:0:0:
192,192,33121,1,0,0:0:0:0:
320,192,33121,1,0,0:0:0:0:
448,192,33595,128,0,34542:0:0:0:0:
320,192,33595,1,0,0:0:0:0:
192,192,33910,1,0,0:0:0:0:
320,192,33910,128,0,34542:0:0:0:0:
64,192,34226,1,0,0:0:0:0:
192,192,34226,128,0,34542:0:0:0:0:
64,192,34542,1,0,0:0:0:0:
64,192,35016,1,0,0:0:0:0:
320,192,35016,1,0,0:0:0:0:
448,192,35016,1,0,0:0:0:0:
192,192,35489,1,0,0:0:0:0:
448,192,35489,1,0,0:0:0:0:
64,192,35489,1,0,0:0:0:0:
320,192,35963,1,0,0:0:0:0:
448,192,35963,1,0,0:0:0:0:
192,192,35963,1,0,0:0:0:0:
64,192,36437,128,0,37384:0:0:0:0:
192,192,36437,1,0,0:0:0:0:
192,192,36752,128,0,37384:0:0:0:0:
320,192,36752,1,0,0:0:0:0:
320,192,37068,128,0,37384:0:0:0:0:
448,192,37068,1,0,0:0:0:0:
448,192,37384,1,0,0:0:0:0:
320,192,37542,1,0,0:0:0:0:
192,192,37700,1,0,0:0:0:0:
64,192,37858,1,0,0:0:0:0:
64,192,38016,1,0,0:0:0:0:
320,192,38174,1,0,0:0:0:0:
192,192,38331,128,0,38568:0:0:0:0:
64,192,38331,128,0,38568:0:0:0:0:
448,192,38331,1,0,0:0:0:0:
192,192,38647,1,0,0:0:0:0:
64,192,38647,1,0,0:0:0:0:
320,192,38805,1,0,0:0:0:0:
192,192,38963,1,0,0:0:0:0:
448,192,39121,1,0,0:0:0:0:
64,192,39279,1,0,0:0:0:0:
192,192,39437,1,0,0:0:0:0:
448,192,39595,1,0,0:0:0:0:
448,192,39752,1,0,0:0:0:0:
320,192,39910,1,0,0:0:0:0:
192,192,40068,1,0,0:0:0:0:
320,192,40226,128,0,40463:0:0:0:0:
448,192,40226,128,0,40463:0:0:0:0:
64,192,40226,1,0,0:0:0:0:
320,192,40542,1,0,0:0:0:0:
448,192,40542,1,0,0:0:0:0:
192,192,40700,1,0,0:0:0:0:
320,192,40858,1,0,0:0:0:0:
64,192,41016,1,0,0:0:0:0:
192,192,41174,1,0,0:0:0:0:
320,192,41331,1,0,0:0:0:0:
448,192,41489,1,0,0:0:0:0:
192,192,41647,1,0,0:0:0:0:
320,192,41805,1,0,0:0:0:0:
448,192,41963,1,0,0:0:0:0:
192,192,42121,128,0,42358:0:0:0:0:
320,192,42121,128,0,42358:0:0:0:0:
64,192,42121,1,0,0:0:0:0:
192,192,42437,1,0,0:0:0:0:
320,192,42437,1,0,0:0:0:0:
448,192,42595,1,0,0:0:0:0:
320,192,42753,1,0,0:0:0:0:
64,192,42910,1,0,0:0:0:0:
64,192,43068,1,0,0:0:0:0:
192,192,43226,1,0,0:0:0:0:
448,192,43384,1,0,0:0:0:0:
320,192,43542,1,0,0:0:0:0:
64,192,43700,1,0,0:0:0:0:
192,192,43858,1,0,0:0:0:0:
448,192,44016,128,0,44253:0:0:0:0:
64,192,44016,128,0,44253:0:0:0:0:
320,192,44016,1,0,0:0:0:0:
64,192,44331,1,0,0:0:0:0:
448,192,44331,1,0,0:0:0:0:
192,192,44489,1,0,0:0:0:0:
320,192,44647,1,0,0:0:0:0:
64,192,44805,1,0,0:0:0:0:
448,192,44963,128,0,45200:0:0:0:0:
320,192,44963,128,0,45200:0:0:0:0:
192,192,44963,1,0,0:0:0:0:
320,192,45279,1,0,0:0:0:0:
448,192,45279,1,0,0:0:0:0:
64,192,45437,1,0,0:0:0:0:
192,192,45595,1,0,0:0:0:0:
320,192,45753,1,0,0:0:0:0:
448,192,45910,128,0,46858:0:0:0:0:
64,192,45910,1,0,0:0:0:0:
64,192,46384,1,0,0:0:0:0:
192,192,46858,128,0,47805:0:0:0:0:
320,192,46858,1,0,0:0:0:0:
320,192,47331,1,0,0:0:0:0:
64,192,47805,128,0,49226:0:0:0:0:
448,192,47805,1,0,0:0:0:0:
448,192,48279,1,0,0:0:0:0:
320,192,48753,1,0,0:0:0:0:
448,192,49226,128,0,49700:0:0:0:0:
320,192,49226,1,0,0:0:0:0:
64,192,49700,128,0,50647:0:0:0:0:
192,192,49700,1,0,0:0:0:0:
320,192,50174,1,0,0:0:0:0:
448,192,50647,128,0,51595:0:0:0:0:
192,192,50647,1,0,0:0:0:0:
64,192,51121,1,0,0:0:0:0:
320,192,51595,128,0,53016:0:0:0:0:
192,192,51595,1,0,0:0:0:0:
448,192,52068,1,0,0:0:0:0:
192,192,52226,1,0,0:0:0:0:
64,192,52384,1,0,0:0:0:0:
192,192,52542,1,0,0:0:0:0:
448,192,53016,1,0,0:0:0:0:
64,192,53016,128,0,53489:0:0:0:0:
192,192,53174,1,0,0:0:0:0:
320,192,53332,1,0,0:0:0:0:
448,192,53489,128,0,54437:0:0:0:0:
192,192,53489,1,0,0:0:0:0:
192,192,53963,1,0,0:0:0:0:
320,192,53963,1,0,0:0:0:0:
64,192,54437,1,0,0:0:0:0:
320,192,54437,128,0,57279:0:0:0:0:
448,192,54910,1,0,0:0:0:0:
64,192,54910,1,0,0:0:0:0:
192,192,55384,1,0,0:0:0:0:
448,192,55384,1,0,0:0:0:0:
192,192,55858,1,0,0:0:0:0:
64,192,55858,1,0,0:0:0:0:
448,192,56332,128,0,57279:0:0:0:0:
64,192,56332,1,0,0:0:0:0:
192,192,56805,1,0,0:0:0:0:
64,192,56805,1,0,0:0:0:0:
192,192,57279,128,0,60121:0:0:0:0:
64,192,57279,1,0,0:0:0:0:
448,192,57753,1,0,0:0:0:0:
64,192,57910,1,0,0:0:0:0:
320,192,58068,1,0,0:0:0:0:
320,192,58226,1,0,0:0:0:0:
448,192,58226,1,0,0:0:0:0:
448,192,58700,1,0,0:0:0:0:
64,192,58858,1,0,0:0:0:0:
320,192,59016,1,0,0:0:0:0:
448,192,59174,1,0,0:0:0:0:
320,192,59174,1,0,0:0:0:0:
448,192,59647,1,0,0:0:0:0:
64,192,59805,1,0,0:0:0:0:
320,192,59963,1,0,0:0:0:0:
320,192,60121,1,0,0:0:0:0:
448,192,60121,1,0,0:0:0:0:
448,192,60595,1,0,0:0:0:0:
64,192,60595,1,0,0:0:0:0:
192,192,60595,1,0,0:0:0:0:
320,192,60595,1,0,0:0:0:0:
448,192,61068,128,0,61542:0:0:0:0:
64,192,61068,1,0,0:0:0:0:
320,192,61068,1,0,0:0:0:0:
64,192,61542,1,0,0:0:0:0:
320,192,61542,1,0,0:0:0:0:
192,192,61700,1,0,0:0:0:0:
320,192,61858,1,0,0:0:0:0:
64,192,62016,1,0,0:0:0:0:
448,192,62016,128,0,62489:0:0:0:0:
320,192,62016,1,0,0:0:0:0:
64,192,62489,1,0,0:0:0:0:
320,192,62489,1,0,0:0:0:0:
192,192,62647,1,0,0:0:0:0:
320,192,62805,1,0,0:0:0:0:
320,192,62963,1,0,0:0:0:0:
448,192,62963,128,0,63437:0:0:0:0:
64,192,62963,1,0,0:0:0:0:
64,192,63437,1,0,0:0:0:0:
320,192,63437,1,0,0:0:0:0:
192,192,63595,1,0,0:0:0:0:
320,192,63753,1,0,0:0:0:0:
192,192,63911,128,0,64384:0:0:0:0:
64,192,63911,1,0,0:0:0:0:
448,192,63911,1,0,0:0:0:0:
448,192,64384,1,0,0:0:0:0:
64,192,64384,1,0,0:0:0:0:
320,192,64542,1,0,0:0:0:0:
64,192,64700,1,0,0:0:0:0:
448,192,64858,1,0,0:0:0:0:
320,192,64858,128,0,65332:0:0:0:0:
192,192,64858,1,0,0:0:0:0:
448,192,65332,1,0,0:0:0:0:
192,192,65332,1,0,0:0:0:0:
64,192,65489,1,0,0:0:0:0:
192,192,65647,1,0,0:0:0:0:
320,192,65805,128,0,66279:0:0:0:0:
192,192,65805,1,0,0:0:0:0:
448,192,65805,1,0,0:0:0:0:
192,192,66279,1,0,0:0:0:0:
448,192,66279,1,0,0:0:0:0:
64,192,66437,1,0,0:0:0:0:
192,192,66595,1,0,0:0:0:0:
320,192,66753,128,0,67226:0:0:0:0:
448,192,66753,1,0,0:0:0:0:
192,192,66753,1,0,0:0:0:0:
192,192,67226,1,0,0:0:0:0:
448,192,67226,1,0,0:0:0:0:
64,192,67384,1,0,0:0:0:0:
192,192,67542,1,0,0:0:0:0:
320,192,67700,1,0,0:0:0:0:
64,192,67700,128,0,68174:0:0:0:0:
448,192,67700,1,0,0:0:0:0:
448,192,68174,1,0,0:0:0:0:
320,192,68332,1,0,0:0:0:0:
192,192,68489,1,0,0:0:0:0:
64,192,68647,128,0,69595:0:0:0:0:
448,192,68647,1,0,0:0:0:0:
192,192,69121,128,0,69595:0:0:0:0:
320,192,69121,1,0,0:0:0:0:
320,192,69595,128,0,70542:0:0:0:0:
448,192,69595,1,0,0:0:0:0:
448,192,70068,128,0,70542:0:0:0:0:
64,192,70068,1,0,0:0:0:0:
64,192,70542,128,0,71016:0:0:0:0:
192,192,70542,1,0,0:0:0:0:
192,192,71016,1,0,0:0:0:0:
448,192,71016,1,0,0:0:0:0:
320,192,71174,1,0,0:0:0:0:
448,192,71332,1,0,0:0:0:0:
192,192,71490,128,0,71963:0:0:0:0:
320,192,71490,1,0,0:0:0:0:
64,192,71963,1,0,0:0:0:0:
448,192,71963,1,0,0:0:0:0:
320,192,72121,1,0,0:0:0:0:
448,192,72279,1,0,0:0:0:0:
192,192,72437,128,0,73384:0:0:0:0:
64,192,72437,1,0,0:0:0:0:
64,192,72911,128,0,73384:0:0:0:0:
448,192,72911,1,0,0:0:0:0:
448,192,73384,128,0,74332:0:0:0:0:
320,192,73384,1,0,0:0:0:0:
320,192,73858,128,0,74332:0:0:0:0:
64,192,73858,1,0,0:0:0:0:
192,192,74332,128,0,74805:0:0:0:0:
64,192,74332,1,0,0:0:0:0:
448,192,74805,1,0,0:0:0:0:
64,192,74805,1,0,0:0:0:0:
320,192,74963,1,0,0:0:0:0:
192,192,75121,1,0,0:0:0:0:
64,192,75279,128,0,75437:0:0:0:0:
448,192,75279,1,0,0:0:0:0:
320,192,75437,128,0,75595:0:0:0:0:
192,192,75595,128,0,75753:0:0:0:0:
448,192,75753,128,0,75911:0:0:0:0:
64,192,75753,1,0,0:0:0:0:
320,192,75911,128,0,76068:0:0:0:0:
192,192,76068,128,0,76226:0:0:0:0:
64,192,76226,128,0,76700:0:0:0:0:
448,192,76226,1,0,0:0:0:0:
320,192,76384,1,0,0:0:0:0:
192,192,76542,1,0,0:0:0:0:
448,192,76700,128,0,77174:0:0:0:0:
320,192,76700,1,0,0:0:0:0:
192,192,76858,1,0,0:0:0:0:
64,192,77016,1,0,0:0:0:0:
320,192,77174,128,0,77647:0:0:0:0:
192,192,77174,1,0,0:0:0:0:
448,192,77332,1,0,0:0:0:0:
64,192,77490,1,0,0:0:0:0:
192,192,77647,128,0,78121:0:0:0:0:
448,192,77647,1,0,0:0:0:0:
64,192,77805,1,0,0:0:0:0:
320,192,77963,1,0,0:0:0:0:
448,192,78121,128,0,78437:0:0:0:0:
64,192,78121,1,0,0:0:0:0:
320,192,78279,1,0,0:0:0:0:
192,192,78437,1,0,0:0:0:0:
64,192,78516,1,0,0:0:0:0:
448,192,78595,1,0,0:0:0:0:
320,192,78595,1,0,0:0:0:0:
192,192,78753,1,0,0:0:0:0:
320,192,78911,1,0,0:0:0:0:
448,192,79068,128,0,79542:0:0:0:0:
64,192,79068,1,0,0:0:0:0:
320,192,79226,1,0,0:0:0:0:
192,192,79384,1,0,0:0:0:0:
64,192,79542,1,0,0:0:0:0:
320,192,79542,1,0,0:0:0:0:
192,192,79700,1,0,0:0:0:0:
320,192,79858,1,0,0:0:0:0:
64,192,80016,128,0,80490:0:0:0:0:
448,192,80016,1,0,0:0:0:0:
320,192,80174,1,0,0:0:0:0:
192,192,80332,1,0,0:0:0:0:
320,192,80490,128,0,80805:0:0:0:0:
448,192,80490,1,0,0:0:0:0:
192,192,80647,1,0,0:0:0:0:
64,192,80805,1,0,0:0:0:0:
192,192,80884,1,0,0:0:0:0:
320,192,80963,1,0,0:0:0:0:
448,192,80963,128,0,81437:0:0:0:0:
64,192,81121,1,0,0:0:0:0:
192,192,81279,1,0,0:0:0:0:
320,192,81437,128,0,81911:0:0:0:0:
64,192,81437,1,0,0:0:0:0:
448,192,81595,1,0,0:0:0:0:
192,192,81753,1,0,0:0:0:0:
64,192,81911,128,0,82384:0:0:0:0:
448,192,81911,1,0,0:0:0:0:
192,192,82069,1,0,0:0:0:0:
320,192,82226,1,0,0:0:0:0:
448,192,82384,1,0,0:0:0:0:
192,192,82384,1,0,0:0:0:0:
320,192,82542,1,0,0:0:0:0:
64,192,82700,1,0,0:0:0:0:
192,192,82858,128,0,83332:0:0:0:0:
448,192,82858,128,0,91384:0:0:0:0:
64,192,83332,1,0,0:0:0:0:
320,192,83332,1,0,0:0:0:0:
64,192,83805,128,0,84279:0:0:0:0:
192,192,83805,128,0,84279:0:0:0:0:
320,192,84279,1,0,0:0:0:0:
320,192,84753,128,0,85226:0:0:0:0:
192,192,84753,128,0,85226:0:0:0:0:
64,192,85226,1,0,0:0:0:0:
64,192,85700,128,0,86174:0:0:0:0:
320,192,85700,128,0,86174:0:0:0:0:
192,192,86174,1,0,0:0:0:0:
192,192,86647,1,0,0:0:0:0:
64,192,86963,1,0,0:0:0:0:
320,192,86963,1,0,0:0:0:0:
192,192,86963,128,0,87279:0:0:0:0:
64,192,87279,128,0,87595:0:0:0:0:
320,192,87279,1,0,0:0:0:0:
320,192,87595,128,0,88069:0:0:0:0:
192,192,87595,1,0,0:0:0:0:
64,192,88069,1,0,0:0:0:0:
192,192,88069,1,0,0:0:0:0:
64,192,88542,128,0,89016:0:0:0:0:
320,192,88542,128,0,89016:0:0:0:0:
192,192,89016,1,0,0:0:0:0:
64,192,89490,1,0,0:0:0:0:
320,192,89805,1,0,0:0:0:0:
64,192,89805,128,0,90121:0:0:0:0:
192,192,89805,1,0,0:0:0:0:
192,192,90121,128,0,90437:0:0:0:0:
320,192,90121,1,0,0:0:0:0:
320,192,90437,1,0,0:0:0:0:
64,192,90437,1,0,0:0:0:0:
192,192,90595,1,0,0:0:0:0:
320,192,90753,1,0,0:0:0:0:
64,192,90911,1,0,0:0:0:0:
320,192,90911,1,0,0:0:0:0:
192,192,91069,1,0,0:0:0:0:
64,192,91226,1,0,0:0:0:0:
320,192,91384,1,0,0:0:0:0:
64,192,91384,1,0,0:0:0:0:
192,192,91384,1,0,0:0:0:0:
