osu file format v14

[General]
AudioFilename: audio.mp3
AudioLeadIn: 0
PreviewTime: 76126
Countdown: 0
SampleSet: Soft
StackLeniency: 0.4
Mode: 0
LetterboxInBreaks: 0
WidescreenStoryboard: 0

[Editor]
Bookmarks: 151222
DistanceSpacing: 1.5
BeatDivisor: 8
GridSize: 8
TimelineZoom: 5.199997

[Metadata]
Title:With A Little Bit Of True Love
TitleUnicode:With A Little Bit Of True Love
Artist:David Dima
ArtistUnicode:David Dima
Creator:JABIRIGUIBARETO
Version:TRUE LOVE
Source:SUPER EUROBEAT VOL. 231
Tags:Initial D
BeatmapID:1693456
BeatmapSetID:806794

[Difficulty]
HPDrainRate:6.5
CircleSize:4
OverallDifficulty:7.9
ApproachRate:9.7
SliderMultiplier:1.7
SliderTickRate:2

[Events]
//Background and Video events
0,0,"1920x1080_px_car_Drift_FC-676838.jpg",0,0
//Break Periods
//Storyboard Layer 0 (Background)
//Storyboard Layer 1 (Fail)
//Storyboard Layer 2 (Pass)
//Storyboard Layer 3 (Foreground)
//Storyboard Layer 4 (Overlay)
//Storyboard Sound Samples

[TimingPoints]
12909,405.378904109589,4,2,1,65,1,0
24260,405.378904109589,4,2,1,65,1,0
25881,-100,4,2,1,65,0,1
51825,-100,4,2,1,65,0,0
52231,-66.6666666666667,4,2,0,65,0,0
52636,-83.3333333333333,4,2,0,65,0,0
53425,-100,4,2,0,65,0,0
55046,-66.6666666666667,4,2,0,65,0,0
57479,-40.3225806451613,4,2,0,65,0,0
58289,-66.6666666666667,4,2,0,65,0,0
60114,-25,4,2,0,65,0,0
61532,-250,4,2,0,65,0,0
62140,-100,4,2,0,65,0,0
62748,-80,4,2,0,65,0,0
64775,-66.6666666666667,4,2,0,65,0,0
66093,-58.8235294117647,4,2,0,65,0,0
67208,-100,4,2,0,65,0,0
68626,-66.6666666666667,4,2,0,65,0,0
70451,-39.8406374501992,4,2,0,65,0,0
71261,-333.333333333333,4,2,0,65,0,0
72275,-66.6666666666667,4,2,0,65,0,0
77770,-66.6666666666667,4,2,0,65,0,1
78662,-37.037037037037,4,2,0,65,0,1
79572,-45.4545454545455,4,2,0,65,0,1
80991,-66.6666666666667,4,2,0,65,0,1
89504,-500,4,2,0,65,0,1
90720,-100,4,2,0,65,0,1
91024,-66.6666666666667,4,2,0,65,0,1
94672,-333.333333333333,4,2,0,65,0,1
95606,-333.333333333333,4,2,0,65,0,1
95787,-66.6666666666667,4,2,0,65,0,1
97915,-333.333333333333,4,2,0,65,0,1
98827,-66.6666666666667,4,2,0,65,0,1
102295,-66.6666666666667,4,2,0,65,0,0
103714,-66.6666666666667,4,2,0,65,0,1
104097,-58.4795321637427,4,2,0,65,0,1
109367,-133.333333333333,4,2,0,65,0,1
110583,-58.4795321637427,4,2,0,65,0,1
115448,-166.666666666667,4,2,0,65,0,1
116259,-100,4,2,0,65,0,1
117069,-58.4795321637427,4,2,0,65,0,1
129658,-133.333333333333,4,2,0,65,0,0
130244,-70.9219858156028,4,2,0,65,0,0
133892,-100,4,2,0,65,0,0
135109,-66.2251655629139,4,2,0,65,0,0
137946,-25,4,2,0,65,0,0
138374,-50,4,2,0,65,0,0
139162,-66.6666666666667,4,2,0,65,0,0
139568,-66.2251655629139,4,2,0,65,0,0
140989,-133.333333333333,4,2,0,65,0,0
142610,-66.2251655629139,4,2,0,65,0,0
146459,-82.6446280991736,4,2,0,65,0,0
148081,-133.333333333333,4,2,0,65,0,0
148283,-66.6666666666667,4,2,0,65,0,0
150817,-100,4,2,0,65,0,0
154567,-50,4,2,0,65,0,0
155580,-166.666666666667,4,2,0,65,0,0
168552,-100,4,2,0,65,0,0
181547,-100,4,2,0,65,0,1
182538,-66.6666666666667,4,2,0,65,0,1
193078,-133.333333333333,4,2,0,65,0,1
197334,-66.6666666666667,4,2,0,65,0,1
197740,-166.666666666667,4,2,0,65,0,1
198145,-55.5555555555556,4,2,0,65,0,1
207063,-133.333333333333,4,2,0,65,0,1
207469,-66.6666666666667,4,2,0,65,0,1
219225,-133.333333333333,4,2,0,65,0,1
220036,-66.6666666666667,4,2,0,65,0,1
222873,-133.333333333333,4,2,0,65,0,1
223684,-66.6666666666667,4,2,0,65,0,1
226927,-100,4,2,0,65,0,1
228143,-50,4,2,0,65,0,1
231994,-100,4,2,0,65,0,1
232910,-200,4,2,0,65,0,1
233435,-200,4,2,0,65,0,0

[Colours]
Combo1 : 255,128,0
Combo2 : 211,211,211
Combo3 : 255,215,0
Combo4 : 220,20,60

[HitObjects]
256,192,12908,12,0,24260,0:0:0:0:
123,68,25881,6,0,P|77:118|78:166,1,85,14|0,0:0|0:0,0:0:0:0:
213,337,26286,1,8,0:0:0:0:
142,311,26388,1,0,0:0:0:0:
91,260,26489,1,0,0:0:0:0:
250,48,26692,5,8,0:0:0:0:
299,100,26793,1,0,0:0:0:0:
338,161,26894,1,0,0:0:0:0:
362,229,26996,1,0,0:0:0:0:
370,301,27097,1,8,0:0:0:0:
273,223,27300,5,0,0:0:0:0:
203,241,27401,1,0,0:0:0:0:
134,222,27503,5,8,0:0:0:0:
87,168,27604,1,0,0:0:0:0:
89,98,27705,1,0,0:0:0:0:
330,29,27908,5,8,0:0:0:0:
391,65,28009,1,0,0:0:0:0:
428,125,28111,1,0,0:0:0:0:
434,197,28212,1,0,0:0:0:0:
405,262,28313,1,8,0:0:0:0:
222,161,28719,1,8,0:0:0:0:
372,316,29124,6,0,P|418:266|417:218,1,85,10|0,0:0|0:0,0:0:0:0:
321,237,29529,1,8,0:0:0:0:
251,223,29631,1,0,0:0:0:0:
193,181,29732,1,0,0:0:0:0:
218,49,29935,5,8,0:0:0:0:
148,64,30036,1,0,0:0:0:0:
86,101,30137,1,0,0:0:0:0:
53,165,30239,1,0,0:0:0:0:
49,236,30340,1,8,0:0:0:0:
174,162,30543,5,0,0:0:0:0:
246,165,30644,1,0,0:0:0:0:
316,181,30746,5,8,0:0:0:0:
379,215,30847,1,0,0:0:0:0:
433,263,30948,1,0,0:0:0:0:
378,43,31151,5,8,0:0:0:0:
326,91,31252,1,0,0:0:0:0:
255,87,31354,1,0,0:0:0:0:
187,66,31455,1,0,0:0:0:0:
118,82,31556,1,8,0:0:0:0:
177,226,31962,1,8,0:0:0:0:
379,59,32367,6,0,P|429:105|430:153,1,85,10|0,0:0|0:0,0:0:0:0:
386,251,32772,1,8,0:0:0:0:
336,303,32874,1,0,0:0:0:0:
269,324,32975,1,0,0:0:0:0:
287,174,33178,5,8,0:0:0:0:
214,180,33279,1,0,0:0:0:0:
144,168,33381,1,0,0:0:0:0:
83,129,33482,1,0,0:0:0:0:
47,68,33583,1,8,0:0:0:0:
237,49,33786,5,0,0:0:0:0:
307,63,33887,1,0,0:0:0:0:
371,95,33989,5,8,0:0:0:0:
419,149,34090,1,0,0:0:0:0:
451,213,34191,1,0,0:0:0:0:
315,183,34394,5,8,0:0:0:0:
260,230,34495,1,0,0:0:0:0:
195,261,34597,1,0,0:0:0:0:
124,264,34698,1,0,0:0:0:0:
56,238,34799,1,8,0:0:0:0:
156,83,35205,1,8,0:0:0:0:
43,71,35610,6,0,P|108:101|125:132,1,85,10|0,0:0|0:0,0:0:0:0:
449,54,36015,1,8,0:0:0:0:
391,81,36117,1,0,0:0:0:0:
359,136,36218,1,0,0:0:0:0:
99,180,36421,5,8,0:0:0:0:
169,175,36522,1,0,0:0:0:0:
221,224,36624,1,0,0:0:0:0:
226,293,36725,1,0,0:0:0:0:
183,351,36826,1,8,0:0:0:0:
404,330,37029,5,0,0:0:0:0:
407,258,37130,1,0,0:0:0:0:
397,187,37232,5,8,0:0:0:0:
372,118,37333,1,0,0:0:0:0:
334,58,37434,1,0,0:0:0:0:
106,37,37637,6,2,L|36:94,1,85,10|2,0:0|0:0,0:0:0:0:
428,89,38042,2,2,L|510:135,1,85,10|2,0:0|0:0,0:0:0:0:
194,277,38448,2,2,L|113:322,1,85,10|2,0:0|0:0,0:0:0:0:
348,204,38853,6,0,P|398:235|423:282,1,85,12|0,0:0|0:0,0:0:0:0:
324,333,39259,1,8,0:0:0:0:
270,285,39360,1,0,0:0:0:0:
215,237,39461,1,0,0:0:0:0:
250,32,39664,5,8,0:0:0:0:
197,80,39765,1,0,0:0:0:0:
143,129,39867,1,0,0:0:0:0:
90,178,39968,1,0,0:0:0:0:
37,227,40069,1,8,0:0:0:0:
213,337,40272,5,0,0:0:0:0:
263,285,40373,1,0,0:0:0:0:
314,234,40475,5,8,0:0:0:0:
365,184,40576,1,0,0:0:0:0:
417,133,40677,1,0,0:0:0:0:
435,281,40880,5,8,0:0:0:0:
378,235,40981,1,0,0:0:0:0:
322,189,41083,1,0,0:0:0:0:
266,144,41184,1,0,0:0:0:0:
210,98,41285,1,8,0:0:0:0:
427,73,41691,1,8,0:0:0:0:
162,259,42096,6,10,P|131:308|133:356,1,85,10|0,0:0|0:0,0:0:0:0:
287,190,42502,1,8,0:0:0:0:
319,254,42603,1,0,0:0:0:0:
324,326,42704,1,0,0:0:0:0:
315,61,42907,5,8,0:0:0:0:
242,65,43008,1,0,0:0:0:0:
175,88,43110,1,0,0:0:0:0:
115,129,43211,1,0,0:0:0:0:
70,185,43312,1,8,0:0:0:0:
132,324,43515,5,0,0:0:0:0:
174,265,43616,1,0,0:0:0:0:
230,220,43718,5,8,0:0:0:0:
297,192,43819,1,0,0:0:0:0:
368,182,43920,1,0,0:0:0:0:
298,30,44123,5,8,0:0:0:0:
366,52,44224,1,0,0:0:0:0:
419,99,44326,1,0,0:0:0:0:
450,165,44427,1,0,0:0:0:0:
452,236,44528,1,8,0:0:0:0:
303,190,44934,1,8,0:0:0:0:
123,68,45339,6,0,P|77:118|78:166,1,85,10|0,0:0|0:0,0:0:0:0:
133,340,45745,1,8,0:0:0:0:
174,281,45846,1,0,0:0:0:0:
236,245,45947,1,0,0:0:0:0:
314,29,46150,5,8,0:0:0:0:
331,99,46251,1,0,0:0:0:0:
350,169,46353,1,0,0:0:0:0:
368,239,46454,1,0,0:0:0:0:
386,309,46555,1,8,0:0:0:0:
428,89,46758,5,0,0:0:0:0:
367,130,46859,1,0,0:0:0:0:
308,170,46961,5,8,0:0:0:0:
248,210,47062,1,0,0:0:0:0:
188,251,47163,1,0,0:0:0:0:
110,165,47366,5,8,0:0:0:0:
181,176,47467,1,0,0:0:0:0:
247,205,47569,1,0,0:0:0:0:
305,249,47670,1,0,0:0:0:0:
350,305,47771,1,8,0:0:0:0:
180,322,48177,1,8,0:0:0:0:
414,138,48582,6,0,P|364:92|362:44,1,85,2|0,0:0|0:0,0:0:0:0:
59,70,48988,1,10,0:0:0:0:
128,51,49089,1,0,0:0:0:0:
200,57,49190,1,0,0:0:0:0:
461,104,49393,5,10,0:0:0:0:
427,167,49494,1,0,0:0:0:0:
366,204,49596,1,0,0:0:0:0:
294,203,49697,1,0,0:0:0:0:
234,165,49798,1,10,0:0:0:0:
108,101,50001,5,0,0:0:0:0:
68,160,50102,1,0,0:0:0:0:
68,231,50204,1,10,0:0:0:0:
106,291,50305,1,0,0:0:0:0:
161,243,50406,1,4,0:0:0:0:
253,128,50609,5,10,0:0:0:0:
315,161,50710,1,0,0:0:0:0:
348,224,50812,1,0,0:0:0:0:
339,296,50913,1,0,0:0:0:0:
274,271,51015,1,14,0:0:0:0:
68,326,51420,1,12,0:0:0:0:
443,57,51825,5,10,0:0:0:0:
99,293,52231,6,0,P|195:306|235:304,1,127.500004863739,0|8,0:0|0:0,0:0:0:0:
422,154,52636,2,0,B|309:118,1,101.999996887207
221,44,53041,2,0,L|170:141,1,101.999996887207
68,212,53447,2,0,B|146:316,1,127.5
269,226,53852,2,0,B|296:145|296:145|308:179,1,106.25
371,323,54258,2,0,L|390:269,5,42.5,8|0|0|0|8|0,0:0|0:0|0:0|0:0|0:0|0:0,0:0:0:0:
171,66,55068,6,0,P|125:108|95:181,1,127.500004863739,8|0,0:0|0:0,0:0:0:0:
112,246,55372,1,0,0:0:0:0:
167,306,55474,1,0,0:0:0:0:
248,327,55575,1,0,0:0:0:0:
330,327,55676,2,0,L|456:274,1,127.500004863739,0|8,0:0|0:0,0:0:0:0:
176,194,56082,2,0,L|46:151,1,127.500004863739,0|8,0:0|0:0,0:0:0:0:
349,108,56487,2,0,L|475:56,1,127.500004863739,0|8,0:0|0:0,0:0:0:0:
172,90,56893,6,0,B|91:77|77:134|77:134|104:205|104:205|129:244|209:241|209:241,1,255.000009727478
475,288,57501,6,0,L|417:234,11,70.2666638789877,8|0|0|0|0|0|8|0|0|0|0|0,0:0|0:0|0:0|0:0|0:0|0:0|0:0|0:0|0:0|0:0|0:0|0:0,0:0:0:0:
307,294,58311,6,8,L|106:136,1,255.000009727478,10|8,0:0|0:0,0:0:0:0:
0,216,58919,6,0,L|115:308,1,127.500004863739,0|8,0:0|0:0,0:0:0:0:
307,294,59325,2,0,L|400:194,1,127.500004863739,0|8,0:0|0:0,0:0:0:0:
204,89,59730,2,0,L|111:189,1,127.500004863739,0|8,0:0|0:0,0:0:0:0:
352,161,60136,2,0,L|394:200,9,56.6666666666667,0|0|0|0|0|0|8|0|0|0,0:0|0:0|0:0|0:0|0:0|0:0|0:0|0:0|0:0|0:0,0:0:0:0:
128,264,60541,2,0,L|82:314,12,42.5,0|0|0|0|0|0|0|0|8|0|0|0|0,0:0|0:0|0:0|0:0|0:0|0:0|0:0|0:0|0:0|0:0|0:0|0:0|0:0,0:0:0:0:
260,319,60946,2,0,B|251:64|251:64|256:192|256:192,2,340,0|8|0,0:0|0:0|0:0,0:0:0:0:
427,57,61554,6,8,L|373:111,1,68,10|8,0:0|0:0,0:0:0:0:
111,181,62162,2,0,B|146:259|146:259|244:320,1,170,2|0,0:0|0:0,0:0:0:0:
399,186,62770,2,10,B|310:136|310:136|274:25|274:25,1,212.5
256,192,63277,12,0,64189,0:0:0:0:
172,98,64797,5,8,0:0:0:0:
109,117,64899,5,0,0:0:0:0:
63,166,65000,5,0,0:0:0:0:
370,252,65203,5,8,0:0:0:0:
416,202,65304,5,0,0:0:0:0:
430,137,65405,6,0,P|349:108|317:125,1,127.500004863739,0|8,0:0|0:0,0:0:0:0:
271,175,65709,5,0,0:0:0:0:
241,240,65811,2,0,P|179:290|130:276,1,127.500004863739,0|8,0:0|0:0,0:0:0:0:
81,246,66115,5,0,0:0:0:0:
47,183,66216,1,0,0:0:0:0:
62,113,66318,1,0,0:0:0:0:
123,68,66419,2,8,B|186:34|186:34|316:25|405:88,1,289.000005512238
451,281,67027,5,0,0:0:0:0:
78,166,67230,6,0,L|45:119,5,42.5,8|0|0|0|8|0,0:0|0:0|0:0|0:0|0:0|0:0,0:0:0:0:
188,98,67838,1,0,0:0:0:0:
445,105,68040,6,8,P|479:184|451:281,1,170
101,341,68648,2,0,L|225:241,1,127.500004863739,0|8,0:0|0:0,0:0:0:0:
413,122,69054,2,0,L|266:47,1,127.500004863739,0|8,0:0|0:0,0:0:0:0:
92,101,69459,2,0,B|24:208|24:208|131:308,2,255.000009727478
429,105,70473,6,0,L|386:43,11,71.1166671007284,8|0|0|0|0|0|8|0|0|0|0|0,0:0|0:0|0:0|0:0|0:0|0:0|0:0|0:0|0:0|0:0|0:0|0:0,0:0:0:0:
193,226,71283,6,10,P|192:210|224:209,1,50.9999984436036
308,318,71892,5,0,0:0:0:0:
427,73,72094,1,8,0:0:0:0:
156,99,72297,2,0,P|78:150|64:214,1,127.500004863739,0|8,0:0|0:0,0:0:0:0:
245,336,72702,2,0,P|308:334|371:300,1,127.500004863739,0|8,0:0|0:0,0:0:0:0:
443,57,73108,6,0,B|347:60|347:60|301:110,1,127.500004863739,0|8,0:0|0:0,0:0:0:0:
404,330,73513,2,0,B|308:334|308:334|275:303,1,127.500004863739,0|8,0:0|0:0,0:0:0:0:
204,97,73918,2,0,B|256:215|256:215|109:117,1,255.000009727478
256,192,74425,12,0,76149,0:0:0:0:
141,115,77770,6,0,P|203:65|250:48,1,127.500004863739,14|0,0:0|0:0,0:0:0:0:
466,248,78175,1,8,0:0:0:0:
411,282,78276,1,0,0:0:0:0:
356,316,78378,2,0,B|262:367|262:367|213:353,1,127.500004863739,0|8,0:0|0:0,0:0:0:0:
148,323,78682,5,0,0:0:0:0:
82,287,78783,1,0,0:0:0:0:
48,219,78884,1,0,0:0:0:0:
61,144,78986,6,0,P|59:254|147:322,1,229.500000875473
227,305,79391,5,8,0:0:0:0:
255,217,79492,1,0,0:0:0:0:
237,128,79594,2,0,B|155:51|155:51|235:64,1,187.000005706787,0|8,0:0|0:0,0:0:0:0:
396,93,79999,5,0,0:0:0:0:
353,332,80202,1,8,0:0:0:0:
114,290,80404,1,0,0:0:0:0:
156,50,80607,2,0,L|115:292,1,187.000005706787,8|0,0:0|0:0,0:0:0:0:
353,332,81013,6,0,L|466:248,1,127.500004863739,10|0,0:0|0:0,0:0:0:0:
413,106,81418,1,8,0:0:0:0:
348,92,81519,1,0,0:0:0:0:
284,78,81621,1,0,0:0:0:0:
219,65,81722,2,0,L|173:114,1,63.7500024318696,0|8,0:0|0:0,0:0:0:0:
97,229,82026,5,0,0:0:0:0:
115,292,82127,1,0,0:0:0:0:
165,339,82229,1,8,0:0:0:0:
229,353,82330,2,0,P|262:348|293:334,1,63.7500024318696
418,250,82634,5,8,0:0:0:0:
447,185,82735,1,0,0:0:0:0:
413,122,82837,2,0,P|349:124|319:189,1,127.500004863739,0|8,0:0|0:0,0:0:0:0:
203,49,83242,5,0,0:0:0:0:
47,167,83445,2,0,P|49:247|98:277,1,127.500004863739,8|0,0:0|0:0,0:0:0:0:
362,44,83850,2,0,L|415:186,1,127.500004863739,8|0,0:0|0:0,0:0:0:0:
211,289,84256,2,0,B|131:308|131:308|82:262,1,127.500004863739,10|0,0:0|0:0,0:0:0:0:
109,133,84661,5,8,0:0:0:0:
158,147,84762,1,0,0:0:0:0:
205,129,84864,2,0,B|260:95|260:95|293:118|332:101,1,127.500004863739,0|8,0:0|0:0,0:0:0:0:
455,185,85168,5,0,0:0:0:0:
466,248,85269,1,0,0:0:0:0:
435,297,85370,2,0,P|389:347|389:347,2,63.7500024318696,0|8|0,0:0|0:0|0:0,0:0:0:0:
204,89,85877,5,8,0:0:0:0:
174,138,85978,1,0,0:0:0:0:
160,195,86080,2,0,B|151:264|180:322|180:322,2,127.500004863739,0|8|0,0:0|0:0|0:0,0:0:0:0:
74,38,86688,5,8,0:0:0:0:
82,278,86891,1,0,0:0:0:0:
316,77,87093,1,8,0:0:0:0:
324,333,87296,2,0,P|420:314|450:249,1,127.500004863739,0|10,0:0|0:0,0:0:0:0:
463,168,87701,6,0,L|413:122,1,63.7500024318696
364,76,87904,5,8,0:0:0:0:
299,62,88005,1,0,0:0:0:0:
236,80,88107,2,0,B|172:98|172:98|159:179,1,127.500004863739,0|8,0:0|0:0,0:0:0:0:
77,118,88512,5,0,0:0:0:0:
64,198,88613,1,0,0:0:0:0:
82,278,88715,1,8,0:0:0:0:
163,307,88816,1,0,0:0:0:0:
450,249,89120,5,8,0:0:0:0:
298,46,89323,1,0,0:0:0:0:
123,68,89526,6,0,L|108:85,1,17,10|0,0:0|0:0,0:0:0:0:
243,304,89931,2,0,L|259:287,1,17,10|0,0:0|0:0,0:0:0:0:
411,74,90336,2,0,L|395:59,1,17,8|0,0:0|0:0,0:0:0:0:
78,166,90742,6,0,P|54:216|49:247,1,85,12|0,0:0|0:0,0:0:0:0:
132,324,91147,5,8,0:0:0:0:
187,290,91248,1,0,0:0:0:0:
244,320,91350,1,0,0:0:0:0:
299,286,91451,2,0,L|345:220,1,63.7500024318696,0|8,0:0|0:0,0:0:0:0:
493,119,91755,5,0,0:0:0:0:
459,56,91856,1,0,0:0:0:0:
395,59,91958,1,8,0:0:0:0:
365,124,92059,2,0,L|304:162,1,63.7500024318696,8|0,0:0|0:0,0:0:0:0:
86,149,92363,6,0,L|147:111,1,63.7500024318696,8|0,0:0|0:0,0:0:0:0:
140,114,92566,2,0,L|142:178,1,63.7500024318696
82,262,92769,5,8,0:0:0:0:
245,336,92971,1,0,0:0:0:0:
418,266,93174,1,8,0:0:0:0:
412,90,93377,1,0,0:0:0:0:
234,32,93579,2,0,L|125:116,1,127.500004863739,8|0,0:0|0:0,0:0:0:0:
98,261,93985,6,0,P|116:324|181:338,1,127.500004863739,10|0,0:0|0:0,0:0:0:0:
308,318,94390,1,8,0:0:0:0:
354,268,94491,1,0,0:0:0:0:
336,205,94593,1,0,0:0:0:0:
382,155,94694,2,0,L|382:139,2,12.7499996109009,0|8|0,0:0|0:0|0:0,0:0:0:0:
432,201,94998,5,0,0:0:0:0:
418,266,95099,1,0,0:0:0:0:
468,312,95201,2,0,L|452:313,1,12.7499996109009,8|0,0:0|0:0,0:0:0:0:
130,276,95606,5,8,0:0:0:0:
96,213,95708,1,0,0:0:0:0:
126,148,95809,2,0,B|163:89|252:80|252:80,1,127.500004863739,0|8,0:0|0:0,0:0:0:0:
426,41,96214,2,0,P|461:104|463:184,1,127.500004863739,0|8,0:0|0:0,0:0:0:0:
355,300,96620,1,0,0:0:0:0:
219,65,96822,2,0,P|157:131|127:180,1,127.500004863739,8|0,0:0|0:0,0:0:0:0:
133,340,97228,2,0,P|98:261|112:197,1,127.500004863739,10|0,0:0|0:0,0:0:0:0:
354,268,97633,5,8,0:0:0:0:
385,219,97734,1,0,0:0:0:0:
367,172,97836,1,0,0:0:0:0:
318,141,97937,2,0,L|302:142,1,12.7499996109009,0|8,0:0|0:0,0:0:0:0:
281,223,98140,5,0,0:0:0:0:
234,256,98241,1,0,0:0:0:0:
185,242,98342,1,0,0:0:0:0:
168,195,98444,1,8,0:0:0:0:
182,146,98545,2,0,L|197:129,1,12.7499996109009
357,348,98849,6,0,P|420:314|434:249,1,127.500004863739,8|0,0:0|0:0,0:0:0:0:
396,75,99255,5,8,0:0:0:0:
273,223,99457,1,0,0:0:0:0:
140,83,99660,5,8,0:0:0:0:
210,273,99863,1,0,0:0:0:0:
316,93,100065,5,8,0:0:0:0:
401,234,100268,2,0,P|419:298|373:347,1,127.500004863739,2|8,0:0|0:0,0:0:0:0:
203,65,100673,5,0,0:0:0:0:
66,278,100876,1,8,0:0:0:0:
324,333,101079,2,2,P|387:299|418:250,1,127.500004863739,2|10,0:0|0:0,0:0:0:0:
378,43,101484,5,0,0:0:0:0:
78,150,101687,1,8,0:0:0:0:
468,328,101890,2,0,P|450:249|401:218,1,127.500004863739,2|10,0:0|0:0,0:0:0:0:
256,192,102295,12,0,103511,0:0:0:0:
370,252,103714,6,0,P|415:203|425:124,1,127.500004863739,12|0,0:0|0:0,0:0:0:0:
193,306,104119,1,8,0:0:0:0:
185,234,104220,1,0,0:0:0:0:
213,170,104322,2,0,B|274:109|274:109|178:131|175:128,1,145.350004546623,0|8,0:0|0:0,0:0:0:0:
141,131,104626,5,0,0:0:0:0:
83,175,104727,1,0,0:0:0:0:
37,230,104829,1,0,0:0:0:0:
3,294,104930,1,8,0:0:0:0:
324,333,105133,5,0,0:0:0:0:
349,264,105234,1,0,0:0:0:0:
375,196,105335,1,8,0:0:0:0:
400,128,105437,1,0,0:0:0:0:
427,57,105538,2,0,P|393:11|298:30,1,145.350004546623,0|8,0:0|0:0,0:0:0:0:
268,79,105842,5,0,0:0:0:0:
242,146,105943,1,0,0:0:0:0:
198,204,106045,1,0,0:0:0:0:
137,244,106146,2,0,B|114:260|65:277|65:277|147:322,1,145.350004546623,8|0,0:0|0:0,0:0:0:0:
388,315,106551,6,0,P|450:265|463:184,1,145.350004546623,8|0,0:0|0:0,0:0:0:0:
282,46,106957,6,0,P|186:34|124:84,1,145.350004546623,10|0,0:0|0:0,0:0:0:0:
237,128,107362,5,8,0:0:0:0:
297,169,107464,1,0,0:0:0:0:
289,242,107565,2,0,L|210:257,2,72.6750022733117,0|0|8,0:0|0:0|0:0,0:0:0:0:
369,220,107869,5,0,0:0:0:0:
414,166,107970,1,0,0:0:0:0:
398,96,108072,1,0,0:0:0:0:
346,44,108173,2,0,B|234:32|234:32|203:65,1,145.350004546623,8|0,0:0|0:0,0:0:0:0:
157,115,108477,5,0,0:0:0:0:
124,178,108578,1,8,0:0:0:0:
149,244,108680,1,0,0:0:0:0:
213,277,108781,2,0,B|291:302|291:302|213:337,1,145.350004546623,0|8,0:0|0:0,0:0:0:0:
321,221,109085,5,0,0:0:0:0:
368,166,109186,1,0,0:0:0:0:
415,110,109288,1,0,0:0:0:0:
459,56,109389,2,0,L|461:120,1,63.7500024318696,8|0,0:0|0:0,0:0:0:0:
228,321,109794,2,0,L|225:241,1,63.7500024318696,8|0,0:0|0:0,0:0:0:0:
43,71,110200,6,0,L|45:135,1,63.7500024318696,10|0,0:0|0:0,0:0:0:0:
155,51,110605,5,8,0:0:0:0:
157,123,110707,1,0,0:0:0:0:
160,195,110808,2,0,B|162:275|162:275|242:272,1,145.350004546623,0|8,0:0|0:0,0:0:0:0:
290,270,111112,5,0,0:0:0:0:
362,268,111213,1,0,0:0:0:0:
435,265,111315,1,0,0:0:0:0:
432,192,111416,2,0,B|427:73|427:73|380:75,1,145.350004546623,8|0,0:0|0:0,0:0:0:0:
332,77,111720,5,0,0:0:0:0:
259,79,111821,1,8,0:0:0:0:
186,82,111923,1,0,0:0:0:0:
113,84,112024,2,0,B|76:86|76:86|80:214,1,145.350004546623,0|8,0:0|0:0,0:0:0:0:
82,262,112328,1,0,0:0:0:0:
154,259,112429,1,0,0:0:0:0:
226,257,112531,1,0,0:0:0:0:
223,184,112632,2,8,B|219:65|219:65|283:62|283:62|288:206,1,290.700009093247
168,346,113443,6,0,B|247:311|247:311|276:246,1,145.350004546623,10|0,0:0|0:0,0:0:0:0:
411,58,113848,1,8,0:0:0:0:
338,61,113950,1,0,0:0:0:0:
267,63,114051,2,0,L|160:178,1,145.350004546623,0|8,0:0|0:0,0:0:0:0:
128,212,114355,1,0,0:0:0:0:
82,267,114456,1,0,0:0:0:0:
130,321,114558,1,0,0:0:0:0:
178,375,114659,2,0,L|261:372,2,72.6750022733117,8|0|0,0:0|0:0|0:0,0:0:0:0:
326,365,114963,5,0,0:0:0:0:
394,344,115064,1,8,0:0:0:0:
449,297,115166,1,0,0:0:0:0:
479,232,115267,1,0,0:0:0:0:
480,160,115368,1,0,0:0:0:0:
460,88,115470,2,0,L|442:25,1,50.9999984436036,10|0,0:0|0:0,0:0:0:0:
124,84,115875,2,0,L|77:134,1,50.9999984436036,10|0,0:0|0:0,0:0:0:0:
261,351,116281,2,0,P|308:318|339:285,1,85,8|0,0:0|0:0,0:0:0:0:
443,57,116686,6,0,P|378:27|330:29,1,85,14|0,0:0|0:0,0:0:0:0:
108,85,117091,5,8,0:0:0:0:
81,150,117193,1,0,0:0:0:0:
112,213,117294,2,0,B|162:275|162:275|209:206,1,145.350004546623,0|8,0:0|0:0,0:0:0:0:
222,161,117598,1,0,0:0:0:0:
260,100,117699,1,0,0:0:0:0:
327,74,117801,1,0,0:0:0:0:
396,91,117902,6,0,B|446:137|446:137|448:217|448:217,1,145.350004546623,8|0,0:0|0:0,0:0:0:0:
372,316,118307,5,8,0:0:0:0:
303,336,118409,1,0,0:0:0:0:
228,321,118510,2,0,B|131:308|131:308|98:261,1,145.350004546623,0|8,0:0|0:0,0:0:0:0:
78,192,118814,5,0,0:0:0:0:
98,123,118915,1,0,0:0:0:0:
151,75,119017,1,0,0:0:0:0:
218,49,119118,2,0,P|298:30|330:29,2,72.6750022733117,8|0|0,0:0|0:0|0:0,0:0:0:0:
402,250,119524,6,0,P|323:285|307:302,2,72.6750022733117,8|0|0,0:0|0:0|0:0,0:0:0:0:
165,339,119929,6,0,P|84:310|65:246,1,145.350004546623,10|0,0:0|0:0,0:0:0:0:
244,275,120334,5,8,0:0:0:0:
314,291,120436,1,0,0:0:0:0:
382,268,120537,2,0,P|448:217|478:152,1,145.350004546623,0|8,0:0|0:0,0:0:0:0:
443,73,120841,5,0,0:0:0:0:
378,40,120942,1,0,0:0:0:0:
307,26,121044,1,0,0:0:0:0:
235,31,121145,2,0,B|300:78|300:78|204:81,1,145.350004546623,8|0,0:0|0:0,0:0:0:0:
156,83,121449,5,0,0:0:0:0:
85,97,121550,1,8,0:0:0:0:
40,152,121652,1,0,0:0:0:0:
38,223,121753,2,0,P|67:294|132:324,1,145.350004546623,0|8,0:0|0:0,0:0:0:0:
212,321,122057,5,0,0:0:0:0:
284,322,122159,1,0,0:0:0:0:
350,293,122260,1,0,0:0:0:0:
398,240,122361,2,0,L|338:177,2,72.6750022733117,8|0|0,0:0|0:0|0:0,0:0:0:0:
378,27,122767,2,0,P|316:77|251:64,1,145.350004546623,8|0,0:0|0:0,0:0:0:0:
63,182,123172,6,0,P|114:260|84:310,1,145.350004546623,10|0,0:0|0:0,0:0:0:0:
256,192,123577,5,8,0:0:0:0:
304,206,123679,1,0,0:0:0:0:
338,253,123780,2,0,B|323:301|323:301|403:282,1,72.6750022733117
419,282,123983,5,8,0:0:0:0:
467,230,124084,1,0,0:0:0:0:
475,160,124185,1,0,0:0:0:0:
434,100,124287,1,0,0:0:0:0:
366,80,124388,2,0,P|280:65|204:81,1,145.350004546623,8|0,0:0|0:0,0:0:0:0:
140,99,124692,5,0,0:0:0:0:
87,146,124793,1,8,0:0:0:0:
71,217,124895,1,0,0:0:0:0:
101,282,124996,2,0,B|132:324|165:339|165:339|179:290|210:273,1,145.350004546623,0|8,0:0|0:0,0:0:0:0:
257,239,125300,5,0,0:0:0:0:
304,185,125402,1,0,0:0:0:0:
365,145,125503,1,0,0:0:0:0:
434,123,125604,2,0,B|509:103|509:103|464:200,1,145.350004546623,8|0,0:0|0:0,0:0:0:0:
72,136,126010,6,0,B|-2:120|-2:120|48:215,1,145.350004546623,8|0,0:0|0:0,0:0:0:0:
314,29,126415,6,0,P|410:42|444:89,1,145.350004546623,10|0,0:0|0:0,0:0:0:0:
212,105,126820,5,10,0:0:0:0:
149,131,126922,1,2,0:0:0:0:
103,181,127023,2,10,P|57:246|28:312,1,145.350004546623,2|10,0:0|0:0,0:0:0:0:
290,270,127428,5,2,0:0:0:0:
360,258,127530,1,2,0:0:0:0:
407,204,127631,2,2,P|446:137|443:57,1,145.350004546623,10|2,0:0|0:0,0:0:0:0:
203,49,128036,5,10,0:0:0:0:
132,63,128138,1,2,0:0:0:0:
77,110,128239,2,2,P|44:181|62:244,1,145.350004546623,6|10,0:0|0:0,0:0:0:0:
115,292,128543,1,2,0:0:0:0:
184,314,128645,1,2,0:0:0:0:
256,312,128746,1,2,0:0:0:0:
323,285,128847,6,0,P|385:235|415:170,1,145.350004546623,14|0,0:0|0:0,0:0:0:0:
251,64,129253,2,0,P|124:100|78:150,1,145.350004546623,14|0,0:0|0:0,0:0:0:0:
194,258,129658,5,12,0:0:0:0:
66,262,130266,5,0,0:0:0:0:
205,129,130469,2,0,B|314:29|314:29|346:44,1,179.774990810452,8|0,0:0|0:0,0:0:0:0:
511,167,131077,2,0,B|499:295|453:345|453:345|389:347,1,239.699987747269
276,79,131685,1,8,0:0:0:0:
55,166,131888,6,0,B|23:192|48:215|48:215|104:197|104:197|82:254|82:254|128:220|128:220|98:277|98:277|145:243|145:243|115:292|115:292|154:275|227:305,1,479.399975494539
346,28,132901,5,8,0:0:0:0:
254,160,133104,1,0,0:0:0:0:
353,220,133306,1,8,0:0:0:0:
458,24,133509,6,0,P|493:119|479:184,1,119.849993873635,0|8,0:0|0:0,0:0:0:0:
130,268,133914,6,0,L|196:330,1,85,0|8,0:0|0:0,0:0:0:0:
343,164,134320,2,0,L|281:231,1,85,0|8,0:0|0:0,0:0:0:0:
178,42,134725,2,0,P|204:89|244:104,1,85,0|8,0:0|0:0,0:0:0:0:
396,83,135131,2,0,B|414:154|471:184|471:184|432:201|432:201|472:216|472:216|433:225|433:225|450:265|450:265|410:250|410:250|427:290|427:290|386:275|386:275|369:236|369:236|376:195|376:195|343:164|343:164|303:182|303:182|297:222|297:222,1,641.749992655754,0|8,0:0|0:0,0:0:0:0:
315,293,136347,2,0,P|242:272|208:193,1,128.349998531151
92,85,136752,1,0,0:0:0:0:
109,117,136955,5,8,0:0:0:0:
126,148,137158,2,0,P|144:211|130:276,1,128.349998531151,0|8,0:0|0:0,0:0:0:0:
261,351,137563,2,0,P|283:287|353:220,1,128.349998531151,0|8,0:0|0:0,0:0:0:0:
139,75,137968,6,0,L|106:37,12,42.5,0|0|0|0|0|0|0|0|8|0|0|0|0,0:0|0:0|0:0|0:0|0:0|0:0|0:0|0:0|0:0|0:0|0:0|0:0|0:0,0:0:0:0:
208,209,138374,2,0,L|201:233,12,21.25,0|0|0|0|0|0|0|0|8|0|0|0|0,0:0|0:0|0:0|0:0|0:0|0:0|0:0|0:0|0:0|0:0|0:0|0:0|0:0,0:0:0:0:
349,108,138779,2,0,P|424:194|503:175,1,170,0|8,0:0|0:0,0:0:0:0:
362,260,139184,1,0,0:0:0:0:
437,105,139387,6,0,P|362:20|322:21,1,127.500004863739,8|10,0:0|0:0,0:0:0:0:
104,213,139792,1,8,0:0:0:0:
341,116,139995,2,0,P|294:142|248:208,1,128.349998531151,2|8,0:0|0:0,0:0:0:0:
136,321,140401,2,0,B|117:316|90:265|90:265|104:211,2,128.349998531151,0|10|0,0:0|0:0|0:0,0:0:0:0:
452,329,141009,2,0,L|386:275,1,63.7500024318696,8|2,0:0|0:0,0:0:0:0:
256,192,141313,12,0,142022,0:0:0:0:
59,54,142630,5,12,0:0:0:0:
92,101,142731,1,0,0:0:0:0:
62,150,142833,1,0,0:0:0:0:
203,49,143036,5,8,0:0:0:0:
236,96,143137,1,0,0:0:0:0:
285,126,143238,2,0,L|446:153,1,128.349998531151,0|8,0:0|0:0,0:0:0:0:
433,217,143542,5,0,0:0:0:0:
418,266,143644,1,0,0:0:0:0:
387,299,143745,1,0,0:0:0:0:
356,316,143846,2,0,L|196:322,1,128.349998531151,8|0,0:0|0:0,0:0:0:0:
97,229,144252,5,8,0:0:0:0:
129,175,144353,1,0,0:0:0:0:
185,146,144454,2,0,B|349:108|349:108|332:77|268:79,1,256.699997062302
41,15,145062,6,0,L|88:58,1,64.1749992655754,8|0,0:0|0:0,0:0:0:0:
0,151,145265,2,0,L|90:148,1,64.1749992655754
50,286,145468,2,0,L|93:238,1,64.1749992655754,8|0,0:0|0:0,0:0:0:0:
196,98,145873,5,8,0:0:0:0:
182,138,145975,1,0,0:0:0:0:
199,177,146076,1,0,0:0:0:0:
338,253,146279,5,8,0:0:0:0:
338,253,146380,1,0,0:0:0:0:
338,253,146481,2,0,L|451:297,1,102.849997096672,0|8,0:0|0:0,0:0:0:0:
114,260,146887,2,0,L|4:328,1,102.849997096672,0|8,0:0|0:0,0:0:0:0:
411,74,147292,2,0,L|521:6,1,102.849997096672,0|8,0:0|0:0,0:0:0:0:
92,85,147697,2,0,L|-21:25,1,102.849997096672,0|8,0:0|0:0,0:0:0:0:
402,250,148103,6,0,B|441:225|441:225,1,31.8750012159348
411,74,148305,2,0,L|370:50,11,42.5000016212464,8|0|0|0|0|0|8|0|0|0|0|0,0:0|0:0|0:0|0:0|0:0|0:0|0:0|0:0|0:0|0:0|0:0|0:0,0:0:0:0:
254,160,149116,1,10,0:0:0:0:
64,198,149319,5,0,0:0:0:0:
68,135,149420,1,0,0:0:0:0:
103,82,149522,1,8,0:0:0:0:
249,0,149724,5,0,0:0:0:0:
327,181,149927,1,8,0:0:0:0:
441,9,150130,2,0,L|460:96,3,63.7500024318696,0|0|8|0,0:0|0:0|0:0|0:0,0:0:0:0:
512,358,150535,2,0,B|498:271|498:271|442:257,1,127.500004863739,0|8,0:0|0:0,0:0:0:0:
226,273,150940,6,0,L|131:308,1,85,0|8,0:0|0:0,0:0:0:0:
108,101,151346,2,0,P|190:146|270:143,1,170
414,154,152157,1,4,0:0:0:0:
256,192,152258,12,0,153880,0:0:0:0:
119,172,153981,6,2,L|134:156,16,14.1666666666667
237,112,154589,2,0,L|236:80,10,28.3333333333333
225,225,154994,2,0,B|433:225|369:11|310:158|310:158|245:128,1,340
131,76,155602,6,0,B|59:78|45:119|45:119|125:124|180:106|102:165|102:165|151:179|151:179|113:237|148:315|244:312|244:312|256:264|217:225|217:225|223:185|278:151,1,701.249978599549,2|2,0:0|0:0,0:0:0:0:
217,225,158845,6,0,B|242:264|242:264|297:222|354:252,1,152.999995330811
345,244,160061,1,0,0:0:0:0:
345,244,160670,5,0,0:0:0:0:
353,220,161278,1,0,0:0:0:0:
360,196,161683,1,0,0:0:0:0:
367,172,162088,2,0,B|388:91|388:91|340:92|318:133,1,152.999995330811
325,117,163304,1,0,0:0:0:0:
325,117,163913,5,0,0:0:0:0:
310,134,164521,1,0,0:0:0:0:
294,150,164926,1,0,0:0:0:0:
279,167,165331,2,0,B|225:225|225:225|185:242|179:282,1,152.999995330811
178,278,166547,1,0,0:0:0:0:
251,296,167156,5,0,0:0:0:0:
337,229,167358,1,0,0:0:0:0:
333,109,167561,1,0,0:0:0:0:
247,176,167764,1,0,0:0:0:0:
242,48,168169,1,0,0:0:0:0:
93,117,168574,6,0,L|203:65,1,85,12|0,0:0|0:0,0:0:0:0:
195,290,168980,5,2,0:0:0:0:
195,290,169081,1,0,0:0:0:0:
195,290,169182,1,0,0:0:0:0:
337,237,169385,5,2,0:0:0:0:
337,237,169486,1,0,0:0:0:0:
337,237,169588,1,0,0:0:0:0:
413,122,169791,5,10,0:0:0:0:
413,122,169892,1,0,0:0:0:0:
413,122,169993,1,0,0:0:0:0:
314,45,170399,5,0,0:0:0:0:
314,45,170601,2,0,L|237:128,1,85
176,194,171007,2,0,L|114:260,1,85
388,331,171412,2,0,P|453:234|447:148,1,170,0|2,0:0|0:0,0:0:0:0:
317,109,172425,1,0,0:0:0:0:
442,25,173034,1,0,0:0:0:0:
466,81,173642,5,0,0:0:0:0:
379,157,173844,1,0,0:0:0:0:
273,205,174047,1,0,0:0:0:0:
161,235,174250,2,0,P|74:239|-18:213,2,170,0|0|2,0:0|0:0|0:0,0:0:0:0:
269,173,175669,1,0,0:0:0:0:
370,94,176277,1,0,0:0:0:0:
485,344,176885,5,0,0:0:0:0:
417,234,177087,1,8,0:0:0:0:
292,318,177290,5,0,0:0:0:0:
269,127,177493,1,8,0:0:0:0:
114,260,177695,5,0,0:0:0:0:
122,36,177898,1,8,0:0:0:0:
38,159,178101,1,2,0:0:0:0:
256,192,178202,12,2,179520,0:0:0:0:
125,116,181547,6,0,L|47:183,1,85,14|0,0:0|0:0,0:0:0:0:
100,309,181952,1,8,0:0:0:0:
197,354,182053,1,0,0:0:0:0:
292,318,182155,1,0,0:0:0:0:
354,252,182256,2,0,L|400:202,1,42.5,0|8,0:0|0:0,0:0:0:0:
443,73,182560,5,0,0:0:0:0:
346,44,182661,1,0,0:0:0:0:
252,80,182763,2,0,P|205:113|173:130,1,63.7500024318696,8|0,0:0|0:0,0:0:0:0:
107,69,183168,5,8,0:0:0:0:
71,120,183269,1,0,0:0:0:0:
58,182,183371,1,0,0:0:0:0:
69,245,183472,1,0,0:0:0:0:
104,298,183573,5,8,0:0:0:0:
362,28,183776,1,0,0:0:0:0:
310,366,183979,1,8,0:0:0:0:
155,51,184181,1,0,0:0:0:0:
446,137,184384,6,0,L|353:236,1,127.500004863739,8|0,0:0|0:0,0:0:0:0:
133,340,184790,6,0,P|52:311|66:262,1,127.500004863739,14|0,0:0|0:0,0:0:0:0:
93,133,185195,1,8,0:0:0:0:
90,50,185296,1,0,0:0:0:0:
162,90,185398,2,0,L|240:131,1,63.7500024318696
431,169,185803,5,0,0:0:0:0:
418,250,185904,1,0,0:0:0:0:
388,331,186006,2,0,L|322:269,1,63.7500024318696,8|0,0:0|0:0,0:0:0:0:
367,172,186411,5,8,0:0:0:0:
287,190,186512,1,0,0:0:0:0:
207,177,186614,2,0,P|142:163|75:119,1,127.500004863739,0|8,0:0|0:0,0:0:0:0:
281,14,187019,5,0,0:0:0:0:
480,216,187222,2,0,L|403:282,1,63.7500024318696,8|0,0:0|0:0,0:0:0:0:
371,300,187425,1,0,0:0:0:0:
61,134,187627,6,8,B|79:182|135:188|135:188|167:187|167:187|100:325|100:325,1,255.000009727478,8|14,0:0|0:0,0:0:0:0:
290,254,188235,1,0,0:0:0:0:
430,137,188438,1,8,0:0:0:0:
380,75,188539,1,0,0:0:0:0:
314,29,188641,1,0,0:0:0:0:
156,99,188843,5,8,0:0:0:0:
216,120,188945,1,0,0:0:0:0:
268,155,189046,1,0,0:0:0:0:
309,204,189147,1,0,0:0:0:0:
338,261,189249,2,0,L|400:210,1,63.7500024318696,8|0,0:0|0:0,0:0:0:0:
208,193,189654,5,8,0:0:0:0:
185,250,189755,1,0,0:0:0:0:
129,277,189857,1,0,0:0:0:0:
66,270,189958,2,0,P|28:243|27:211,1,63.7500024318696,0|8,0:0|0:0,0:0:0:0:
187,66,190262,5,0,0:0:0:0:
512,199,190465,1,8,0:0:0:0:
213,337,190668,1,0,0:0:0:0:
379,59,190870,2,0,L|415:186,1,127.500004863739,8|0,0:0|0:0,0:0:0:0:
387,331,191276,6,0,P|321:269|304:222,1,127.500004863739,14|0,0:0|0:0,0:0:0:0:
189,130,191681,1,8,0:0:0:0:
110,165,191782,1,0,0:0:0:0:
49,231,191884,1,0,0:0:0:0:
20,312,191985,1,0,0:0:0:0:
333,109,192289,5,0,0:0:0:0:
367,188,192390,1,0,0:0:0:0:
446,137,192492,1,8,0:0:0:0:
480,216,192593,1,0,0:0:0:0:
131,292,192897,5,8,0:0:0:0:
131,292,193100,1,0,0:0:0:0:
59,70,193303,2,0,L|105:21,1,63.7500024318696,10|0,0:0|0:0,0:0:0:0:
461,104,193708,2,0,L|527:166,1,63.7500024318696,10|0,0:0|0:0,0:0:0:0:
165,339,194113,1,8,0:0:0:0:
108,85,194519,6,0,B|98:119|98:119|76:91,1,63.7500024318696,14|0,0:0|0:0,0:0:0:0:
378,27,194924,2,0,L|348:76,1,31.8750012159348,8|0,0:0|0:0,0:0:0:0:
450,249,195127,2,0,L|483:280,1,31.8750012159348
84,326,195532,6,0,L|66:278,1,31.8750012159348
285,110,195735,2,0,L|315:61,1,31.8750012159348,8|0,0:0|0:0,0:0:0:0:
195,290,196140,5,8,0:0:0:0:
346,44,196343,1,0,0:0:0:0:
404,330,196546,1,8,0:0:0:0:
188,98,196748,1,0,0:0:0:0:
463,168,196951,1,8,0:0:0:0:
180,322,197154,5,0,0:0:0:0:
63,166,197356,2,0,L|139:51,1,127.500004863739,8|0,0:0|0:0,0:0:0:0:
379,59,197762,6,0,L|429:105,1,50.9999984436036,14|0,0:0|0:0,0:0:0:0:
340,333,198167,5,8,0:0:0:0:
316,264,198268,1,0,0:0:0:0:
293,196,198370,1,0,0:0:0:0:
223,177,198471,2,0,L|177:242,1,76.4999976654053,0|8,0:0|0:0,0:0:0:0:
20,312,198775,5,0,0:0:0:0:
26,240,198876,1,0,0:0:0:0:
34,167,198978,1,8,0:0:0:0:
40,96,199079,1,0,0:0:0:0:
315,61,199383,5,8,0:0:0:0:
396,75,199485,1,0,0:0:0:0:
414,154,199586,1,0,0:0:0:0:
336,205,199687,5,0,0:0:0:0:
258,255,199789,1,8,0:0:0:0:
91,53,199991,1,0,0:0:0:0:
20,312,200194,1,8,0:0:0:0:
313,13,200397,1,0,0:0:0:0:
372,316,200599,6,0,L|479:168,2,152.999995330811,8|0|14,0:0|0:0|0:0,0:0:0:0:
144,195,201207,1,0,0:0:0:0:
235,64,201410,1,8,0:0:0:0:
302,38,201511,1,0,0:0:0:0:
373,23,201613,1,0,0:0:0:0:
445,21,201714,1,0,0:0:0:0:
303,190,202018,5,0,0:0:0:0:
234,211,202119,1,0,0:0:0:0:
167,240,202221,1,8,0:0:0:0:
103,272,202322,1,0,0:0:0:0:
369,220,202626,5,8,0:0:0:0:
331,157,202728,1,0,0:0:0:0:
282,106,202829,1,0,0:0:0:0:
221,66,202930,1,0,0:0:0:0:
139,51,203032,1,8,0:0:0:0:
30,151,203234,1,0,0:0:0:0:
213,337,203437,1,8,0:0:0:0:
403,298,203640,5,0,0:0:0:0:
443,57,203842,1,8,0:0:0:0:
158,163,204045,2,0,P|96:197|50:263,1,152.999995330811,2|8,0:0|0:0,0:0:0:0:
213,353,204450,5,0,0:0:0:0:
478,152,204653,1,8,0:0:0:0:
218,49,204856,2,0,P|92:85|61:118,1,152.999995330811,2|0,0:0|0:0,0:0:0:0:
92,201,205261,5,0,0:0:0:0:
366,360,205464,1,0,0:0:0:0:
427,73,205667,2,2,B|351:102|316:7|316:7|217:17|189:130,1,305.999990661621
189,130,206173,1,0,0:0:0:0:
169,203,206275,1,0,0:0:0:0:
175,278,206376,1,0,0:0:0:0:
223,337,206477,1,0,0:0:0:0:
293,364,206579,1,0,0:0:0:0:
369,367,206680,1,0,0:0:0:0:
441,341,206781,1,0,0:0:0:0:
489,283,206883,1,0,0:0:0:0:
493,208,206984,1,0,0:0:0:0:
463,137,207085,2,0,L|467:108,1,21.2500008106232,2|0,0:0|0:0,0:0:0:0:
404,91,207187,2,0,L|397:62,1,21.2500008106232,2|0,0:0|0:0,0:0:0:0:
330,59,207288,2,0,L|317:32,1,21.2500008106232,2|0,0:0|0:0,0:0:0:0:
253,41,207423,1,0,0:0:0:0:
178,34,207491,6,2,P|98:37|42:47,1,127.500004863739,14|2,0:0|0:0,0:0:0:0:
37,127,207795,1,0,0:0:0:0:
60,198,207896,1,0,0:0:0:0:
113,254,207997,1,0,0:0:0:0:
174,297,208099,2,0,P|224:329|246:353,1,63.7500024318696
356,332,208302,5,8,0:0:0:0:
290,254,208403,1,0,0:0:0:0:
302,158,208504,1,0,0:0:0:0:
236,80,208606,1,0,0:0:0:0:
281,0,208707,2,0,P|329:-2|394:43,1,127.500004863739,8|0,0:0|0:0,0:0:0:0:
447,169,209011,5,0,0:0:0:0:
402,250,209112,1,8,0:0:0:0:
323,285,209214,1,0,0:0:0:0:
294,366,209315,2,0,B|291:286|211:305|193:226,1,127.500004863739,0|8,0:0|0:0,0:0:0:0:
192,194,209619,5,0,0:0:0:0:
205,113,209720,1,0,0:0:0:0:
284,78,209822,1,0,0:0:0:0:
365,108,209923,2,0,P|383:187|337:237,1,127.500004863739,8|0,0:0|0:0,0:0:0:0:
302,158,210328,2,0,P|236:96|157:115,1,127.500004863739,8|0,0:0|0:0,0:0:0:0:
227,289,210734,6,2,P|163:307|98:261,1,127.500004863739,10|0,0:0|0:0,0:0:0:0:
48,223,211038,1,0,0:0:0:0:
45,135,211139,1,8,0:0:0:0:
107,69,211241,1,0,0:0:0:0:
194,34,211342,2,0,B|148:83|148:83|212:81,1,127.500004863739,0|8,0:0|0:0,0:0:0:0:
283,62,211646,5,0,0:0:0:0:
364,92,211747,1,0,0:0:0:0:
399,170,211849,1,0,0:0:0:0:
370,252,211950,1,8,0:0:0:0:
335,189,212153,5,0,0:0:0:0:
306,270,212254,1,0,0:0:0:0:
228,321,212355,1,8,0:0:0:0:
147,291,212457,1,0,0:0:0:0:
112,213,212558,2,0,P|141:131|75:70,1,127.500004863739,0|8,0:0|0:0,0:0:0:0:
62,150,212862,5,0,0:0:0:0:
125,98,212963,1,0,0:0:0:0:
203,65,213065,1,0,0:0:0:0:
282,46,213166,2,0,P|362:28|410:42,1,127.500004863739,8|0,0:0|0:0,0:0:0:0:
349,108,213571,2,0,P|414:138|448:217,1,127.500004863739,8|0,0:0|0:0,0:0:0:0:
320,161,213977,6,0,P|384:159|450:189,1,127.500004863739,10|0,0:0|0:0,0:0:0:0:
420,330,214382,1,8,0:0:0:0:
370,252,214484,1,0,0:0:0:0:
303,190,214585,2,0,P|253:128|236:96,1,63.7500024318696
190,146,214788,5,8,0:0:0:0:
209,225,214889,1,0,0:0:0:0:
275,287,214990,1,0,0:0:0:0:
195,306,215092,1,0,0:0:0:0:
114,276,215193,2,0,P|128:212|78:150,1,127.500004863739,8|0,0:0|0:0,0:0:0:0:
49,231,215497,5,0,0:0:0:0:
30,151,215598,1,8,0:0:0:0:
59,70,215700,1,0,0:0:0:0:
137,20,215801,2,0,B|217:1|217:1|266:31,1,127.500004863739,0|8,0:0|0:0,0:0:0:0:
204,81,216105,5,0,0:0:0:0:
254,144,216206,1,0,0:0:0:0:
316,93,216308,1,0,0:0:0:0:
382,139,216409,2,0,B|448:201|448:201|418:266,1,127.500004863739,8|0,0:0|0:0,0:0:0:0:
353,220,216814,2,0,B|307:302|307:302|243:288,1,127.500004863739,8|0,0:0|0:0,0:0:0:0:
256,207,217220,6,0,B|176:194|176:194|97:245,1,127.500004863739,10|0,0:0|0:0,0:0:0:0:
35,295,217625,1,8,0:0:0:0:
116,324,217727,1,0,0:0:0:0:
194,274,217828,2,0,B|256:207|256:207|238:144,1,127.500004863739,0|8,0:0|0:0,0:0:0:0:
220,97,218132,5,0,0:0:0:0:
299,62,218233,1,0,0:0:0:0:
380,91,218335,1,0,0:0:0:0:
415,170,218436,2,0,P|417:234|355:284,1,127.500004863739,8|0,0:0|0:0,0:0:0:0:
336,205,218740,5,0,0:0:0:0:
270,143,218841,1,8,0:0:0:0:
189,114,218943,1,0,0:0:0:0:
110,149,219044,2,0,P|78:166|48:199,1,63.7500024318696
180,322,219247,6,0,P|213:353|229:337,1,63.7500024318696,10|0,0:0|0:0,0:0:0:0:
462,152,219652,2,0,P|461:120|429:121,1,63.7500024318696,10|0,0:0|0:0,0:0:0:0:
234,32,220058,2,0,P|155:51|124:100,1,127.500004863739,8|0,0:0|0:0,0:0:0:0:
49,231,220463,6,0,L|180:322,1,127.500004863739,14|0,0:0|0:0,0:0:0:0:
166,155,220868,5,8,0:0:0:0:
224,217,220970,1,0,0:0:0:0:
283,279,221071,2,0,P|340:325|364:332,2,63.7500024318696,0|0|8,0:0|0:0|0:0,0:0:0:0:
328,197,221375,5,0,0:0:0:0:
246,144,221476,1,0,0:0:0:0:
324,93,221578,1,0,0:0:0:0:
242,40,221679,2,0,P|138:36|107:53,1,127.500004863739,8|0,0:0|0:0,0:0:0:0:
430,153,222084,5,8,0:0:0:0:
457,224,222186,1,0,0:0:0:0:
435,297,222287,2,0,P|433:225|391:171,1,127.500004863739,0|8,0:0|0:0,0:0:0:0:
346,260,222591,1,0,0:0:0:0:
267,295,222692,1,0,0:0:0:0:
186,274,222794,1,0,0:0:0:0:
128,212,222895,2,0,L|201:233,1,63.7500024318696,8|0,0:0|0:0,0:0:0:0:
67,78,223301,2,0,L|132:100,1,63.7500024318696,8|0,0:0|0:0,0:0:0:0:
401,242,223706,6,0,B|372:316|372:316|420:314,1,127.500004863739,10|0,0:0|0:0,0:0:0:0:
482,248,224111,1,8,0:0:0:0:
447,169,224213,1,0,0:0:0:0:
401,242,224314,6,0,B|372:316|372:316|316:309,1,127.500004863739,0|8,0:0|0:0,0:0:0:0:
250,264,224618,1,0,0:0:0:0:
176,218,224719,1,0,0:0:0:0:
103,173,224821,1,0,0:0:0:0:
90,261,224922,2,0,B|77:342|77:342|132:324,1,127.500004863739,8|0,0:0|0:0,0:0:0:0:
187,290,225226,5,0,0:0:0:0:
208,217,225327,1,8,0:0:0:0:
166,155,225429,1,0,0:0:0:0:
116,100,225530,2,0,B|83:77|83:77|138:36|203:49,1,127.500004863739,0|8,0:0|0:0,0:0:0:0:
93,72,225834,5,0,0:0:0:0:
163,46,225936,1,0,0:0:0:0:
239,43,226037,1,0,0:0:0:0:
316,56,226138,2,0,P|387:99|422:157,1,127.500004863739,8|0,0:0|0:0,0:0:0:0:
322,139,226544,6,0,P|362:207|366:257,1,127.500004863739,8|0,0:0|0:0,0:0:0:0:
283,222,226949,6,0,P|257:290|214:295,1,85,10|0,0:0|0:0,0:0:0:0:
209,225,227354,1,8,0:0:0:0:
171,291,227456,1,0,0:0:0:0:
213,353,227557,1,0,0:0:0:0:
293,358,227658,1,0,0:0:0:0:
356,308,227760,1,8,0:0:0:0:
385,243,227861,1,0,0:0:0:0:
399,178,227962,1,0,0:0:0:0:
397,123,228064,1,0,0:0:0:0:
380,75,228165,2,0,P|399:178|378:259,1,170,8|0,0:0|0:0,0:0:0:0:
259,279,228469,5,0,0:0:0:0:
297,230,228570,1,8,0:0:0:0:
311,182,228672,1,0,0:0:0:0:
309,126,228773,2,0,P|304:214|243:288,1,170,0|8,0:0|0:0,0:0:0:0:
136,271,229077,5,0,0:0:0:0:
185,242,229179,1,0,0:0:0:0:
224,193,229280,1,0,0:0:0:0:
238,144,229381,2,0,P|193:234|122:276,1,170,8|0,0:0|0:0,0:0:0:0:
32,215,229787,2,0,P|135:188|173:114,1,170,8|0,0:0|0:0,0:0:0:0:
69,118,230192,6,0,P|122:44|235:56,1,170,10|0,0:0|0:0,0:0:0:0:
395,67,230597,5,10,0:0:0:0:
404,90,230699,1,2,0:0:0:0:
413,114,230800,1,2,0:0:0:0:
317,109,231003,5,8,0:0:0:0:
326,141,231104,1,0,0:0:0:0:
335,173,231205,1,0,0:0:0:0:
344,204,231307,1,0,0:0:0:0:
353,236,231408,1,10,0:0:0:0:
151,179,231611,1,0,0:0:0:0:
203,49,231813,6,0,L|223:177,1,85,10|0,0:0|0:0,0:0:0:0:
243,280,232016,2,0,L|223:169,1,85,0|8,0:0|0:0,0:0:0:0:
224,193,232320,1,0,0:0:0:0:
178,258,232422,1,0,0:0:0:0:
124,324,232523,1,0,0:0:0:0:
53,367,232624,2,0,P|19:304|26:272,1,85,8|0,0:0|0:0,0:0:0:0:
175,74,233030,2,0,P|195:90|228:153,1,85,0|4,0:0|0:0,0:0:0:0:
256,192,233486,12,0,235057,0:0:0:0:
