osu file format v14

[General]
AudioFilename: Sherlock OST 1 - Opening Titles.mp3
AudioLeadIn: 2000
PreviewTime: 2160
Countdown: 0
SampleSet: Normal
StackLeniency: 0.3
Mode: 0
LetterboxInBreaks: 0
WidescreenStoryboard: 1

[Editor]
DistanceSpacing: 1.4
BeatDivisor: 4
GridSize: 4
TimelineZoom: 1

[Metadata]
Title:Opening Titles
TitleUnicode:Opening Titles
Artist:David Arnold & Michael Price
ArtistUnicode:David Arnold & Michael Price
Creator:BCI
Version:Insane
Source:Sherlock
Tags:BBC black_cherry_ita
BeatmapID:356964
BeatmapSetID:143144

[Difficulty]
HPDrainRate:6.4
CircleSize:4.5
OverallDifficulty:7.5
ApproachRate:9
SliderMultiplier:1.5
SliderTickRate:1

[Events]
//Background and Video events
0,0,"bg.jpg",0,0
//Break Periods
//Storyboard Layer 0 (Background)
//Storyboard Layer 1 (Fail)
//Storyboard Layer 2 (Pass)
//Storyboard Layer 3 (Foreground)
//Storyboard Sound Samples

[TimingPoints]
204,326.086956521739,3,1,1,15,1,0
856,-100,3,1,1,25,0,0
1182,-100,3,1,1,30,0,0
1508,-100,3,1,1,40,0,0
2160,-100,3,1,1,50,0,1
2323,-100,3,1,1,50,0,0
9986,-100,3,1,1,50,0,1
10149,-100,3,1,1,50,0,0
17812,-100,3,1,1,50,0,1
17975,-100,3,1,1,50,0,0
25638,-100,3,1,1,50,0,1
25801,-100,3,1,1,50,0,0
31508,-100,3,1,1,50,0,1
31671,-100,3,1,1,50,0,0
37050,-100,3,2,0,15,0,0

[Colours]
Combo1 : 140,121,94
Combo2 : 199,174,148
Combo3 : 102,102,102
Combo4 : 197,196,186

[HitObjects]
479,237,204,6,0,L|383:245,1,75,0|0,2:0|2:0,2:0:0:0:
375,337,530,2,0,L|471:329,1,75.000000298023,8|0,1:0|1:0,1:0:0:0:
295,265,856,6,0,L|199:273,1,75.000000298023
251,177,1182,2,0,L|351:169,1,75.000000298023,8|0,0:0|0:0,0:0:0:0:
159,165,1508,6,0,L|67:173,1,75.000000298023,8|8,0:0|0:0,0:0:0:0:
139,77,1834,2,0,L|239:69,1,75.000000298023,8|8,0:0|0:0,0:0:0:0:
223,85,2079,1,0,0:0:0:0:
231,97,2160,6,0,P|219:157|255:245,1,150.000000596046,4|10,0:0|0:0,0:0:0:0:
351,257,2649,1,0,0:0:0:0:
318,155,2812,2,0,P|354:147|399:113,1,75,10|0,0:0|0:0,0:0:0:0:
249,239,3138,2,0,L|81:235,2,150.000000596046,8|2|10,0:0|0:0|0:0,0:0:0:0:
239,345,3954,1,0,0:0:0:0:
255,341,4035,1,0,0:0:0:0:
271,337,4117,6,0,P|339:357|423:345,1,150,2|10,0:0|0:0,0:0:0:0:
463,249,4606,1,0,0:0:0:0:
395,173,4769,2,0,P|347:153|319:125,1,75.000000298023,10|0,0:0|0:0,0:0:0:0:
468,107,5095,2,0,P|486:179|455:259,1,150,8|2,0:0|0:0,0:0:0:0:
395,173,5584,1,0,0:0:0:0:
468,107,5747,1,10,0:0:0:0:
391,41,5910,1,0,0:0:0:0:
383,53,5992,1,0,0:0:0:0:
375,65,6073,6,0,B|315:53|315:53|219:53,1,150,2|2,0:0|0:0,0:0:0:0:
135,97,6562,1,0,0:0:0:0:
223,153,6725,1,10,0:0:0:0:
119,85,6888,1,0,0:0:0:0:
243,165,7051,2,0,P|255:225|207:329,1,150,8|10,0:0|0:0,0:0:0:0:
131,353,7540,1,0,0:0:0:0:
87,257,7704,2,0,P|119:245|167:237,1,75,10|0,0:0|0:0,0:0:0:0:
24,328,8030,6,0,P|-8:260|16:180,1,150,8|10,0:0|0:0,0:0:0:0:
87,257,8519,1,0,0:0:0:0:
43,101,8682,2,0,P|75:121|96:152,1,75,10|0,0:0|0:0,0:0:0:0:
195,93,9008,2,0,P|199:141|191:185,1,75.000000298023,10|0,0:0|0:0,0:0:0:0:
296,180,9334,2,0,P|284:228|268:260,1,75.000000298023,8|0,3:0|3:0,0:0:0:0:
355,337,9660,2,0,P|367:289|383:257,1,75.000000298023,8|8,0:0|3:0,0:0:0:0:
391,259,9905,1,0,3:0:0:0:
404,251,9986,6,0,L|416:87,1,150.000000596046,4|10,0:0|0:0,0:0:0:0:
343,25,10475,1,0,0:0:0:0:
203,109,10638,2,0,P|247:109|287:93,1,75.000000298023,10|0,0:0|0:0,0:0:0:0:
127,41,10964,2,0,P|107:97|147:193,2,150.000000596046,8|10|2,0:0|0:0|0:0,0:0:0:0:
203,109,11780,1,0,0:0:0:0:
215,117,11861,1,0,0:0:0:0:
226,123,11943,6,0,L|310:119,1,75.000000298023,10|0,0:0|0:0,0:0:0:0:
407,209,12269,2,0,L|333:213,1,75.000000298023,2|0,0:0|0:0,0:0:0:0:
219,309,12595,2,0,L|293:305,1,75.000000298023,10|0,0:0|0:0,0:0:0:0:
147,205,12921,2,0,P|103:229|11:173,1,150.000000596046,4|2,0:0|0:0,0:0:0:0:
91,137,13410,1,0,0:0:0:0:
223,145,13573,2,0,P|239:205|231:241,1,75.000000298023,10|0,0:0|0:0,0:0:0:0:
91,137,13899,6,0,P|142:112|227:150,1,150,6|10,0:0|0:0,0:0:0:0:
263,237,14388,1,0,0:0:0:0:
165,278,14551,2,0,P|149:222|149:170,1,75.000000298023,10|0,0:0|0:0,0:0:0:0:
263,237,14877,2,0,L|431:249,1,150,8|2,0:0|0:0,0:0:0:0:
468,156,15367,1,0,0:0:0:0:
444,56,15530,2,0,P|412:48|364:52,1,75,10|0,0:0|0:0,0:0:0:0:
360,64,15774,1,0,0:0:0:0:
351,77,15856,5,8,0:0:0:0:
239,69,16019,1,8,0:0:0:0:
171,161,16182,5,8,0:0:0:0:
283,169,16345,1,8,0:0:0:0:
130,59,16508,5,8,0:0:0:0:
23,49,16671,1,8,0:0:0:0:
59,153,16834,6,0,P|51:221|91:317,1,150.000000596046,8|8,3:0|3:0,0:0:0:0:
189,314,17323,1,0,2:0:0:0:
299,285,17486,2,0,P|355:273|391:297,1,75.000000298023,8|0,0:0|3:0,0:0:0:0:
380,290,17731,1,0,0:0:0:0:
391,301,17812,6,0,L|400:140,1,150.000000596046,4|10,0:0|0:0,0:0:0:0:
335,69,18301,1,0,0:0:0:0:
231,45,18464,1,10,0:0:0:0:
259,145,18627,1,0,0:0:0:0:
335,69,18790,2,0,P|399:41|471:73,1,150.000000596046,8|10,0:0|0:0,0:0:0:0:
398,151,19280,1,0,0:0:0:0:
336,236,19443,2,0,P|308:216|284:184,1,75,10|0,0:0|0:0,0:0:0:0:
276,172,19687,1,0,0:0:0:0:
268,160,19769,6,0,P|208:128|120:156,1,150,2|10,0:0|0:0,0:0:0:0:
64,216,20258,1,0,0:0:0:0:
23,42,20421,2,0,L|40:116,1,75,10|0,0:0|0:0,0:0:0:0:
199,216,20747,2,0,P|150:242|62:215,1,150,8|2,0:0|0:0,0:0:0:0:
131,146,21236,1,0,0:0:0:0:
160,44,21399,1,2,0:0:0:0:
236,113,21562,1,0,0:0:0:0:
248,125,21644,1,0,0:0:0:0:
260,137,21725,6,0,P|280:185|260:281,1,150,2|10,0:0|0:0,0:0:0:0:
191,213,22214,2,0,L|117:209,1,75.000000298023,0|10,0:0|0:0,0:0:0:0:
339,345,22540,1,0,0:0:0:0:
261,279,22703,2,0,P|337:243|417:279,1,150.000000596046,8|2,0:0|0:0,0:0:0:0:
439,357,23193,1,0,0:0:0:0:
396,260,23356,1,2,0:0:0:0:
455,164,23519,1,0,0:0:0:0:
407,81,23682,5,8,0:0:0:0:
407,81,24008,2,0,L|482:71,1,75.000000298023,8|0,0:0|0:0,0:0:0:0:
311,37,24334,2,0,L|237:26,1,75.000000298023,8|0,0:0|0:0,0:0:0:0:
319,137,24660,2,0,B|277:202|319:285,1,150,8|8,0:3|0:0,0:0:0:0:
400,340,25149,1,0,0:0:0:0:
412,236,25312,1,8,0:0:0:0:
316,279,25475,1,0,0:0:0:0:
308,292,25557,1,0,0:0:0:0:
300,304,25638,6,0,P|224:280|152:284,1,150,12|10,0:0|0:0,0:0:0:0:
127,182,26127,1,0,0:0:0:0:
75,85,26290,2,0,P|108:76|148:80,1,75,10|0,0:0|0:0,0:0:0:0:
275,173,26617,2,0,P|183:189|123:181,1,150,8|2,0:0|0:0,0:0:0:0:
148,80,27106,1,0,0:0:0:0:
240,32,27269,1,2,0:0:0:0:
327,81,27432,1,0,0:0:0:0:
339,93,27513,1,0,0:0:0:0:
351,105,27595,6,0,P|379:154|343:253,1,150.000000596046,10|10,0:0|0:0,0:0:0:0:
227,261,28084,1,0,0:0:0:0:
275,173,28247,2,0,P|251:137|243:105,1,75.000000298023,2|0,0:0|0:0,0:0:0:0:
227,261,28573,2,0,L|51:253,2,150,8|2|2,0:0|0:0|0:0,0:0:0:0:
315,321,29388,1,0,0:0:0:0:
323,333,29470,1,0,0:0:0:0:
331,345,29551,6,0,P|371:357|419:349,1,75.000000298023,8|0,0:0|0:0,0:0:0:0:
471,241,29877,2,0,P|434:231|397:239,1,75.000000298023,8|0,0:0|0:0,0:0:0:0:
259,153,30204,2,0,P|311:149|339:137,1,75.000000298023,8|0,0:0|0:0,0:0:0:0:
175,101,30530,2,0,P|163:165|207:245,2,150,8|8|8,0:0|0:0|0:0,0:0:0:0:
271,61,31345,1,0,0:0:0:0:
283,49,31426,1,0,0:0:0:0:
295,37,31508,5,4,0:0:0:0:
256,192,31589,12,0,38356,2:0:0:0:
