osu file format v14

[General]
AudioFilename: Sherlock OST 1 - Opening Titles.mp3
AudioLeadIn: 2000
PreviewTime: 2160
Countdown: 0
SampleSet: Normal
StackLeniency: 0.3
Mode: 0
LetterboxInBreaks: 0
WidescreenStoryboard: 1

[Editor]
DistanceSpacing: 1
BeatDivisor: 4
GridSize: 4
TimelineZoom: 1

[Metadata]
Title:Opening Titles
TitleUnicode:Opening Titles
Artist:David Arnold & Michael Price
ArtistUnicode:David Arnold & Michael Price
Creator:BCI
Version:Hard
Source:Sherlock
Tags:BBC black_cherry_ita
BeatmapID:356177
BeatmapSetID:143144

[Difficulty]
HPDrainRate:5
CircleSize:4
OverallDifficulty:6
ApproachRate:7.3
SliderMultiplier:1.2
SliderTickRate:1

[Events]
//Background and Video events
0,0,"bg.jpg",0,0
//Break Periods
//Storyboard Layer 0 (Background)
//Storyboard Layer 1 (Fail)
//Storyboard Layer 2 (Pass)
//Storyboard Layer 3 (Foreground)
//Storyboard Sound Samples

[TimingPoints]
204,326.086956521739,3,1,1,15,1,0
530,-100,3,1,1,20,0,0
856,-100,3,1,1,25,0,0
1182,-100,3,1,1,30,0,0
1508,-100,3,1,1,40,0,0
2160,-100,3,1,1,50,0,1
2323,-100,3,1,1,50,0,0
9986,-100,3,1,1,50,0,1
10149,-100,3,1,1,50,0,0
17812,-100,3,1,1,50,0,1
17975,-100,3,1,1,50,0,0
25638,-100,3,1,1,50,0,1
25801,-100,3,1,1,50,0,0
31508,-100,3,1,1,50,0,1
31671,-100,3,1,1,50,0,0
37050,-100,3,2,0,15,0,0

[Colours]
Combo1 : 140,121,94
Combo2 : 199,174,148
Combo3 : 102,102,102
Combo4 : 197,196,186

[HitObjects]
140,108,204,6,0,L|152:244,1,120,0|0,2:0|1:0,0:0:0:0:
136,304,693,1,0,0:0:0:0:
212,288,856,2,0,P|256:276|328:316,1,120,0|8,0:0|0:0,0:0:0:0:
372,368,1345,1,0,0:0:0:0:
436,316,1508,2,0,L|447:257,1,60,8|8,0:0|0:0,0:0:0:0:
392,196,1834,2,0,L|368:128,1,60,8|8,0:0|0:0,0:0:0:0:
356,120,2078,1,0,0:0:0:0:
340,104,2160,6,0,P|276:92|204:100,1,120,4|10,0:0|0:0,0:0:0:0:
148,124,2649,2,0,P|112:112|72:84,2,60,0|10|0,0:0|0:0|0:0,0:0:0:0:
208,176,3138,2,0,P|224:236|196:312,2,120,8|2|10,0:0|0:0|0:0,0:0:0:0:
128,308,4117,6,0,P|160:360|240:372,1,120,2|10,0:0|0:0,0:0:0:0:
284,344,4606,1,0,0:0:0:0:
347,299,4769,2,0,P|380:300|405:287,1,60,10|0,0:0|0:0,0:0:0:0:
360,224,5095,2,0,L|368:76,2,120,0|2|10,0:0|0:0|0:0,0:0:0:0:
232,136,6073,6,0,P|183:105|125:115,1,120,2|2,0:0|0:0,0:0:0:0:
60,160,6562,2,0,P|109:191|166:179,1,120,0|0,0:0|0:0,0:0:0:0:
236,216,7051,2,0,P|240:276|268:344,1,120,10|10,0:0|0:0,0:0:0:0:
336,324,7540,2,0,P|376:312|412:308,2,60,0|10|0,0:0|0:0|0:0,0:0:0:0:
188,348,8030,6,0,P|120:336|78:289,1,120,0|10,0:0|0:0,0:0:0:0:
128,236,8519,2,0,P|148:172|132:100,1,120,0|0,0:0|0:0,0:0:0:0:
88,64,9008,1,10,0:0:0:0:
60,136,9171,1,0,0:0:0:0:
140,120,9334,2,0,P|192:100|260:120,1,120,8|8,3:0|0:0,0:0:0:0:
196,184,9823,1,8,3:0:0:0:
200,200,9905,1,0,3:0:0:0:
204,216,9986,6,0,B|240:212|268:224|268:224|292:208|328:212,1,120,4|10,0:0|0:0,0:0:0:0:
396,232,10475,2,0,P|452:224|476:208,2,60,0|10|0,0:0|0:0|0:0,0:0:0:0:
340,284,10964,1,8,0:0:0:0:
188,316,11290,2,0,P|140:248|136:188,1,120,10|2,0:0|0:0,0:0:0:0:
124,136,11780,1,0,0:0:0:0:
188,180,11943,6,0,P|132:212|64:184,1,120,10|2,0:0|0:0,0:0:0:0:
68,84,12432,2,0,P|116:60|184:84,1,120,0|0,0:0|0:0,0:0:0:0:
240,124,12921,2,0,B|284:120|284:120|328:124|328:124|372:120,2,120,4|2|10,0:0|0:0|0:0,0:0:0:0:
380,192,13899,6,0,B|408:184|424:160|424:160|492:160,2,120,6|10|10,0:0|0:0|0:0,0:0:0:0:
304,216,14714,1,0,0:0:0:0:
240,264,14877,2,0,P|188:276|128:240,1,120,8|2,0:0|0:0,0:0:0:0:
84,184,15367,2,0,P|60:208|48:244,2,60,0|10|0,0:0|0:0|0:0,0:0:0:0:
100,108,15856,6,0,P|68:84|44:44,2,60,8|8|8,0:0|0:0|0:0,0:0:0:0:
176,120,16345,2,0,P|208:128|244:168,2,60,8|8|8,0:0|0:0|0:0,0:0:0:0:
172,196,16834,2,0,L|160:336,2,120,8|8|8,3:0|3:0|0:0,0:0:0:0:
284,92,17812,6,0,P|344:72|392:96,1,120,4|10,0:0|0:0,0:0:0:0:
336,152,18301,2,0,L|328:284,1,120,0|0,0:0|0:0,0:0:0:0:
328,348,18790,2,0,P|268:316|256:260,2,120,8|10|10,0:0|0:0|0:0,0:0:0:0:
328,348,19769,6,0,B|396:320|396:320|452:312,1,120,2|10,0:0|0:0,0:0:0:0:
468,240,20258,2,0,P|480:188|468:120,1,120,0|0,0:0|0:0,0:0:0:0:
400,84,20747,1,8,0:0:0:0:
244,88,21073,2,0,L|108:80,1,120,2|2,0:0|0:0,0:0:0:0:
40,72,21562,1,0,0:0:0:0:
32,88,21644,1,0,0:0:0:0:
28,104,21725,6,0,P|28:176|52:216,1,120,2|10,0:0|0:0,0:0:0:0:
130,233,22214,2,0,P|156:286|144:344,1,120,0|0,0:0|0:0,0:0:0:0:
80,292,22703,2,0,B|228:260|172:348|316:304,1,240,8|2,0:0|0:0,0:0:0:0:
392,272,23519,1,0,0:0:0:0:
392,272,23682,6,0,P|408:192|392:140,1,120,8|8,0:0|0:0,0:0:0:0:
408,80,24171,2,0,P|452:64|492:68,2,60,0|8|0,0:0|0:0|0:0,0:0:0:0:
336,108,24660,2,0,P|280:136|220:116,1,120,8|8,0:3|0:0,0:0:0:0:
276,60,25149,1,0,0:0:0:0:
208,20,25312,1,8,0:0:0:0:
160,84,25475,1,0,0:0:0:0:
144,76,25557,1,0,0:0:0:0:
128,68,25638,6,0,P|68:56|12:96,1,120,12|10,0:0|0:0,0:0:0:0:
44,160,26127,2,0,L|60:304,1,120,0|0,0:0|0:0,0:0:0:0:
120,328,26617,2,0,P|168:348|240:324,1,120,8|2,0:0|0:0,0:0:0:0:
300,296,27106,2,0,L|300:236,2,60,0|2|0,0:0|0:0|0:0,0:0:0:0:
376,272,27595,6,0,P|396:212|376:160,1,120,8|10,0:0|0:0,0:0:0:0:
396,84,28084,2,0,P|412:44|416:8,2,60,0|2|0,0:0|0:0|0:0,0:0:0:0:
320,108,28573,2,0,P|264:124|204:104,1,120,8|2,0:0|0:0,0:0:0:0:
176,36,29062,2,0,P|212:28|236:32,2,60,0|2|0,0:0|0:0|0:0,0:0:0:0:
136,104,29551,6,0,P|106:107|77:99,2,60,8|0|8,0:0|0:0|0:0,0:0:0:0:
176,172,30040,1,0,0:0:0:0:
156,248,30203,1,8,0:0:0:0:
220,296,30367,1,0,0:0:0:0:
280,240,30530,2,0,L|412:248,2,120,8|8|8,0:0|0:0|0:0,0:0:0:0:
264,156,31345,1,0,0:0:0:0:
260,140,31426,1,0,0:0:0:0:
256,124,31508,5,4,0:0:0:0:
256,192,31589,12,0,38356,2:0:0:0:
