osu file format v14

[General]
AudioFilename: Deja Vu.mp3
AudioLeadIn: 0
PreviewTime: 129537
Countdown: 0
SampleSet: Normal
StackLeniency: 0.7
Mode: 0
LetterboxInBreaks: 0
WidescreenStoryboard: 1
SamplesMatchPlaybackRate: 1

[Editor]
Bookmarks: 14797,27265,64083,78109,92719,105187,158174,170641,172593,195024,206517,223660
DistanceSpacing: 1.3
BeatDivisor: 4
GridSize: 8
TimelineZoom: 1

[Metadata]
Title:Deja Vu
TitleUnicode:Deja Vu
Artist:Dave Rodgers
ArtistUnicode:Dave Rodgers
Creator:Faust
Version:Street Stage
Source:頭文字D
Tags:Eurobeat Vocals English Akali J1NX1337 Initial D electronic SUPER EUROBEAT presents EUROMACH 2
BeatmapID:1054656
BeatmapSetID:469679

[Difficulty]
HPDrainRate:5.2
CircleSize:3.8
OverallDifficulty:6.2
ApproachRate:8.2
SliderMultiplier:1.4
SliderTickRate:1

[Events]
//Background and Video events
0,0,"DJBG.jpg",0,0
//Break Periods
//Storyboard Layer 0 (Background)
//Storyboard Layer 1 (Fail)
//Storyboard Layer 2 (Pass)
//Storyboard Layer 3 (Foreground)
//Storyboard Layer 4 (Overlay)
//Storyboard Sound Samples

[TimingPoints]
771,389.61038961039,4,1,1,40,1,0
1745,-133.333333333333,4,2,1,50,0,0
2232,-111.111111111111,4,2,1,30,0,0
2523,-111.111111111111,4,2,1,40,0,0
3108,-111.111111111111,4,2,1,40,0,0
14796,-90.9090909090909,4,1,1,45,0,0
26874,-83.3333333333333,4,1,1,45,0,0
39732,-86.9565217391304,4,1,1,45,0,0
52199,-83.3333333333333,4,1,1,45,0,0
64861,-80,4,1,1,45,0,1
76745,-80,4,1,1,45,0,0
78887,-80,4,1,1,45,0,1
91939,-80,4,1,1,45,0,0
92719,-83.3333333333333,4,1,1,45,0,0
105186,-86.9565217391304,4,1,1,45,0,0
117654,-83.3333333333333,4,1,1,45,0,0
130316,-80,4,1,1,45,0,1
141809,-80,4,1,1,45,0,0
144342,-80,4,1,1,45,0,1
156615,-80,4,1,1,45,0,0
158173,-83.3333333333333,4,1,1,45,0,0
170640,390.625,4,1,1,40,1,0
170641,-100,4,1,1,40,0,0
183140,389.61038961039,4,1,1,40,1,0
183140,-95.2380952380952,4,1,1,40,0,0
195802,-90.9090909090909,4,1,1,45,0,1
204665,-90.9090909090909,4,1,1,5,0,1
204763,-90.9090909090909,4,1,1,45,0,1
207295,-90.9090909090909,4,1,1,45,0,0
208951,-90.9090909090909,4,1,1,5,0,0
209049,-83.3333333333333,4,1,1,45,0,0
209828,-80,4,1,1,45,0,1
222880,-80,4,1,1,45,0,0

[Colours]
Combo1 : 78,137,148
Combo2 : 208,253,181
Combo3 : 237,7,77
Combo4 : 182,58,136

[HitObjects]
349,136,1746,6,0,L|376:92,2,52.5000020027161
269,114,2330,6,0,P|230:110|182:113,1,62.9999980773926,4|0,0:0|0:0,0:0:0:0:
130,142,2719,2,0,L|137:217,1,62.9999980773926
129,287,3109,2,0,P|85:296|59:290,2,62.9999980773926
205,257,3693,1,0,0:0:0:0:
286,250,3888,6,0,P|328:254|366:278,1,62.9999980773926,0|0,0:0|0:0,0:0:0:0:
424,237,4278,2,0,L|423:155,1,62.9999980773926,0|0,0:0|0:0,0:0:0:0:
414,92,4667,1,0,0:0:0:0:
344,49,4862,1,0,0:0:0:0:
262,60,5057,2,0,P|218:54|182:37,1,62.9999980773926,0|0,0:0|0:0,0:0:0:0:
172,35,5349,1,0,0:0:0:0:
141,41,5446,6,0,P|100:55|71:87,2,62.9999980773926,0|0|0,0:0|0:0|0:0,0:0:0:0:
144,122,6031,1,0,0:0:0:0:
149,203,6226,2,0,P|190:189|219:157,2,62.9999980773926,0|0|0,0:0|0:0|0:0,0:0:0:0:
67,208,6810,1,0,0:0:0:0:
59,289,7005,6,0,P|83:314|128:333,1,62.9999980773926,0|0,0:0|0:0,0:0:0:0:
189,321,7395,2,0,L|239:273,1,62.9999980773926
312,305,7784,2,0,P|366:333|436:329,1,125.999996154785
478,264,8369,1,0,0:0:0:0:
478,264,8564,6,0,P|450:241|429:201,1,62.9999980773926
410,140,8953,2,0,P|394:105|367:80,1,62.9999980773926
309,134,9343,2,0,P|277:111|241:103,1,62.9999980773926
228,183,9733,2,0,P|189:179|154:190,1,62.9999980773926
178,266,10122,6,0,P|301:301|406:214,2,251.999992309571
130,198,11875,5,0,0:0:0:0:
143,117,12070,2,0,P|179:84|209:79,1,62.9999980773926
254,133,12460,1,0,0:0:0:0:
254,133,12655,2,0,P|308:146|399:133,1,125.999996154785
447,96,13239,6,0,L|468:174,1,62.9999980773926
439,235,13629,2,0,P|396:221|361:223,1,62.9999980773926
297,235,14018,2,0,B|293:267|293:267|276:298,1,62.9999980773926
209,339,14408,1,0,0:0:0:0:
128,321,14603,1,0,0:0:0:0:
77,199,14797,5,12,0:0:0:0:
104,102,14992,2,0,L|117:60,2,38.5000011749268
174,174,15382,2,0,L|220:158,2,38.5000011749268,8|8|8,0:0|0:0|0:0,0:0:0:0:
150,271,15772,1,0,0:0:0:0:
150,271,15869,1,0,0:0:0:0:
150,271,15966,2,0,P|204:287|243:282,1,77.0000023498536
352,255,16356,5,8,0:0:0:0:
445,289,16551,2,0,L|497:305,2,38.5000011749268
431,189,16940,2,0,L|473:158,2,38.5000011749268,8|8|8,0:0|0:0|0:0,0:0:0:0:
336,152,17330,1,0,0:0:0:0:
336,152,17427,1,0,0:0:0:0:
336,152,17525,2,0,P|314:107|283:81,1,77.0000023498536
169,49,17914,5,0,0:0:0:0:
69,58,18109,2,0,L|13:64,2,38.5000011749268
127,140,18499,2,0,L|101:190,2,38.5000011749268,8|0|0,0:0|0:0|0:0,0:0:0:0:
226,132,18888,1,0,0:0:0:0:
226,132,18986,1,0,0:0:0:0:
226,132,19083,2,0,P|254:172|294:203,1,77.0000023498536
389,255,19473,5,8,0:0:0:0:
474,203,19668,2,0,L|513:173,2,38.5000011749268,8|0|0,0:0|0:0|0:0,0:0:0:0:
476,303,20057,2,0,L|522:331,2,38.5000011749268,0|0|8,0:0|0:0|0:0,0:0:0:0:
395,362,20447,1,0,0:0:0:0:
395,362,20544,1,0,0:0:0:0:
395,362,20642,1,0,0:0:0:0:
304,320,20836,1,0,0:0:0:0:
284,190,21031,5,8,0:0:0:0:
222,110,21226,1,0,0:0:0:0:
222,110,21323,1,0,0:0:0:0:
222,110,21421,2,0,P|184:84|144:82,1,77.0000023498536
57,107,21810,2,0,L|47:193,1,77.0000023498536,8|0,0:0|0:0,0:0:0:0:
44,222,22103,1,0,0:0:0:0:
44,222,22200,2,0,P|87:258|133:266,1,77.0000023498536
237,269,22590,5,8,0:0:0:0:
331,238,22784,1,0,0:0:0:0:
331,238,22882,1,0,0:0:0:0:
331,238,22979,2,0,P|385:199|395:162,1,77.0000023498536,0|8,0:0|0:0,0:0:0:0:
379,91,23369,2,0,L|284:72,1,77.0000023498536,0|8,0:0|0:0,0:0:0:0:
265,68,23661,1,0,0:0:0:0:
265,68,23759,2,0,P|227:105|175:124,1,77.0000023498536
80,151,24148,5,12,0:0:0:0:
121,242,24343,2,0,L|91:285,2,38.5000011749268
214,281,24733,2,0,L|212:331,2,38.5000011749268
308,247,25122,1,0,0:0:0:0:
308,247,25220,1,0,0:0:0:0:
308,247,25317,2,0,P|350:219|401:212,1,77.0000023498536
501,173,25707,6,0,L|501:120,3,38.5000011749268,12|0|0|0,0:0|0:0|0:0|0:0,0:0:0:0:
451,126,26096,2,0,L|430:69,3,38.5000011749268
393,113,26486,2,0,L|360:92,3,38.5000011749268
337,144,26875,5,8,0:0:0:0:
337,144,27265,6,0,P|282:131|232:152,1,83.9999974365235,12|0,0:0|0:0,0:0:0:0:
162,193,27655,1,8,0:0:0:0:
190,298,27849,2,0,P|143:284|76:306,2,83.9999974365235,0|8|0,0:0|0:0|0:0,0:0:0:0:
294,332,28434,1,8,0:0:0:0:
398,299,28629,1,0,0:0:0:0:
398,299,28823,2,0,P|428:239|427:202,1,83.9999974365235,8|0,0:0|0:0,0:0:0:0:
429,223,29407,5,0,0:0:0:0:
295,135,29602,1,8,0:0:0:0:
436,63,29797,1,0,0:0:0:0:
429,223,29992,2,0,P|381:251|331:249,1,83.9999974365235,8|8,0:0|0:0,0:0:0:0:
215,211,30382,6,0,L|188:308,1,83.9999974365235,8|0,0:0|0:0,0:0:0:0:
88,326,30772,1,8,0:0:0:0:
88,326,30869,1,0,0:0:0:0:
88,326,30966,2,0,P|55:279|44:233,1,83.9999974365235,0|8,0:0|0:0,0:0:0:0:
104,160,31356,2,0,P|128:107|162:75,1,83.9999974365235,0|8,0:0|0:0,0:0:0:0:
254,84,31746,2,0,P|311:78|356:92,1,83.9999974365235
429,141,32135,1,0,0:0:0:0:
429,141,32524,5,0,0:0:0:0:
429,141,32622,1,0,0:0:0:0:
429,141,32719,2,0,L|403:252,1,83.9999974365235,8|0,0:0|0:0,0:0:0:0:
260,279,33109,2,0,L|283:184,1,83.9999974365235,8|4,0:0|0:0,0:0:0:0:
257,55,33499,6,0,P|208:38|146:44,1,83.9999974365235,4|8,0:0|0:0,0:0:0:0:
68,57,33888,1,8,0:0:0:0:
61,166,34083,2,0,P|49:209|58:279,2,83.9999974365235,0|8|0,0:0|0:0|0:0,0:0:0:0:
170,152,34668,1,8,0:0:0:0:
260,212,34862,1,0,0:0:0:0:
260,212,35057,2,0,P|266:261|258:313,1,83.9999974365235,8|0,0:0|0:0,0:0:0:0:
262,295,35642,5,0,0:0:0:0:
108,253,35836,1,8,0:0:0:0:
185,113,36031,1,0,0:0:0:0:
341,146,36226,2,0,P|362:182|368:236,1,83.9999974365235,8|8,0:0|0:0,0:0:0:0:
265,322,36615,6,0,P|212:317|176:297,1,83.9999974365235,8|0,0:0|0:0,0:0:0:0:
98,236,37005,1,8,0:0:0:0:
98,236,37102,1,0,0:0:0:0:
98,236,37200,2,0,P|97:168|209:108,1,167.999994873047,0|0,0:0|0:0,0:0:0:0:
277,94,37784,1,8,0:0:0:0:
277,94,38174,5,8,0:0:0:0:
307,250,38368,1,12,0:0:0:0:
307,250,38758,1,12,0:0:0:0:
307,250,39732,6,0,P|260:267|202:265,1,80.5000015354157,12|0,0:0|0:0,0:0:0:0:
127,246,40122,1,8,0:0:0:0:
205,176,40317,2,0,P|243:153|276:120,1,80.5000015354157,0|8,0:0|0:0,0:0:0:0:
171,89,40706,1,0,0:0:0:0:
103,169,40901,2,0,P|112:213|134:259,1,80.5000015354157,8|0,0:0|0:0,0:0:0:0:
246,327,41291,6,0,L|335:300,1,80.5000015354157,8|0,0:0|0:0,0:0:0:0:
422,269,41680,1,8,0:0:0:0:
414,165,41875,2,0,P|386:111|354:75,2,80.5000015354157,0|8|0,0:0|0:0|0:0,0:0:0:0:
312,193,42459,1,8,0:0:0:0:
209,170,42654,1,8,0:0:0:0:
114,278,42849,6,0,P|137:300|193:319,1,80.5000015354157,8|0,0:0|0:0,0:0:0:0:
286,332,43239,1,8,0:0:0:0:
365,264,43433,2,0,P|386:231|397:184,2,80.5000015354157,0|8|0,0:0|0:0|0:0,0:0:0:0:
292,188,44018,1,8,0:0:0:0:
332,90,44213,1,0,0:0:0:0:
196,39,44407,6,0,P|149:30|84:37,1,80.5000015354157,8|0,0:0|0:0,0:0:0:0:
56,116,44797,2,0,L|68:203,1,80.5000015354157,8|0,0:0|0:0,0:0:0:0:
167,228,45187,2,0,L|155:139,1,80.5000015354157,8|0,0:0|0:0,0:0:0:0:
247,96,45576,1,8,0:0:0:0:
350,112,45771,1,0,0:0:0:0:
404,245,45966,6,0,B|371:272|371:272|306:295,1,80.5000015354157,8|0,0:0|0:0,0:0:0:0:
236,320,46355,1,12,0:0:0:0:
258,217,46550,2,0,B|238:172|238:172|205:141,1,80.5000015354157,0|8,0:0|0:0,0:0:0:0:
136,81,46940,1,0,0:0:0:0:
115,183,47135,2,0,L|101:284,1,80.5000015354157,8|0,0:0|0:0,0:0:0:0:
236,320,47524,6,0,P|307:309|341:289,2,80.5000015354157,8|0|8,0:0|0:0|0:0,0:0:0:0:
209,218,48109,2,0,P|223:166|242:133,1,80.5000015354157,8|0,0:0|0:0,0:0:0:0:
294,55,48498,1,0,0:0:0:0:
398,55,48693,1,8,0:0:0:0:
446,147,48888,1,8,0:0:0:0:
344,251,49083,6,0,P|287:280|238:283,1,80.5000015354157,8|0,0:0|0:0,0:0:0:0:
279,177,49472,1,8,0:0:0:0:
194,115,49667,2,0,P|142:92|86:85,1,80.5000015354157,0|8,0:0|0:0,0:0:0:0:
129,191,50057,2,0,P|83:224|49:269,1,80.5000015354157,0|8,0:0|0:0,0:0:0:0:
154,300,50446,1,0,0:0:0:0:
288,327,50641,5,8,0:0:0:0:
407,261,50836,1,0,0:0:0:0:
335,144,51031,1,8,0:0:0:0:
216,213,51226,2,0,P|148:203|79:109,1,161.000003070831,12|8,0:0|0:0,0:0:0:0:
145,51,51810,1,0,0:0:0:0:
145,51,52005,1,0,0:0:0:0:
145,51,52200,6,0,B|157:64|157:64|171:65|171:65|180:80|180:80|197:82|197:82|226:111,1,83.9999974365235,12|0,0:0|0:0,0:0:0:0:
300,155,52589,1,8,0:0:0:0:
274,260,52784,2,0,P|198:278|171:270,1,83.9999974365235,0|8,0:0|0:0,0:0:0:0:
84,267,53174,1,0,0:0:0:0:
106,97,53368,1,8,0:0:0:0:
204,188,53563,1,0,0:0:0:0:
204,188,53758,6,0,P|243:191|298:175,1,83.9999974365235,12|0,0:0|0:0,0:0:0:0:
388,141,54148,1,8,0:0:0:0:
384,250,54342,2,0,P|412:285|427:329,2,83.9999974365235,0|8|0,0:0|0:0|0:0,0:0:0:0:
300,320,54927,2,0,P|257:333|190:322,1,83.9999974365235,8|0,0:0|0:0,0:0:0:0:
190,341,55219,1,0,0:0:0:0:
162,329,55317,6,0,P|136:293|130:247,1,83.9999974365235,12|0,0:0|0:0,0:0:0:0:
195,167,55706,2,0,P|227:183|284:181,1,83.9999974365235,8|0,0:0|0:0,0:0:0:0:
303,178,55998,1,0,0:0:0:0:
330,166,56096,1,8,0:0:0:0:
384,71,56291,1,0,0:0:0:0:
285,26,56485,2,0,P|233:13|196:15,1,83.9999974365235,8|0,0:0|0:0,0:0:0:0:
74,94,56875,6,0,L|99:193,1,83.9999974365235,8|0,0:0|0:0,0:0:0:0:
122,281,57265,1,8,0:0:0:0:
223,240,57459,2,0,L|257:150,1,83.9999974365235,0|8,0:0|0:0,0:0:0:0:
292,59,57849,1,0,0:0:0:0:
359,144,58044,1,8,0:0:0:0:
178,85,58239,1,0,0:0:0:0:
178,85,58433,6,0,B|163:90|163:90|156:102|156:102|138:106|138:106|126:124|126:124|99:132,1,83.9999974365235,12|0,0:0|0:0,0:0:0:0:
28,198,58823,1,8,0:0:0:0:
107,272,59018,2,0,P|173:283|205:280,1,83.9999974365235,0|8,0:0|0:0,0:0:0:0:
299,281,59407,1,0,0:0:0:0:
381,119,59602,1,8,0:0:0:0:
260,178,59797,1,0,0:0:0:0:
260,178,59992,6,0,P|216:185|170:177,1,83.9999974365235,12|0,0:0|0:0,0:0:0:0:
76,134,60381,1,8,0:0:0:0:
62,242,60576,2,0,P|82:276|89:342,1,83.9999974365235,0|8,0:0|0:0,0:0:0:0:
199,310,60966,1,8,0:0:0:0:
296,261,61161,2,0,P|328:234|358:175,1,83.9999974365235,8|0,0:0|0:0,0:0:0:0:
261,74,61550,6,0,L|170:51,1,83.9999974365235,8|0,0:0|0:0,0:0:0:0:
114,141,61940,2,0,L|205:164,1,83.9999974365235,8|0,0:0|0:0,0:0:0:0:
213,269,62330,1,8,0:0:0:0:
130,340,62524,2,0,P|43:283|45:204,1,167.999994873047,8|12,0:0|0:0,0:0:0:0:
58,119,63109,6,0,L|81:78,3,41.9999987182618,0|0|0|0,0:0|0:0|0:0|0:0,0:0:0:0:
118,96,63498,2,0,L|157:61,3,41.9999987182618,0|0|0|0,0:0|0:0|0:0|0:0,0:0:0:0:
185,88,63888,1,0,0:0:0:0:
292,107,64083,6,0,L|253:197,1,83.9999974365235,0|0,0:0|0:0,0:0:0:0:
218,287,64472,1,0,0:0:0:0:
218,287,64667,5,8,0:0:0:0:
107,261,64862,2,0,P|91:208|94:153,1,87.5,0|12,0:0|0:0,0:0:0:0:
112,63,65252,1,0,0:0:0:0:
205,127,65446,2,0,P|288:138|318:133,1,87.5,8|0,0:0|0:0,0:0:0:0:
403,117,65836,1,8,0:0:0:0:
417,229,66031,6,0,L|416:326,2,87.5,0|8|8,0:0|0:0|0:0,0:0:0:0:
306,286,66615,2,0,P|253:297|205:286,1,87.5,8|0,0:0|0:0,0:0:0:0:
111,260,67005,1,8,0:0:0:0:
92,73,67200,1,0,0:0:0:0:
203,103,67394,1,8,0:0:0:0:
36,174,67589,1,8,0:0:0:0:
218,212,67784,6,0,P|297:212|332:195,1,87.5,0|0,0:0|0:0,0:0:0:0:
391,135,68174,2,0,L|376:40,1,87.5,8|0,0:0|0:0,0:0:0:0:
293,122,68563,2,0,L|306:227,1,87.5,8|0,0:0|0:0,0:0:0:0:
318,321,68953,1,8,0:0:0:0:
208,288,69148,6,0,B|188:250|188:250|180:188,1,87.5,8|0,0:0|0:0,0:0:0:0:
171,91,69537,1,0,0:0:0:0:
171,91,69635,1,0,0:0:0:0:
171,91,69732,2,0,P|214:92|272:77,1,87.5,8|0,0:0|0:0,0:0:0:0:
356,26,70122,1,8,0:0:0:0:
331,194,70317,1,0,0:0:0:0:
219,173,70511,1,8,0:0:0:0:
219,173,70706,2,0,P|187:216|178:252,1,87.5,8|0,0:0|0:0,0:0:0:0:
300,346,71096,6,0,P|357:341|398:323,1,87.5,4|8,0:0|0:0,0:0:0:0:
476,262,71485,1,0,0:0:0:0:
454,150,71680,2,0,P|401:141|351:119,1,87.5,12|0,0:0|0:0,0:0:0:0:
272,70,72070,1,8,0:0:0:0:
166,112,72265,6,0,P|123:132|51:144,2,87.5,0|8|0,0:0|0:0|0:0,0:0:0:0:
235,202,72849,2,0,B|226:251|254:293,1,87.5,8|0,0:0|0:0,0:0:0:0:
359,253,73239,1,8,0:0:0:0:
353,95,73433,1,0,0:0:0:0:
235,202,73628,1,8,0:0:0:0:
232,46,73823,1,0,0:0:0:0:
112,150,74018,6,0,B|99:173|99:173|107:238,1,87.5,8|0,0:0|0:0,0:0:0:0:
185,316,74407,2,0,P|250:316|279:299,1,87.5,8|0,0:0|0:0,0:0:0:0:
360,238,74797,1,8,0:0:0:0:
384,126,74992,1,0,0:0:0:0:
465,205,75187,1,8,0:0:0:0:
273,157,75381,6,0,B|229:151|229:151|185:127,1,87.5,0|8,0:0|0:0,0:0:0:0:
99,61,75771,1,0,0:0:0:0:
53,164,75966,1,8,0:0:0:0:
127,250,76161,2,0,P|173:243|242:203,1,87.5,0|8,0:0|0:0,0:0:0:0:
317,185,76550,2,0,P|394:232|344:304,1,175,0|0,0:0|0:0,0:0:0:0:
210,226,77135,6,0,P|152:171|141:107,2,131.25,8|8|8,0:0|0:0|0:0,0:0:0:0:
317,185,77914,1,12,0:0:0:0:
296,73,78109,6,0,P|246:66|199:78,1,87.5,0|8,0:0|0:0,0:0:0:0:
101,108,78498,1,0,0:0:0:0:
101,108,78693,5,0,0:0:0:0:
113,220,78888,2,0,L|127:314,1,87.5,4|12,0:0|0:0,0:0:0:0:
233,267,79278,1,0,0:0:0:0:
213,154,79472,2,0,P|241:121|318:95,1,87.5,8|0,0:0|0:0,0:0:0:0:
388,66,79862,1,8,0:0:0:0:
430,171,80057,6,0,L|463:296,2,87.5,0|8|0,0:0|0:0|0:0,0:0:0:0:
355,257,80641,2,0,P|309:290|260:291,1,87.5,8|0,0:0|0:0,0:0:0:0:
166,307,81031,1,8,0:0:0:0:
168,138,81226,1,0,0:0:0:0:
285,213,81420,1,8,0:0:0:0:
97,231,81615,1,8,0:0:0:0:
288,208,81810,6,0,P|295:154|311:114,1,87.5,8|0,0:0|0:0,0:0:0:0:
408,70,82200,2,0,P|421:111|425:158,1,87.5,8|0,0:0|0:0,0:0:0:0:
364,252,82589,2,0,P|310:240|277:211,1,87.5,8|0,0:0|0:0,0:0:0:0:
197,148,82979,1,8,0:0:0:0:
104,213,83174,2,0,L|107:308,1,87.5,0|8,0:0|0:0,0:0:0:0:
189,221,83563,5,0,0:0:0:0:
120,129,83758,2,0,P|131:105|155:80,3,43.75,0|0|0|0,0:0|0:0|0:0|0:0,0:0:0:0:
181,74,84148,2,0,P|204:73|239:80,3,43.75,8|0|0|0,0:0|0:0|0:0|0:0,0:0:0:0:
258,103,84537,2,0,P|269:123|274:149,3,43.75,8|0|0|0,0:0|0:0|0:0|0:0,0:0:0:0:
264,185,84927,1,8,0:0:0:0:
194,326,85122,6,0,P|239:352|310:349,1,87.5,0|4,0:0|0:0,0:0:0:0:
386,336,85511,1,0,0:0:0:0:
430,231,85706,2,0,P|411:163|389:141,1,87.5,8|0,0:0|0:0,0:0:0:0:
323,67,86096,1,8,0:0:0:0:
215,103,86291,6,0,P|135:117|90:109,2,87.5,0|8|0,0:0|0:0|0:0,0:0:0:0:
201,216,86875,2,0,P|224:253|274:291,1,87.5,8|0,0:0|0:0,0:0:0:0:
364,321,87265,1,8,0:0:0:0:
391,142,87459,1,0,0:0:0:0:
462,287,87654,1,8,0:0:0:0:
305,188,87849,1,8,0:0:0:0:
479,195,88044,6,0,P|491:142|477:87,1,87.5,8|0,0:0|0:0,0:0:0:0:
396,40,88433,2,0,P|356:67|293:74,1,87.5,8|0,0:0|0:0,0:0:0:0:
215,24,88823,1,8,0:0:0:0:
119,85,89018,1,0,0:0:0:0:
111,198,89213,1,8,0:0:0:0:
250,167,89407,6,0,P|279:197|306:264,1,87.5,0|8,0:0|0:0,0:0:0:0:
330,347,89797,1,0,0:0:0:0:
443,346,89992,1,8,0:0:0:0:
489,243,90187,2,0,B|499:197|499:197|492:147,1,87.5,0|8,0:0|0:0,0:0:0:0:
412,76,90576,2,0,P|348:129|239:120,1,175,0|0,0:0|0:0,0:0:0:0:
114,83,91161,6,0,P|57:122|26:215,2,131.25,8|8|8,0:0|0:0|0:0,0:0:0:0:
148,231,91940,1,12,0:0:0:0:
148,231,92719,6,0,P|181:264|232:277,1,83.9999974365235,12|0,0:0|0:0,0:0:0:0:
324,279,93109,1,8,0:0:0:0:
403,203,93304,2,0,L|388:90,1,83.9999974365235,0|8,0:0|0:0,0:0:0:0:
291,75,93693,2,0,L|306:188,1,83.9999974365235,0|8,0:0|0:0,0:0:0:0:
197,125,94083,1,0,0:0:0:0:
197,125,94278,2,0,P|149:110|90:117,1,83.9999974365235,8|0,0:0|0:0,0:0:0:0:
115,110,94862,5,0,0:0:0:0:
136,268,95057,1,8,0:0:0:0:
28,200,95252,1,0,0:0:0:0:
228,185,95446,2,0,P|273:216|294:250,1,83.9999974365235,8|8,0:0|0:0,0:0:0:0:
401,329,95836,6,0,L|417:235,1,83.9999974365235,8|0,0:0|0:0,0:0:0:0:
425,136,96226,1,8,0:0:0:0:
425,136,96323,1,0,0:0:0:0:
425,136,96420,2,0,P|405:91|370:53,1,83.9999974365235,0|8,0:0|0:0,0:0:0:0:
323,156,96810,2,0,P|283:127|233:111,1,83.9999974365235,0|8,0:0|0:0,0:0:0:0:
247,224,97200,2,0,P|198:218|147:230,1,83.9999974365235
206,325,97589,1,0,0:0:0:0:
206,325,97979,5,0,0:0:0:0:
206,325,98076,1,0,0:0:0:0:
206,325,98174,2,0,P|270:332|318:319,1,83.9999974365235,8|0,0:0|0:0,0:0:0:0:
380,196,98563,2,0,P|316:189|268:202,1,83.9999974365235,8|12,0:0|0:0,0:0:0:0:
166,132,98953,6,0,P|143:87|94:59,1,83.9999974365235,12|0,0:0|0:0,0:0:0:0:
67,164,99342,1,8,0:0:0:0:
125,256,99537,2,0,P|171:240|209:199,1,83.9999974365235,0|8,0:0|0:0,0:0:0:0:
285,282,99927,2,0,P|312:243|320:183,1,83.9999974365235,0|8,0:0|0:0,0:0:0:0:
344,100,100317,1,0,0:0:0:0:
344,100,100511,2,0,L|248:118,1,83.9999974365235,8|0,0:0|0:0,0:0:0:0:
261,115,101096,5,0,0:0:0:0:
136,194,101291,1,8,0:0:0:0:
173,54,101485,1,0,0:0:0:0:
227,248,101680,2,0,B|244:312|244:312|266:284,1,83.9999974365235,8|8,0:0|0:0,0:0:0:0:
377,223,102070,6,0,L|350:137,1,83.9999974365235,8|0,0:0|0:0,0:0:0:0:
317,38,102459,1,8,0:0:0:0:
317,38,102557,1,0,0:0:0:0:
317,38,102654,2,0,P|246:79|134:64,1,167.999994873047
57,45,103239,1,8,0:0:0:0:
57,45,103628,5,0,0:0:0:0:
77,203,103823,1,12,0:0:0:0:
77,203,104213,1,12,0:0:0:0:
77,203,105187,6,0,P|108:231|165:248,1,80.5000015354157,12|0,0:0|0:0,0:0:0:0:
248,243,105576,1,8,0:0:0:0:
195,154,105771,2,0,P|185:104|196:56,1,80.5000015354157,0|0,0:0|0:0,0:0:0:0:
282,28,106161,1,0,0:0:0:0:
303,130,106355,2,0,P|364:176|386:181,1,80.5000015354157,8|0,0:0|0:0,0:0:0:0:
428,308,106745,6,0,P|371:320|314:309,1,80.5000015354157,8|0,0:0|0:0,0:0:0:0:
244,314,107135,1,8,0:0:0:0:
208,215,107330,2,0,P|198:171|164:122,2,80.5000015354157,0|8|0,0:0|0:0|0:0,0:0:0:0:
122,275,107914,1,8,0:0:0:0:
47,201,108109,1,8,0:0:0:0:
131,82,108304,6,0,P|176:65|226:79,1,80.5000015354157,8|0,0:0|0:0,0:0:0:0:
303,110,108693,1,8,0:0:0:0:
371,189,108888,2,0,P|405:174|464:174,2,80.5000015354157,0|8|0,0:0|0:0|0:0,0:0:0:0:
296,262,109472,1,8,0:0:0:0:
364,341,109667,1,8,0:0:0:0:
220,345,109862,6,0,P|147:326|118:303,1,80.5000015354157,8|0,0:0|0:0,0:0:0:0:
120,221,110252,2,0,P|156:237|196:242,1,80.5000015354157,8|0,0:0|0:0,0:0:0:0:
263,161,110641,2,0,P|190:142|161:119,1,80.5000015354157,8|0,0:0|0:0,0:0:0:0:
95,87,111031,1,8,0:0:0:0:
185,34,111226,1,0,0:0:0:0:
327,47,111420,6,0,P|364:104|368:137,1,80.5000015354157,8|0,0:0|0:0,0:0:0:0:
375,227,111810,1,12,0:0:0:0:
262,229,112005,2,0,P|213:204|163:205,1,80.5000015354157,0|8,0:0|0:0,0:0:0:0:
76,222,112394,1,0,0:0:0:0:
144,312,112589,2,0,P|197:344|236:345,1,80.5000015354157,8|0,0:0|0:0,0:0:0:0:
359,338,112979,6,0,L|424:275,2,80.5000015354157,8|0|8,0:0|0:0|0:0,0:0:0:0:
311,243,113563,2,0,P|294:197|304:143,1,80.5000015354157,0|8,0:0|0:0,0:0:0:0:
322,64,113953,1,0,0:0:0:0:
223,27,114148,1,8,0:0:0:0:
133,81,114342,1,8,0:0:0:0:
136,225,114537,6,0,P|153:291|173:316,1,80.5000015354157,8|0,0:0|0:0,0:0:0:0:
258,335,114927,1,8,0:0:0:0:
351,286,115122,2,0,P|401:232|411:194,1,80.5000015354157,0|8,0:0|0:0,0:0:0:0:
302,196,115511,2,0,P|308:122|292:86,1,80.5000015354157,0|8,0:0|0:0,0:0:0:0:
219,58,115901,1,0,0:0:0:0:
96,119,116096,5,8,0:0:0:0:
199,208,116291,1,0,0:0:0:0:
77,270,116485,1,8,0:0:0:0:
183,356,116680,2,0,P|275:348|327:305,1,161.000003070831,12|12,0:0|0:0,0:0:0:0:
380,216,117265,1,0,0:0:0:0:
380,216,117459,1,0,0:0:0:0:
380,216,117654,6,0,B|370:203|370:203|371:188|371:188|360:179|360:179|358:161|358:161|349:152|349:152|348:137,1,83.9999974365235,12|0,0:0|0:0,0:0:0:0:
305,40,118044,1,8,0:0:0:0:
225,115,118239,2,0,P|177:126|128:117,1,83.9999974365235,0|0,0:0|0:0,0:0:0:0:
39,84,118628,1,0,0:0:0:0:
72,263,118823,1,8,0:0:0:0:
195,208,119018,1,8,0:0:0:0:
195,208,119213,6,0,P|249:191|291:191,1,83.9999974365235,12|0,0:0|0:0,0:0:0:0:
385,200,119602,1,8,0:0:0:0:
432,297,119797,2,0,L|518:266,2,83.9999974365235,8|0|0,0:0|0:0|0:0,0:0:0:0:
323,315,120381,2,0,P|279:303|215:313,1,83.9999974365235,8|0,0:0|0:0,0:0:0:0:
213,316,120674,1,0,0:0:0:0:
188,331,120771,6,0,L|146:238,1,83.9999974365235,12|0,0:0|0:0,0:0:0:0:
69,183,121161,2,0,L|109:79,1,83.9999974365235,8|0,0:0|0:0,0:0:0:0:
110,77,121453,1,0,0:0:0:0:
121,50,121550,1,8,0:0:0:0:
204,120,121745,1,0,0:0:0:0:
311,139,121940,1,8,0:0:0:0:
415,105,122135,1,0,0:0:0:0:
392,254,122330,6,0,P|345:280|311:284,1,83.9999974365235,8|0,0:0|0:0,0:0:0:0:
206,294,122719,1,8,0:0:0:0:
261,200,122914,2,0,P|272:164|256:92,1,83.9999974365235,0|8,0:0|0:0,0:0:0:0:
198,32,123304,1,0,0:0:0:0:
110,97,123498,1,8,0:0:0:0:
261,200,123693,1,8,0:0:0:0:
261,200,123888,6,0,B|271:200|271:200|276:212|276:212|286:212|286:212|293:225|293:225|305:226|305:226|311:237|311:237|325:239|325:239|330:253,1,83.9999974365235,12|0,0:0|0:0,0:0:0:0:
413,299,124278,1,8,0:0:0:0:
467,204,124472,2,0,P|484:143|473:109,1,83.9999974365235,0|0,0:0|0:0,0:0:0:0:
435,24,124862,1,0,0:0:0:0:
263,74,125057,1,8,0:0:0:0:
374,157,125252,1,0,0:0:0:0:
374,157,125446,6,0,P|364:206|337:240,1,83.9999974365235,12|0,0:0|0:0,0:0:0:0:
259,302,125836,1,8,0:0:0:0:
227,197,126031,2,0,P|203:141|159:107,1,83.9999974365235,0|8,0:0|0:0,0:0:0:0:
92,70,126420,1,0,0:0:0:0:
75,178,126615,2,0,L|56:278,1,83.9999974365235,8|0,0:0|0:0,0:0:0:0:
190,336,127005,6,0,P|250:347|305:328,1,83.9999974365235,8|0,0:0|0:0,0:0:0:0:
324,246,127394,2,0,P|264:235|209:254,1,83.9999974365235,12|0,0:0|0:0,0:0:0:0:
182,147,127784,1,0,0:0:0:0:
249,61,127979,2,0,P|318:36|418:90,1,167.999994873047,8|12,0:0|0:0,0:0:0:0:
460,162,128563,6,0,P|466:185|471:226,3,41.9999987182618,0|0|0|0,0:0|0:0|0:0|0:0,0:0:0:0:
439,232,128953,2,0,P|424:268|399:293,3,41.9999987182618,0|0|0|0,0:0|0:0|0:0|0:0,0:0:0:0:
381,277,129342,1,8,0:0:0:0:
274,253,129537,6,0,L|243:152,1,83.9999974365235,0|0,0:0|0:0,0:0:0:0:
216,68,129927,1,0,0:0:0:0:
216,68,130122,5,8,0:0:0:0:
121,130,130317,2,0,B|82:158|82:158|47:223,1,87.5,0|12,0:0|0:0,0:0:0:0:
138,278,130706,1,0,0:0:0:0:
249,257,130901,2,0,P|284:280|357:285,1,87.5,8|0,0:0|0:0,0:0:0:0:
442,296,131291,1,8,0:0:0:0:
421,183,131485,6,0,L|399:85,2,87.5,0|8|0,0:0|0:0|0:0,0:0:0:0:
311,151,132070,2,0,P|260:131|191:135,1,87.5,8|0,0:0|0:0,0:0:0:0:
117,156,132459,1,8,0:0:0:0:
244,235,132654,1,0,0:0:0:0:
165,361,132849,1,8,0:0:0:0:
38,282,133044,1,8,0:0:0:0:
117,156,133239,6,0,P|152:125|192:117,1,87.5,8|0,0:0|0:0,0:0:0:0:
203,230,133628,2,0,P|168:261|128:269,1,87.5,8|0,0:0|0:0,0:0:0:0:
28,213,134018,2,0,L|43:110,1,87.5,8|0,0:0|0:0,0:0:0:0:
141,73,134407,1,8,0:0:0:0:
225,150,134602,6,0,P|315:170|334:164,1,87.5,0|8,0:0|0:0,0:0:0:0:
418,146,134992,1,0,0:0:0:0:
418,146,135089,1,0,0:0:0:0:
418,146,135187,2,0,L|443:259,1,87.5,8|0,0:0|0:0,0:0:0:0:
461,342,135576,1,8,0:0:0:0:
286,301,135771,1,0,0:0:0:0:
317,192,135966,1,8,0:0:0:0:
317,192,136161,2,0,P|271:170|211:162,1,87.5,0|8,0:0|0:0,0:0:0:0:
86,216,136550,6,0,L|122:319,1,87.5,0|8,0:0|0:0,0:0:0:0:
221,257,136940,1,0,0:0:0:0:
317,318,137135,2,0,P|366:327|430:293,1,87.5,8|0,0:0|0:0,0:0:0:0:
488,242,137524,1,8,0:0:0:0:
432,142,137719,6,0,L|393:57,2,87.5,0|8|0,0:0|0:0|0:0,0:0:0:0:
329,190,138304,2,0,P|274:209|226:191,1,87.5,8|0,0:0|0:0,0:0:0:0:
137,172,138693,1,8,0:0:0:0:
277,130,138888,1,0,0:0:0:0:
245,278,139083,1,8,0:0:0:0:
116,158,139278,1,8,0:0:0:0:
290,109,139472,6,0,P|336:110|376:133,1,87.5,8|0,0:0|0:0,0:0:0:0:
426,229,139862,2,0,P|377:228|310:269,1,87.5,8|0,0:0|0:0,0:0:0:0:
302,349,140252,1,8,0:0:0:0:
413,329,140446,1,0,0:0:0:0:
302,349,140641,1,8,0:0:0:0:
157,320,140836,6,0,P|125:285|113:225,1,87.5,0|8,0:0|0:0,0:0:0:0:
218,202,141226,1,0,0:0:0:0:
148,112,141420,1,8,0:0:0:0:
239,44,141615,2,0,P|300:31|354:44,1,87.5,0|8,0:0|0:0,0:0:0:0:
407,112,142005,2,0,P|437:200|354:262,1,175,0|0,0:0|0:0,0:0:0:0:
218,202,142589,6,0,P|157:179|63:192,2,131.25,8|8|8,0:0|0:0|0:0,0:0:0:0:
281,296,143368,1,12,0:0:0:0:
388,255,143563,6,0,L|358:155,1,87.5,0|8,0:0|0:0,0:0:0:0:
326,62,143953,1,0,0:0:0:0:
326,62,144148,5,8,0:0:0:0:
229,121,144342,2,0,P|154:142|114:137,1,87.5,0|12,0:0|0:0,0:0:0:0:
30,138,144732,1,0,0:0:0:0:
85,237,144927,2,0,L|135:333,1,87.5,8|0,0:0|0:0,0:0:0:0:
238,294,145317,1,8,0:0:0:0:
326,222,145511,6,0,P|351:185|365:133,2,87.5,0|8|0,0:0|0:0|0:0,0:0:0:0:
219,179,146096,2,0,P|189:118|151:88,1,87.5,8|0,0:0|0:0,0:0:0:0:
66,71,146485,1,8,0:0:0:0:
88,240,146680,1,0,0:0:0:0:
175,104,146875,1,8,0:0:0:0:
12,168,147070,1,8,0:0:0:0:
172,205,147265,6,0,P|209:260|209:306,1,87.5,8|0,0:0|0:0,0:0:0:0:
317,320,147654,2,0,P|312:253|335:214,1,87.5,8|0,0:0|0:0,0:0:0:0:
407,161,148044,2,0,P|436:220|475:243,1,87.5,8|0,0:0|0:0,0:0:0:0:
505,132,148433,1,8,0:0:0:0:
420,55,148628,2,0,P|352:32|304:39,1,87.5,0|8,0:0|0:0,0:0:0:0:
226,61,149018,5,0,0:0:0:0:
306,141,149213,2,0,P|322:161|331:183,3,43.75,8|0|0|0,0:0|0:0|0:0|0:0,0:0:0:0:
326,220,149602,2,0,P|320:245|309:266,3,43.75,8|0|0|0,0:0|0:0|0:0|0:0,0:0:0:0:
282,292,149992,2,0,P|259:304|236:309,3,43.75,8|0|0|0,0:0|0:0|0:0|0:0,0:0:0:0:
198,308,150381,1,8,0:0:0:0:
51,250,150576,6,0,L|72:157,1,87.5,0|8,0:0|0:0,0:0:0:0:
101,54,150966,1,0,0:0:0:0:
184,131,151161,2,0,P|262:143|298:132,1,87.5,8|0,0:0|0:0,0:0:0:0:
367,104,151550,1,8,0:0:0:0:
411,192,151745,6,0,B|422:220|422:220|421:288,2,87.5,0|8|0,0:0|0:0|0:0,0:0:0:0:
315,255,152330,2,0,P|264:279|211:270,1,87.5,8|0,0:0|0:0,0:0:0:0:
122,256,152719,1,8,0:0:0:0:
252,182,152914,1,0,0:0:0:0:
106,144,153109,1,8,0:0:0:0:
232,63,153304,1,8,0:0:0:0:
91,17,153498,6,0,P|44:41|12:84,1,87.5,8|0,0:0|0:0,0:0:0:0:
106,144,153888,2,0,P|175:181|201:182,1,87.5,8|0,0:0|0:0,0:0:0:0:
296,177,154278,1,8,0:0:0:0:
385,108,154472,1,0,0:0:0:0:
278,67,154667,1,8,0:0:0:0:
399,216,154862,6,0,B|416:244|416:244|426:316,1,87.5,0|8,0:0|0:0,0:0:0:0:
316,338,155252,1,0,0:0:0:0:
223,272,155446,1,8,0:0:0:0:
269,168,155641,2,0,P|236:134|172:109,1,87.5,0|8,0:0|0:0,0:0:0:0:
86,104,156031,6,0,L|94:286,1,175,0|0,0:0|0:0,0:0:0:0:
233,343,156615,6,0,P|290:354|356:320,2,131.25,8|8|8,0:0|0:0|0:0,0:0:0:0:
215,196,157394,1,12,0:0:0:0:
215,196,158174,6,0,P|240:157|273:129,1,83.9999974365235,12|0,0:0|0:0,0:0:0:0:
366,85,158563,1,8,0:0:0:0:
385,192,158758,2,0,L|399:293,1,83.9999974365235,0|8,0:0|0:0,0:0:0:0:
304,335,159148,2,0,L|291:242,1,83.9999974365235,0|8,0:0|0:0,0:0:0:0:
206,319,159537,1,0,0:0:0:0:
206,319,159732,2,0,P|149:321|109:302,1,83.9999974365235,8|0,0:0|0:0,0:0:0:0:
124,311,160317,5,0,0:0:0:0:
97,154,160511,1,8,0:0:0:0:
35,251,160706,1,0,0:0:0:0:
193,222,160901,2,0,L|282:206,1,83.9999974365235,8|8,0:0|0:0,0:0:0:0:
329,73,161291,6,0,L|236:92,1,83.9999974365235,8|0,0:0|0:0,0:0:0:0:
140,113,161680,1,8,0:0:0:0:
140,113,161778,1,0,0:0:0:0:
140,113,161875,2,0,P|107:156|91:215,1,83.9999974365235,0|8,0:0|0:0,0:0:0:0:
205,196,162265,2,0,P|207:250|233:305,1,83.9999974365235,0|8,0:0|0:0,0:0:0:0:
314,229,162654,2,0,P|350:268|405:294,1,83.9999974365235
412,180,163044,1,0,0:0:0:0:
412,180,163433,5,0,0:0:0:0:
412,180,163531,1,0,0:0:0:0:
412,180,163628,2,0,L|411:81,1,83.9999974365235,8|0,0:0|0:0,0:0:0:0:
266,26,164018,2,0,L|267:125,1,83.9999974365235,8|12,0:0|0:0,0:0:0:0:
169,214,164407,6,0,P|115:201|69:211,1,83.9999974365235,12|0,0:0|0:0,0:0:0:0:
119,309,164797,1,8,0:0:0:0:
226,291,164992,2,0,P|257:245|261:208,1,83.9999974365235,0|8,0:0|0:0,0:0:0:0:
361,260,165381,2,0,P|330:306|326:343,1,83.9999974365235,0|8,0:0|0:0,0:0:0:0:
435,335,165771,1,0,0:0:0:0:
435,335,165966,2,0,B|462:281|462:281|453:252,1,83.9999974365235,8|0,0:0|0:0,0:0:0:0:
455,259,166550,5,0,0:0:0:0:
395,110,166745,1,8,0:0:0:0:
499,158,166940,1,0,0:0:0:0:
349,215,167135,2,0,L|250:248,1,83.9999974365235,8|8,0:0|0:0,0:0:0:0:
160,148,167524,6,0,L|249:120,1,83.9999974365235,8|0,0:0|0:0,0:0:0:0:
342,82,167914,1,8,0:0:0:0:
342,82,168011,1,0,0:0:0:0:
342,82,168109,2,0,P|374:115|365:237,1,167.999994873047,0|0,0:0|0:0,0:0:0:0:
300,314,168693,1,8,0:0:0:0:
300,314,169083,5,0,0:0:0:0:
150,256,169278,1,12,0:0:0:0:
150,256,169667,1,12,0:0:0:0:
150,256,170641,6,0,L|66:222,1,70,12|0,0:0|0:0,0:0:0:0:
150,166,171031,2,0,L|114:83,1,70,0|8,0:0|0:0,0:0:0:0:
213,99,171422,2,0,L|246:16,1,70,8|0,0:0|0:0,0:0:0:0:
305,96,171812,1,0,0:0:0:0:
381,145,172008,1,0,0:0:0:0:
387,263,172203,6,0,P|365:326|349:343,1,70,8|0,0:0|0:0,0:0:0:0:
293,270,172594,2,0,P|251:322|230:333,1,70,0|8,0:0|0:0,0:0:0:0:
203,245,172984,2,0,P|145:280|122:283,1,70,8|0,0:0|0:0,0:0:0:0:
129,190,173375,2,0,P|63:203|40:198,1,70,0|8,0:0|0:0,0:0:0:0:
81,85,173766,6,0,P|94:53|145:15,1,70,8|0,0:0|0:0,0:0:0:0:
181,93,174156,2,0,P|231:101|266:89,1,70
316,34,174547,2,0,P|350:29|384:37,1,70,8|8,0:0|0:0,0:0:0:0:
484,45,174937,2,0,P|471:78|447:103,1,70,0|8,0:0|0:0,0:0:0:0:
361,185,175328,6,0,P|404:221|415:260,1,70,8|8,0:0|0:0,0:0:0:0:
325,269,175719,2,0,P|289:312|250:323,1,70,0|0,0:0|0:0,0:0:0:0:
233,328,176012,1,0,0:0:0:0:
233,328,176109,2,0,P|194:295|158:279,1,70,8|0,0:0|0:0,0:0:0:0:
88,267,176500,1,8,0:0:0:0:
150,201,176695,1,0,0:0:0:0:
87,99,176891,6,0,P|122:78|170:73,1,70,8|0,0:0|0:0,0:0:0:0:
210,140,177281,2,0,P|239:158|273:166,1,70,4|0,0:0|0:0,0:0:0:0:
337,101,177672,2,0,P|366:82|400:74,1,70,8|0,0:0|0:0,0:0:0:0:
467,135,178062,1,0,0:0:0:0:
390,185,178258,1,8,0:0:0:0:
273,166,178453,6,0,P|256:132|229:111,1,70,8|8,0:0|0:0,0:0:0:0:
140,101,178844,2,0,P|106:118|85:145,1,70,0|8,0:0|0:0,0:0:0:0:
76,232,179234,2,0,P|93:266|120:287,1,70,8|0,0:0|0:0,0:0:0:0:
207,298,179625,2,0,P|241:281|262:254,1,70,0|0,0:0|0:0,0:0:0:0:
319,152,180016,6,0,B|353:153|353:153|402:171,1,70,8|0,0:0|0:0,0:0:0:0:
415,251,180406,2,0,B|397:279|397:279|357:313,1,70,0|8,0:0|0:0,0:0:0:0:
280,284,180797,2,0,B|263:254|263:254|254:202,1,70,8|8,0:0|0:0,0:0:0:0:
319,152,181187,1,0,0:0:0:0:
319,152,181285,1,0,0:0:0:0:
319,152,181383,1,0,0:0:0:0:
228,75,181578,6,0,P|182:54|132:54,1,70,8|0,0:0|0:0,0:0:0:0:
73,68,181969,1,0,0:0:0:0:
132,136,182164,2,0,P|143:207|90:279,1,140,4|0,0:0|0:0,0:0:0:0:
43,325,182750,2,0,P|78:350|126:351,1,70,4|0,0:0|0:0,0:0:0:0:
228,336,183141,6,0,B|233:318|233:318|244:310|244:310|250:293|250:293|263:285|263:285|269:267,1,73.4999977569581,12|0,0:0|0:0,0:0:0:0:
319,198,183530,2,0,L|239:146,1,73.4999977569581
174,109,183920,2,0,L|135:172,1,73.4999977569581,8|0,0:0|0:0,0:0:0:0:
84,252,184309,1,0,0:0:0:0:
179,254,184504,1,0,0:0:0:0:
257,157,184699,6,0,P|286:131|342:127,1,73.4999977569581,12|0,0:0|0:0,0:0:0:0:
410,151,185089,2,0,P|435:183|450:223,1,73.4999977569581,0|8,0:0|0:0,0:0:0:0:
413,302,185478,2,0,P|383:330|328:339,1,73.4999977569581,8|0,0:0|0:0,0:0:0:0:
304,343,185770,1,0,0:0:0:0:
304,343,185868,2,0,L|258:275,1,73.4999977569581,8|0,0:0|0:0,0:0:0:0:
196,175,186257,6,0,P|152:151|119:150,1,73.4999977569581,12|0,0:0|0:0,0:0:0:0:
97,239,186647,2,0,P|141:263|174:264,1,73.4999977569581,0|0,0:0|0:0,0:0:0:0:
258,246,187037,2,0,P|298:228|342:229,1,73.4999977569581,8|0,0:0|0:0,0:0:0:0:
354,318,187426,2,0,P|314:336|270:335,1,73.4999977569581,0|8,0:0|0:0,0:0:0:0:
159,326,187816,6,0,L|129:245,1,73.4999977569581,8|8,0:0|0:0,0:0:0:0:
197,186,188205,2,0,L|269:198,1,73.4999977569581,0|0,0:0|0:0,0:0:0:0:
339,133,188595,2,0,L|309:52,1,73.4999977569581,8|8,0:0|0:0,0:0:0:0:
218,47,188985,1,0,0:0:0:0:
106,101,189179,5,8,0:0:0:0:
106,101,189277,1,8,0:0:0:0:
106,101,189374,2,0,B|98:117|98:117|102:132|102:132|93:147|93:147|97:164|97:164|87:192,1,73.4999977569581,12|0,0:0|0:0,0:0:0:0:
83,264,189764,2,0,P|130:271|162:255,1,73.4999977569581,0|0,0:0|0:0,0:0:0:0:
224,198,190153,2,0,P|271:191|303:207,1,73.4999977569581,8|0,0:0|0:0,0:0:0:0:
367,262,190543,1,0,0:0:0:0:
442,202,190738,1,8,0:0:0:0:
368,100,190933,6,0,P|331:73|281:58,1,73.4999977569581,12|0,0:0|0:0,0:0:0:0:
209,62,191322,2,0,L|229:138,1,73.4999977569581,0|8,0:0|0:0,0:0:0:0:
142,177,191712,2,0,P|102:160|59:158,1,73.4999977569581,8|0,0:0|0:0,0:0:0:0:
40,247,192102,1,8,0:0:0:0:
149,307,192296,5,0,0:0:0:0:
149,307,192394,1,8,0:0:0:0:
149,307,192491,2,0,P|181:288|228:278,1,73.4999977569581,8|0,0:0|0:0,0:0:0:0:
311,273,192881,2,0,L|282:199,1,73.4999977569581,0|8,0:0|0:0,0:0:0:0:
250,115,193270,2,0,P|218:133|183:143,1,73.4999977569581,8|0,0:0|0:0,0:0:0:0:
87,146,193660,1,0,0:0:0:0:
87,146,193757,1,0,0:0:0:0:
141,279,194050,6,0,P|160:303|175:313,3,36.749998878479,8|0|0|0,0:0|0:0|0:0|0:0,0:0:0:0:
198,321,194439,2,0,P|220:327|250:324,3,36.749998878479
270,322,194829,1,8,0:0:0:0:
352,273,195024,6,0,L|319:193,1,73.4999977569581,0|0,0:0|0:0,0:0:0:0:
285,117,195413,1,0,0:0:0:0:
285,117,195608,5,8,0:0:0:0:
205,178,195803,2,0,P|143:199|36:175,1,154.000004699707,12|0,0:0|0:0,0:0:0:0:
80,283,196387,2,0,P|150:288|232:261,1,154.000004699707,0|0,0:0|0:0,0:0:0:0:
325,235,196972,6,0,L|350:320,1,77.0000023498536,0|8,0:0|0:0,0:0:0:0:
446,321,197361,1,0,0:0:0:0:
416,225,197556,2,0,L|391:144,1,77.0000023498536,0|0,0:0|0:0,0:0:0:0:
286,74,197946,1,4,0:0:0:0:
209,139,198141,2,0,L|216:194,2,38.5000011749268,2|2|2,0:0|0:0|0:0,0:0:0:0:
122,88,198530,1,0,0:0:0:0:
48,196,198725,6,0,P|76:230|128:250,1,77.0000023498536,8|0,0:0|0:0,0:0:0:0:
202,268,199115,2,0,P|238:250|291:246,1,77.0000023498536,0|0,0:0|0:0,0:0:0:0:
375,247,199504,2,0,P|418:206|389:101,1,154.000004699707,0|0,0:0|0:0,0:0:0:0:
334,49,200089,5,8,0:0:0:0:
294,140,200283,1,8,0:0:0:0:
217,75,200478,2,0,L|174:37,2,38.5000011749268,0|0|8,0:0|0:0|0:0,0:0:0:0:
294,140,200868,1,0,0:0:0:0:
251,230,201063,2,0,P|217:271|170:285,1,77.0000023498536,4|8,0:0|0:0,0:0:0:0:
167,288,201355,1,0,0:0:0:0:
136,286,201452,1,0,0:0:0:0:
55,227,201647,2,0,P|88:196|118:186,1,77.0000023498536,0|8,0:0|0:0,0:0:0:0:
251,230,202037,6,0,P|304:267|406:251,1,154.000004699707,4|0,0:0|0:0,0:0:0:0:
472,204,202621,1,8,0:0:0:0:
472,204,202816,2,0,L|424:119,1,77.0000023498536,0|0,0:0|0:0,0:0:0:0:
353,77,203205,6,0,P|316:102|283:108,1,77.0000023498536,0|8,0:0|0:0,0:0:0:0:
185,91,203595,1,0,0:0:0:0:
217,185,203790,2,0,P|216:223|200:258,1,77.0000023498536,8|0,0:0|0:0,0:0:0:0:
80,309,204179,1,4,0:0:0:0:
32,220,204374,2,0,P|23:170|74:98,1,115.50000352478,0|0,0:0|0:0,0:0:0:0:
85,95,204764,1,0,0:0:0:0:
210,133,204959,6,0,P|266:142|307:131,1,77.0000023498536,0|0,0:0|0:0,0:0:0:0:
381,111,205348,2,0,L|396:200,1,77.0000023498536,0|0,0:0|0:0,0:0:0:0:
407,286,205738,1,0,0:0:0:0:
313,249,205933,2,0,L|304:200,2,38.5000011749268,2|2|0,0:0|0:0|0:0,0:0:0:0:
203,321,206322,5,0,0:0:0:0:
203,321,206517,2,0,P|133:275|108:193,1,154.000004699707,8|0,0:0|0:0,0:0:0:0:
101,111,207102,1,0,0:0:0:0:
215,175,207296,2,0,P|271:190|308:185,1,77.0000023498536,6|0,0:0|0:0,0:0:0:0:
289,188,208076,6,0,P|441:233|378:126,1,346.500010574341,8|0,0:0|0:0,0:0:0:0:
356,122,209050,6,0,L|367:210,1,83.9999974365235,0|0,0:0|0:0,0:0:0:0:
376,314,209439,1,0,0:0:0:0:
376,314,209634,5,8,0:0:0:0:
262,327,209829,2,0,P|221:324|178:299,1,87.5,6|8,0:0|0:0,0:0:0:0:
96,225,210218,1,2,0:0:0:0:
207,202,210413,2,0,P|266:180|305:141,1,87.5,8|2,0:0|0:0,0:0:0:0:
368,87,210803,1,8,0:0:0:0:
401,195,210998,6,0,L|428:305,2,87.5,2|8|2,0:0|0:0|0:0,0:0:0:0:
368,87,211582,2,0,P|298:62|251:65,1,87.5,8|2,0:0|0:0,0:0:0:0:
171,58,211972,1,8,0:0:0:0:
301,159,212166,1,2,0:0:0:0:
136,147,212361,1,8,0:0:0:0:
285,61,212556,1,8,0:0:0:0:
213,227,212751,6,0,P|162:259|102:257,1,87.5,8|2,0:0|0:0,0:0:0:0:
39,200,213141,2,0,L|27:97,1,87.5,8|2,0:0|0:0,0:0:0:0:
123,175,213530,2,0,L|137:277,1,87.5,8|2,0:0|0:0,0:0:0:0:
230,324,213920,1,8,0:0:0:0:
334,278,214115,2,0,P|384:231|391:186,1,87.5,2|8,0:0|0:0,0:0:0:0:
425,106,214504,5,2,0:0:0:0:
335,35,214699,2,0,P|311:22|288:17,3,43.75,8|0|2|0,0:0|0:0|0:0|0:0,0:0:0:0:
250,17,215089,2,0,P|224:18|200:24,3,43.75,8|0|2|0,0:0|0:0|0:0|0:0,0:0:0:0:
166,38,215478,2,0,P|144:51|126:69,3,43.75,8|0|2|0,0:0|0:0|0:0|0:0,0:0:0:0:
110,103,215868,1,8,0:0:0:0:
83,258,216063,6,0,P|139:280|176:274,1,87.5,6|8,0:0|0:0,0:0:0:0:
267,226,216452,1,2,0:0:0:0:
354,298,216647,2,0,P|392:306|459:283,1,87.5,12|2,0:0|0:0,0:0:0:0:
447,181,217037,1,8,0:0:0:0:
380,89,217231,6,0,P|327:48|278:39,2,87.5,2|8|2,0:0|0:0|0:0,0:0:0:0:
299,170,217816,2,0,P|238:198|184:193,1,87.5,8|2,0:0|0:0,0:0:0:0:
104,199,218205,1,8,0:0:0:0:
93,41,218400,1,2,0:0:0:0:
233,115,218595,1,8,0:0:0:0:
53,123,218790,1,10,0:0:0:0:
193,40,218985,6,0,P|225:81|232:128,1,87.5,8|2,0:0|0:0,0:0:0:0:
177,214,219374,2,0,P|186:256|213:294,1,87.5,8|2,0:0|0:0,0:0:0:0:
320,324,219764,1,8,0:0:0:0:
432,306,219959,1,2,0:0:0:0:
361,217,220153,1,8,0:0:0:0:
211,292,220348,6,0,P|150:314|99:303,1,87.5,2|8,0:0|0:0,0:0:0:0:
46,233,220738,1,2,0:0:0:0:
100,132,220933,1,8,0:0:0:0:
210,161,221128,2,0,P|282:127|299:99,1,87.5,2|8,0:0|0:0,0:0:0:0:
358,35,221517,2,0,P|444:60|467:139,1,175,2|2,0:0|0:0,0:0:0:0:
445,288,222102,6,0,P|410:330|318:362,2,131.25,12|8|10,0:0|0:0|0:0,0:0:0:0:
308,184,222881,1,12,0:0:0:0:
308,184,223660,5,12,0:0:0:0:
