osu file format v14

[General]
AudioFilename: Deja Vu.mp3
AudioLeadIn: 0
PreviewTime: 129537
Countdown: 0
SampleSet: Normal
StackLeniency: 0.7
Mode: 0
LetterboxInBreaks: 0
WidescreenStoryboard: 1
SamplesMatchPlaybackRate: 1

[Editor]
Bookmarks: 68076,75576,76453,90089,109180
DistanceSpacing: 0.2
BeatDivisor: 4
GridSize: 4
TimelineZoom: 2.1

[Metadata]
Title:Deja Vu
TitleUnicode:Deja Vu
Artist:Dave Rodgers
ArtistUnicode:Dave Rodgers
Creator:Faust
Version:Final Stage
Source:頭文字D
Tags:Eurobeat Vocals English Akali J1NX1337 Initial D electronic SUPER EUROBEAT presents EUROMACH 2
BeatmapID:1054655
BeatmapSetID:469679

[Difficulty]
HPDrainRate:6
CircleSize:4
OverallDifficulty:8
ApproachRate:9
SliderMultiplier:1.8
SliderTickRate:1

[Events]
//Background and Video events
0,0,"DJBG.jpg",0,0
//Break Periods
//Storyboard Layer 0 (Background)
//Storyboard Layer 1 (Fail)
//Storyboard Layer 2 (Pass)
//Storyboard Layer 3 (Foreground)
//Storyboard Layer 4 (Overlay)
//Storyboard Sound Samples

[TimingPoints]
771,389.61038961039,4,1,1,40,1,0
1745,-125,4,2,1,50,0,0
2232,-125,4,2,1,30,0,0
2523,-125,4,2,1,40,0,0
3108,-125,4,2,1,40,0,0
19082,-125,4,1,1,45,0,0
19666,-125,4,1,1,45,0,0
21030,-125,4,1,1,45,0,0
22199,-125,4,1,1,45,0,0
22588,-125,4,1,1,45,0,0
25705,-100,4,1,1,45,0,0
26874,-125,4,1,1,45,0,0
26971,-125,4,2,1,5,0,0
27264,-100,4,1,1,45,0,0
31841,-100,4,2,1,5,0,0
32134,-100,4,1,1,45,0,0
32523,-76.9230769230769,4,1,1,45,0,0
33497,-100,4,1,1,45,0,0
38367,-76.9230769230769,4,1,1,45,0,0
38757,-100,4,1,1,45,0,0
39731,-100,4,1,1,45,0,0
51225,-100,4,1,1,45,0,0
51614,-100,4,1,1,45,0,0
52199,-100,4,1,1,45,0,0
58432,-76.9230769230769,4,1,1,45,0,0
58822,-100,4,1,1,45,0,0
62523,-100,4,1,1,45,0,0
62913,-100,4,1,1,45,0,0
64861,-76.9230769230769,4,1,1,45,0,1
66225,-100,4,1,1,45,0,1
69536,-76.9230769230769,4,1,1,45,0,1
69731,-100,4,1,1,45,0,1
71095,-76.9230769230769,4,1,1,45,0,1
72069,-100,4,1,1,45,0,1
76745,-76.9230769230769,4,1,1,45,0,0
78887,-76.9230769230769,4,1,1,45,0,1
79861,-100,4,1,1,45,0,1
85121,-76.9230769230769,4,1,1,45,0,1
86095,-100,4,1,1,45,0,1
91160,-76.9230769230769,4,1,1,45,0,0
92718,-100,4,1,1,40,0,0
97978,-75.187969924812,4,1,1,40,0,0
98952,-100,4,1,1,40,0,0
103822,-76.9230769230769,4,1,1,40,0,0
104212,-100,4,1,1,40,0,0
105186,-100,4,1,1,45,0,0
116679,-76.9230769230769,4,1,1,45,0,0
117069,-76.9230769230769,4,1,1,45,0,0
117653,-76.9230769230769,4,1,1,45,0,0
118043,-100,4,1,1,45,0,0
123887,-76.9230769230769,4,1,1,45,0,0
124277,-100,4,1,1,45,0,0
127978,-100,4,1,1,45,0,0
128562,-100,4,1,1,45,0,0
129536,-100,4,1,1,45,0,0
130316,-76.9230769230769,4,1,1,45,0,1
131290,-100,4,1,1,45,0,1
134991,-76.9230769230769,4,1,1,45,0,1
135186,-100,4,1,1,45,0,1
136549,-76.9230769230769,4,1,1,45,0,1
137523,-100,4,1,1,45,0,1
141809,-76.9230769230769,4,1,1,45,0,0
142004,-100,4,1,1,45,0,0
142588,-76.9230769230769,4,1,1,45,0,0
143367,-100,4,1,1,45,0,0
144342,-76.9230769230769,4,1,1,45,0,1
145121,-100,4,1,1,45,0,1
150380,-76.9230769230769,4,1,1,45,0,1
151549,-100,4,1,1,45,0,1
156614,-76.9230769230769,4,1,1,45,0,1
157978,-100,4,1,1,40,0,0
158173,-100,4,1,1,40,0,0
163432,-76.9230769230769,4,1,1,40,0,0
164796,-100,4,1,1,40,0,0
169277,-76.9230769230769,4,1,1,40,0,0
169666,-100,4,1,1,40,0,0
170640,390.625,4,1,1,40,1,0
170640,-125,4,1,1,40,0,0
181577,-100,4,1,1,40,0,0
183140,389.61038961039,4,1,1,40,1,0
195023,-100,4,1,1,45,0,1
195802,-76.9230769230769,4,1,1,45,0,1
196776,-100,4,1,1,45,0,1
202036,-76.9230769230769,4,1,1,45,0,1
202425,-100,4,1,1,45,0,1
206321,-100,4,1,1,45,0,1
207490,-100,4,1,1,45,0,0
209049,-100,4,1,1,45,0,1
209633,-76.9230769230769,4,1,1,45,0,1
210802,-100,4,1,1,45,0,1
216062,-76.9230769230769,4,1,1,45,0,1
217036,-100,4,1,1,45,0,1
222101,-76.9230769230769,4,1,1,45,0,1
222880,-76.9230769230769,4,1,1,45,0,0
223659,-50,4,1,1,45,0,0

[Colours]
Combo1 : 78,137,148
Combo2 : 208,253,181
Combo3 : 237,7,77
Combo4 : 182,58,136

[HitObjects]
145,54,1745,6,0,P|154:93|145:139,1,72,0|0,0:0|0:0,0:0:0:0:
78,195,2134,2,0,P|95:253|144:208,1,144
60,98,2719,1,0,0:0:0:0:
222,178,2913,1,0,0:0:0:0:
245,72,3108,1,0,0:0:0:0:
147,216,3303,1,0,0:0:0:0:
320,229,3498,1,0,0:0:0:0:
370,132,3693,2,0,L|377:290,1,144,0|0,0:0|0:0,0:0:0:0:
297,335,4277,5,0,0:0:0:0:
222,178,4472,1,0,0:0:0:0:
124,322,4667,1,0,0:0:0:0:
35,208,4861,2,0,B|31:170|31:170|50:104|50:104|44:37,1,144,0|0,0:0|0:0,0:0:0:0:
121,21,5348,5,0,0:0:0:0:
138,27,5446,2,0,L|145:111,1,72,0|0,0:0|0:0,0:0:0:0:
256,264,5835,2,0,L|262:192,1,72,0|0,0:0|0:0,0:0:0:0:
389,44,6225,1,0,0:0:0:0:
230,111,6420,1,0,0:0:0:0:
398,151,6615,1,0,0:0:0:0:
285,20,6809,1,0,0:0:0:0:
351,231,7004,6,0,P|345:317|294:363,1,144,0|0,0:0|0:0,0:0:0:0:
110,354,7589,1,0,0:0:0:0:
169,262,7783,1,0,0:0:0:0:
39,200,7978,1,0,0:0:0:0:
33,92,8173,2,0,L|43:6,1,72,0|0,0:0|0:0,0:0:0:0:
195,100,8563,6,0,P|194:152|181:177,1,72,0|0,0:0|0:0,0:0:0:0:
97,270,8952,2,0,L|168:259,1,72,0|0,0:0|0:0,0:0:0:0:
340,311,9342,2,0,L|268:300,1,72,0|0,0:0|0:0,0:0:0:0:
302,174,9732,2,0,L|423:149,1,108,0|0,0:0|0:0,0:0:0:0:
439,171,10121,6,0,L|350:190,2,72,0|0|0,0:0|0:0|0:0,0:0:0:0:
488,74,10706,1,0,0:0:0:0:
482,246,10900,2,0,B|475:289|475:289|451:332,1,72,0|0,0:0|0:0,0:0:0:0:
290,343,11290,1,0,0:0:0:0:
299,235,11485,1,0,0:0:0:0:
140,247,11680,6,0,B|103:273|85:317|85:317|96:201|5:141|5:141|128:168|182:103|182:103|216:160|302:168|302:168|254:207|269:258,1,720,0|0,0:0|0:0,0:0:0:0:
481,43,14212,5,0,0:0:0:0:
446,50,14407,1,0,0:0:0:0:
411,56,14602,2,0,L|413:115,1,36,0|0,0:0|0:0,0:0:0:0:
468,163,14796,5,8,0:0:0:0:
410,284,14991,2,0,L|422:346,2,36,0|0|0,0:0|0:0|0:0,0:0:0:0:
305,260,15381,2,0,L|301:322,2,36,8|8|8,0:0|0:0|0:0,0:0:0:0:
326,153,15771,2,0,L|323:110,1,36,0|0,0:0|0:0,0:0:0:0:
242,40,15965,2,0,P|249:78|225:124,1,72,0|0,0:0|0:0,0:0:0:0:
181,179,16258,5,0,0:0:0:0:
176,188,16355,2,0,L|72:200,1,72,8|0,0:0|0:0,0:0:0:0:
50,269,16647,1,0,0:0:0:0:
55,278,16745,2,0,L|159:290,1,72,0|8,0:0|0:0,0:0:0:0:
197,344,17037,1,8,0:0:0:0:
202,335,17134,2,0,L|306:323,1,72,8|0,0:0|0:0,0:0:0:0:
350,275,17426,1,0,0:0:0:0:
341,269,17524,1,0,0:0:0:0:
223,187,17719,2,0,L|216:237,1,36,0|0,0:0|0:0,0:0:0:0:
108,353,17913,6,0,P|111:317|127:285,1,72,0|0,0:0|0:0,0:0:0:0:
111,196,18206,1,0,0:0:0:0:
103,188,18303,2,0,L|100:92,1,72,0|8,0:0|0:0,0:0:0:0:
189,94,18595,1,0,0:0:0:0:
197,86,18693,2,0,L|200:-10,1,72,0|0,0:0|0:0,0:0:0:0:
309,74,18985,1,0,0:0:0:0:
319,79,19082,2,0,P|372:88|416:73,1,72,0|0,0:0|0:0,0:0:0:0:
471,51,19374,1,0,0:0:0:0:
471,61,19472,1,8,0:0:0:0:
441,201,19667,6,0,L|448:245,2,36,8|0|0,0:0|0:0|0:0,0:0:0:0:
299,167,20056,2,0,L|294:202,2,36,0|0|8,0:0|0:0|0:0,0:0:0:0:
387,319,20446,2,0,L|393:381,2,36,0|0|0,0:0|0:0|0:0,0:0:0:0:
256,272,20835,1,0,0:0:0:0:
248,278,20933,1,0,0:0:0:0:
240,284,21030,1,8,0:0:0:0:
152,205,21225,5,0,0:0:0:0:
149,214,21322,1,0,0:0:0:0:
145,223,21420,1,0,0:0:0:0:
77,348,21615,1,0,0:0:0:0:
74,339,21712,1,0,0:0:0:0:
71,330,21809,1,8,0:0:0:0:
34,190,22004,2,0,L|33:138,1,36,0|0,0:0|0:0,0:0:0:0:
177,107,22199,2,0,P|183:69|163:15,1,72,0|0,0:0|0:0,0:0:0:0:
87,22,22491,1,0,0:0:0:0:
87,32,22589,1,8,0:0:0:0:
152,205,22783,5,0,0:0:0:0:
152,215,22881,1,0,0:0:0:0:
152,225,22978,1,0,0:0:0:0:
292,192,23173,1,8,0:0:0:0:
287,200,23271,1,0,0:0:0:0:
282,209,23368,1,0,0:0:0:0:
420,250,23563,1,8,0:0:0:0:
412,255,23660,1,0,0:0:0:0:
403,260,23758,1,0,0:0:0:0:
232,316,23952,1,0,0:0:0:0:
260,325,24050,1,0,0:0:0:0:
288,334,24147,5,8,0:0:0:0:
490,202,24342,6,0,L|494:161,1,36
454,84,24537,1,0,0:0:0:0:
346,160,24732,6,0,L|340:119,1,36,0|0,0:0|0:0,0:0:0:0:
281,55,24926,1,0,0:0:0:0:
197,156,25121,6,0,L|180:118,1,36,0|0,0:0|0:0,0:0:0:0:
107,72,25316,1,0,0:0:0:0:
21,258,25511,2,0,P|50:250|81:252,1,36,0|0,0:0|0:0,0:0:0:0:
234,303,25706,5,8,0:0:0:0:
279,302,25803,1,0,0:0:0:0:
319,282,25900,1,0,0:0:0:0:
346,247,25998,1,0,0:0:0:0:
355,203,26095,1,0,0:0:0:0:
346,160,26193,1,0,0:0:0:0:
313,130,26290,1,0,0:0:0:0:
285,95,26387,1,0,0:0:0:0:
278,51,26485,5,0,0:0:0:0:
296,56,26582,1,0,0:0:0:0:
314,61,26680,1,0,0:0:0:0:
332,66,26777,1,0,0:0:0:0:
402,84,26874,5,8,0:0:0:0:
82,60,27264,6,0,L|73:178,1,90,8|0,0:0|0:0,0:0:0:0:
129,302,27654,1,8,0:0:0:0:
310,184,27848,2,0,P|268:169|224:170,1,90,0|8,0:0|0:0,0:0:0:0:
290,318,28238,1,0,0:0:0:0:
316,160,28433,1,8,0:0:0:0:
445,345,28628,1,0,0:0:0:0:
455,325,28822,6,0,L|456:219,1,90,8|0,0:0|0:0,0:0:0:0:
369,96,29212,1,8,0:0:0:0:
377,97,29309,1,0,0:0:0:0:
385,98,29407,1,0,0:0:0:0:
219,26,29602,1,8,0:0:0:0:
443,14,29796,1,0,0:0:0:0:
342,214,29991,2,0,L|231:231,1,90,8|8,0:0|0:0,0:0:0:0:
88,369,30381,6,0,P|103:327|100:283,1,90,8|0,0:0|0:0,0:0:0:0:
8,66,30771,2,0,L|5:107,3,22.5,8|0|0|0,0:0|0:0|0:0|0:0,0:0:0:0:
77,83,30965,2,0,L|73:172,1,90,0|8,0:0|0:0,0:0:0:0:
186,290,31355,1,0,0:0:0:0:
194,128,31550,1,8,0:0:0:0:
19,271,31745,1,0,0:0:0:0:
231,352,31939,5,0,0:0:0:0:
309,242,32134,2,0,B|302:196|302:196|307:135,1,90,0|8,0:0|0:0,0:0:0:0:
444,23,32524,6,0,L|438:74,1,29.2499986610413,0|0,0:0|0:0,0:0:0:0:
458,53,32621,2,0,L|452:104,1,29.2499986610413,0|0,0:0|0:0,0:0:0:0:
468,76,32719,2,0,L|451:203,1,116.999994644165,8|0,0:0|0:0,0:0:0:0:
231,352,33108,2,0,L|215:236,1,116.999994644165,8|0,0:0|0:0,0:0:0:0:
305,14,33498,6,0,P|317:60|307:117,1,90,4|8,0:0|0:0,0:0:0:0:
158,156,33887,1,8,0:0:0:0:
322,250,34082,2,0,L|211:252,1,90,0|8,0:0|0:0,0:0:0:0:
36,138,34472,1,0,0:0:0:0:
94,355,34667,1,8,0:0:0:0:
176,170,34861,1,0,0:0:0:0:
158,156,35056,6,0,B|151:105|151:105|156:32,1,90,8|0,0:0|0:0,0:0:0:0:
365,143,35446,1,8,0:0:0:0:
365,152,35543,1,0,0:0:0:0:
365,161,35641,1,0,0:0:0:0:
474,40,35835,1,8,0:0:0:0:
430,260,36030,1,0,0:0:0:0:
285,152,36225,1,8,0:0:0:0:
329,372,36420,1,8,0:0:0:0:
449,270,36615,6,0,L|451:159,1,90,8|0,0:0|0:0,0:0:0:0:
217,258,37004,2,0,L|250:265,3,22.5,8|0|0|0,0:0|0:0|0:0|0:0,0:0:0:0:
215,331,37199,2,0,B|264:341|264:341|316:336,1,90,0|8,0:0|0:0,0:0:0:0:
345,180,37589,1,0,0:0:0:0:
84,250,37783,2,0,L|90:339,1,90,8|0,0:0|0:0,0:0:0:0:
14,133,38173,5,8,0:0:0:0:
313,40,38368,2,0,L|436:52,1,116.999994644165,12|0,0:0|0:0,0:0:0:0:
102,128,38758,6,0,L|295:145,1,180,12|0,0:0|0:0,0:0:0:0:
343,231,39732,6,0,P|295:222|252:230,1,90,12|0,0:0|0:0,0:0:0:0:
168,367,40121,1,8,0:0:0:0:
427,308,40316,2,0,L|431:217,1,90,0|8,0:0|0:0,0:0:0:0:
217,53,40706,5,0,0:0:0:0:
234,94,40803,1,0,0:0:0:0:
266,125,40900,1,8,0:0:0:0:
308,140,40998,1,0,0:0:0:0:
353,138,41095,1,0,0:0:0:0:
393,119,41193,1,0,0:0:0:0:
352,100,41290,6,0,L|266:125,1,90,8|0,0:0|0:0,0:0:0:0:
110,79,41680,1,8,0:0:0:0:
179,225,41874,1,0,0:0:0:0:
19,212,42069,1,8,0:0:0:0:
111,101,42264,1,0,0:0:0:0:
96,260,42459,1,8,0:0:0:0:
303,174,42654,1,8,0:0:0:0:
310,178,42751,1,0,0:0:0:0:
317,183,42848,6,0,L|313:284,1,90,8|0,0:0|0:0,0:0:0:0:
465,332,43238,1,8,0:0:0:0:
196,322,43433,2,0,P|158:339|122:379,2,90,0|8|0,0:0|0:0|0:0,0:0:0:0:
406,239,44017,1,8,0:0:0:0:
187,182,44212,1,0,0:0:0:0:
180,178,44309,1,0,0:0:0:0:
173,173,44407,6,0,L|177:72,1,90,8|0,0:0|0:0,0:0:0:0:
392,16,44796,1,8,0:0:0:0:
502,212,44991,1,0,0:0:0:0:
344,158,45186,2,0,B|295:150|295:150|228:165,1,90,8|0,0:0|0:0,0:0:0:0:
187,182,45478,1,0,0:0:0:0:
148,242,45576,2,0,B|107:240|107:240|62:219,1,90,8|0,0:0|0:0,0:0:0:0:
29,135,45868,5,0,0:0:0:0:
36,129,45965,2,0,P|49:83|38:12,1,90,8|0,0:0|0:0,0:0:0:0:
204,21,46355,1,12,0:0:0:0:
187,182,46550,1,0,0:0:0:0:
353,67,46745,2,0,P|340:110|342:155,1,90,8|0,0:0|0:0,0:0:0:0:
371,240,47037,1,0,0:0:0:0:
384,282,47134,1,8,0:0:0:0:
372,324,47232,1,0,0:0:0:0:
338,353,47329,1,0,0:0:0:0:
294,359,47426,1,0,0:0:0:0:
253,340,47524,6,0,B|247:292|247:292|255:232,1,90,8|0,0:0|0:0,0:0:0:0:
453,147,47913,1,8,0:0:0:0:
379,311,48108,1,8,0:0:0:0:
316,143,48303,1,0,0:0:0:0:
466,242,48498,1,0,0:0:0:0:
377,34,48693,1,8,0:0:0:0:
242,216,48887,1,8,0:0:0:0:
29,141,49082,6,0,L|122:135,1,90,8|0,0:0|0:0,0:0:0:0:
380,203,49472,1,8,0:0:0:0:
202,5,49667,2,0,P|190:49|198:92,1,90,0|8,0:0|0:0,0:0:0:0:
228,303,50056,5,0,0:0:0:0:
242,260,50154,1,0,0:0:0:0:
241,215,50251,2,0,L|190:152,1,45,8|0,0:0|0:0,0:0:0:0:
29,141,50446,2,0,L|80:204,1,45,0|0,0:0|0:0,0:0:0:0:
228,303,50641,6,0,L|115:316,1,90,8|0,0:0|0:0,0:0:0:0:
18,250,51030,1,8,0:0:0:0:
340,215,51225,1,12,0:0:0:0:
357,229,51615,6,0,L|354:343,2,90,8|0|0,0:0|0:0|0:0,0:0:0:0:
471,44,52199,6,0,B|483:86|483:86|481:132,1,90,8|0,0:0|0:0,0:0:0:0:
228,226,52589,1,8,0:0:0:0:
352,94,52783,2,0,L|357:4,1,90,0|8,0:0|0:0,0:0:0:0:
167,10,53173,1,0,0:0:0:0:
228,226,53368,1,8,0:0:0:0:
52,88,53563,1,0,0:0:0:0:
73,80,53758,6,0,L|176:94,1,90,12|0,0:0|0:0,0:0:0:0:
257,297,54147,1,8,0:0:0:0:
102,274,54342,1,0,0:0:0:0:
289,149,54537,1,8,0:0:0:0:
66,183,54732,2,0,L|12:187,2,45,0|0|8,0:0|0:0|0:0,0:0:0:0:
262,275,55121,5,0,0:0:0:0:
302,295,55219,1,0,0:0:0:0:
328,331,55316,2,0,L|326:380,1,45,12|0,0:0|0:0,0:0:0:0:
184,299,55511,2,0,L|182:254,1,45,0|0,0:0|0:0,0:0:0:0:
321,189,55706,2,0,P|327:144|314:93,1,90,8|0,0:0|0:0,0:0:0:0:
224,55,55998,1,0,0:0:0:0:
218,62,56095,2,0,P|212:107|225:158,1,90,8|0,0:0|0:0,0:0:0:0:
302,295,56485,1,8,0:0:0:0:
466,80,56680,1,0,0:0:0:0:
234,233,56874,6,0,B|189:226|189:226|119:199,1,90,8|0,0:0|0:0,0:0:0:0:
430,154,57264,2,0,B|446:196|446:196|458:270,1,90,8|0,0:0|0:0,0:0:0:0:
256,344,57654,1,8,0:0:0:0:
255,334,57751,1,0,0:0:0:0:
254,325,57848,1,0,0:0:0:0:
296,103,58043,1,8,0:0:0:0:
295,112,58141,1,0,0:0:0:0:
294,122,58238,1,0,0:0:0:0:
145,187,58433,6,0,B|142:132|142:132|134:121|134:121|130:40,1,116.999994644165,12|0,0:0|0:0,0:0:0:0:
349,11,58822,1,8,0:0:0:0:
320,236,59017,1,0,0:0:0:0:
215,88,59212,1,8,0:0:0:0:
377,162,59407,1,0,0:0:0:0:
156,210,59602,1,8,0:0:0:0:
364,302,59796,1,0,0:0:0:0:
358,309,59894,1,0,0:0:0:0:
353,316,59991,6,0,B|329:325|329:325|309:334|309:334|289:332|289:332|229:341,1,90,12|0,0:0|0:0,0:0:0:0:
22,239,60381,1,8,0:0:0:0:
243,191,60576,1,0,0:0:0:0:
152,346,60771,1,8,0:0:0:0:
100,126,60965,1,8,0:0:0:0:
251,211,61160,2,0,P|302:211|343:192,1,90,8|0,0:0|0:0,0:0:0:0:
450,42,61550,5,8,0:0:0:0:
271,16,61745,1,0,0:0:0:0:
100,126,61939,5,8,0:0:0:0:
279,100,62134,1,0,0:0:0:0:
114,44,62329,5,8,0:0:0:0:
152,264,62524,1,8,0:0:0:0:
159,285,62913,2,0,L|209:293,1,45,12|0,0:0|0:0,0:0:0:0:
297,296,63108,5,0,0:0:0:0:
313,293,63206,1,0,0:0:0:0:
330,290,63303,1,0,0:0:0:0:
346,287,63400,1,0,0:0:0:0:
363,284,63498,1,0,0:0:0:0:
380,281,63595,1,0,0:0:0:0:
396,278,63693,1,0,0:0:0:0:
413,275,63790,1,0,0:0:0:0:
402,202,63887,5,0,0:0:0:0:
448,352,64082,5,0,0:0:0:0:
421,193,64277,1,0,0:0:0:0:
394,34,64472,1,0,0:0:0:0:
440,184,64667,5,8,0:0:0:0:
298,296,64861,2,0,L|412:274,1,116.999994644165,0|12,0:0|0:0,0:0:0:0:
256,98,65251,1,0,0:0:0:0:
88,332,65446,2,0,B|77:277|77:277|87:205,1,116.999994644165,8|0,0:0|0:0,0:0:0:0:
215,33,65835,1,8,0:0:0:0:
174,263,66030,1,0,0:0:0:0:
394,184,66225,6,0,L|292:179,1,90,8|8,0:0|0:0,0:0:0:0:
18,73,66615,2,0,L|120:68,1,90,8|0,0:0|0:0,0:0:0:0:
328,55,67004,1,8,0:0:0:0:
84,166,67199,1,0,0:0:0:0:
336,261,67394,1,8,0:0:0:0:
225,15,67589,1,8,0:0:0:0:
184,282,67783,6,0,B|192:333|192:333|215:392,1,90,0|0,0:0|0:0,0:0:0:0:
416,331,68173,2,0,B|412:293|412:293|418:242,1,90,8|0,0:0|0:0,0:0:0:0:
474,49,68563,1,8,0:0:0:0:
226,161,68758,2,0,L|316:175,1,90,0|8,0:0|0:0,0:0:0:0:
503,87,69147,1,8,0:0:0:0:
238,40,69342,5,0,0:0:0:0:
330,293,69537,2,0,L|327:343,1,29.2499986610413,0|0,0:0|0:0,0:0:0:0:
303,304,69634,2,0,L|300:354,1,29.2499986610413,0|0,0:0|0:0,0:0:0:0:
276,316,69732,2,0,L|282:224,1,90,8|0,0:0|0:0,0:0:0:0:
20,308,70121,1,8,0:0:0:0:
194,353,70316,1,0,0:0:0:0:
71,113,70511,1,8,0:0:0:0:
119,286,70706,1,8,0:0:0:0:
245,158,70900,5,0,0:0:0:0:
499,222,71095,2,0,L|370:244,1,116.999994644165,4|8,0:0|0:0,0:0:0:0:
175,36,71485,1,0,0:0:0:0:
398,4,71680,2,0,P|430:61|422:128,1,116.999994644165,12|0,0:0|0:0,0:0:0:0:
226,292,72069,1,8,0:0:0:0:
315,86,72264,1,0,0:0:0:0:
382,346,72459,5,8,0:0:0:0:
213,198,72654,1,0,0:0:0:0:
116,349,72848,2,0,L|122:248,1,90,8|0,0:0|0:0,0:0:0:0:
3,14,73238,1,8,0:0:0:0:
37,280,73433,1,0,0:0:0:0:
303,111,73628,1,8,0:0:0:0:
37,145,73822,1,0,0:0:0:0:
273,274,74017,6,0,B|351:265|351:265|393:274|393:274|464:264,1,180,8|8,0:0|0:0,0:0:0:0:
359,59,74602,1,0,0:0:0:0:
242,351,74796,1,8,0:0:0:0:
411,176,74991,1,0,0:0:0:0:
96,198,75186,1,8,0:0:0:0:
165,37,75381,2,0,L|255:40,1,90,0|8,0:0|0:0,0:0:0:0:
447,159,75771,5,0,0:0:0:0:
208,286,75965,2,0,P|152:292|90:269,1,90,8|0,0:0|0:0,0:0:0:0:
327,79,76355,1,8,0:0:0:0:
444,271,76550,2,0,B|450:325|450:325|440:379,2,90,0|8|0,0:0|0:0|0:0,0:0:0:0:
136,169,77134,6,0,B|126:211|126:211|128:238|128:238|119:283,1,116.999994644165,8|0,0:0|0:0,0:0:0:0:
28,361,77426,2,0,B|37:316|37:316|35:289|35:289|44:246,1,116.999994644165,8|0,0:0|0:0,0:0:0:0:
47,148,77719,1,8,0:0:0:0:
155,362,77913,1,12,0:0:0:0:
335,321,78108,5,0,0:0:0:0:
164,334,78303,1,8,0:0:0:0:
506,308,78498,1,0,0:0:0:0:
326,349,78693,5,0,0:0:0:0:
400,148,78887,2,0,L|392:264,1,116.999994644165,4|12,0:0|0:0,0:0:0:0:
173,306,79277,1,0,0:0:0:0:
307,47,79472,2,0,L|299:163,1,116.999994644165,8|0,0:0|0:0,0:0:0:0:
73,151,79861,1,8,0:0:0:0:
178,4,80056,1,0,0:0:0:0:
195,228,80251,6,0,L|202:321,1,90,8|0,0:0|0:0,0:0:0:0:
479,236,80641,2,0,P|482:179|466:137,1,90,8|0,0:0|0:0,0:0:0:0:
169,103,81030,1,8,0:0:0:0:
265,8,81225,1,0,0:0:0:0:
365,204,81420,1,8,0:0:0:0:
230,222,81615,1,8,0:0:0:0:
389,63,81809,6,0,L|513:68,1,90,8|0,0:0|0:0,0:0:0:0:
390,320,82199,2,0,L|300:323,1,90,8|0,0:0|0:0,0:0:0:0:
27,149,82589,1,8,0:0:0:0:
292,199,82783,1,0,0:0:0:0:
95,359,82978,1,8,0:0:0:0:
151,94,83173,1,0,0:0:0:0:
422,284,83368,6,0,L|332:287,1,90,8|0,0:0|0:0,0:0:0:0:
82,128,83758,1,0,0:0:0:0:
126,130,83855,1,0,0:0:0:0:
171,133,83952,1,0,0:0:0:0:
216,136,84050,1,0,0:0:0:0:
285,94,84147,5,8,0:0:0:0:
319,105,84245,1,0,0:0:0:0:
353,116,84342,1,0,0:0:0:0:
387,127,84439,1,0,0:0:0:0:
371,197,84537,5,8,0:0:0:0:
362,200,84634,1,0,0:0:0:0:
353,203,84732,1,0,0:0:0:0:
344,206,84829,1,0,0:0:0:0:
280,170,84926,5,8,0:0:0:0:
473,59,85121,2,0,L|446:210,1,116.999994644165,0|4,0:0|0:0,0:0:0:0:
190,317,85511,1,0,0:0:0:0:
497,297,85706,2,0,L|346:270,1,116.999994644165,8|0,0:0|0:0,0:0:0:0:
61,225,86095,1,8,0:0:0:0:
280,170,86290,1,0,0:0:0:0:
211,285,86485,5,8,0:0:0:0:
236,106,86680,1,0,0:0:0:0:
82,193,86874,2,0,L|91:91,1,90,8|0,0:0|0:0,0:0:0:0:
351,30,87264,1,8,0:0:0:0:
232,253,87459,1,0,0:0:0:0:
267,245,87556,1,0,0:0:0:0:
302,237,87654,1,8,0:0:0:0:
214,29,87848,1,8,0:0:0:0:
201,322,88043,6,0,P|298:332|364:276,1,180,8|8,0:0|0:0,0:0:0:0:
361,103,88628,1,0,0:0:0:0:
477,295,88822,2,0,L|469:169,1,90,8|0,0:0|0:0,0:0:0:0:
108,251,89212,1,8,0:0:0:0:
399,371,89407,1,0,0:0:0:0:
358,59,89602,5,8,0:0:0:0:
267,245,89796,1,0,0:0:0:0:
157,165,89991,1,8,0:0:0:0:
364,151,90186,1,0,0:0:0:0:
273,338,90381,1,8,0:0:0:0:
267,245,90576,1,0,0:0:0:0:
351,287,90771,1,8,0:0:0:0:
125,277,90965,5,0,0:0:0:0:
118,270,91063,1,0,0:0:0:0:
111,263,91160,2,0,B|109:216|109:216|116:195|116:195|111:119,1,116.999994644165,8|0,0:0|0:0,0:0:0:0:
32,54,91452,2,0,L|38:206,1,116.999994644165,8|0,0:0|0:0,0:0:0:0:
194,224,91745,2,0,L|191:162,1,58.4999973220826,8|0,0:0|0:0,0:0:0:0:
107,16,91939,2,0,L|109:74,1,58.4999973220826,12|0,0:0|0:0,0:0:0:0:
138,26,92719,6,0,L|143:155,1,90,12|0,0:0|0:0,0:0:0:0:
270,215,93108,1,8,0:0:0:0:
447,160,93303,2,0,P|396:136|352:137,1,90,0|8,0:0|0:0,0:0:0:0:
299,318,93693,1,0,0:0:0:0:
374,240,93887,1,0,0:0:0:0:
194,293,94082,1,0,0:0:0:0:
172,286,94277,6,0,B|170:243|170:243|182:193,1,90,8|0,0:0|0:0,0:0:0:0:
395,244,94667,1,8,0:0:0:0:
206,113,94861,1,0,0:0:0:0:
320,324,95056,1,8,0:0:0:0:
281,33,95251,1,0,0:0:0:0:
470,164,95446,1,8,0:0:0:0:
447,160,95641,1,8,0:0:0:0:
202,90,95835,6,0,L|109:103,1,90,8|0,0:0|0:0,0:0:0:0:
33,244,96225,2,0,L|32:284,1,22.5,8|0,0:0|0:0,0:0:0:0:
60,255,96322,2,0,L|59:295,1,22.5,0|0,0:0|0:0,0:0:0:0:
87,266,96420,2,0,L|84:358,1,90,0|8,0:0|0:0,0:0:0:0:
264,186,96809,1,0,0:0:0:0:
258,321,97004,1,8,0:0:0:0:
423,249,97199,1,0,0:0:0:0:
351,84,97394,5,0,0:0:0:0:
277,309,97589,2,0,L|281:211,1,90,0|8,0:0|0:0,0:0:0:0:
139,44,97978,6,0,L|138:92,1,29.924998767128,0|0,0:0|0:0,0:0:0:0:
106,54,98076,2,0,L|105:102,1,29.924998767128,0|0,0:0|0:0,0:0:0:0:
72,61,98173,2,0,B|71:130|71:130|90:192,1,119.699995068512,8|0,0:0|0:0,0:0:0:0:
377,230,98563,2,0,B|378:161|378:161|359:99,1,119.699995068512,8|4,0:0|0:0,0:0:0:0:
37,228,98952,6,0,L|141:240,1,90,12|0,0:0|0:0,0:0:0:0:
281,190,99342,1,8,0:0:0:0:
226,361,99537,1,0,0:0:0:0:
402,324,99732,1,8,0:0:0:0:
450,197,99926,1,0,0:0:0:0:
274,160,100121,1,8,0:0:0:0:
301,281,100316,1,0,0:0:0:0:
323,283,100511,6,0,B|340:235|340:235|340:181,1,90,8|0,0:0|0:0,0:0:0:0:
392,132,100803,1,0,0:0:0:0:
396,96,100900,1,8,0:0:0:0:
385,61,100998,1,0,0:0:0:0:
361,33,101095,2,0,L|311:45,1,45,0|0,0:0|0:0,0:0:0:0:
203,67,101290,2,0,L|165:102,1,45,8|0,0:0|0:0,0:0:0:0:
83,175,101485,2,0,L|68:224,1,45,0|0,0:0|0:0,0:0:0:0:
217,304,101680,2,0,L|211:214,1,90,8|8,0:0|0:0,0:0:0:0:
44,19,102069,6,0,P|55:61|95:99,1,90,8|0,0:0|0:0,0:0:0:0:
298,116,102459,2,0,L|341:117,3,22.5,8|0|0|0,0:0|0:0|0:0|0:0,0:0:0:0:
311,187,102654,2,8,L|419:190,1,90,0|8,0:0|0:0,0:0:0:0:
495,56,103043,1,0,0:0:0:0:
205,124,103238,2,0,L|211:214,1,90,8|0,0:0|0:0,0:0:0:0:
329,349,103628,5,0,0:0:0:0:
70,269,103822,2,0,L|63:143,1,116.999994644165,12|0,0:0|0:0,0:0:0:0:
416,107,104212,6,0,B|453:130|453:130|461:230|461:230|429:258,1,180,12|0,0:0|0:0,0:0:0:0:
103,255,105186,6,0,L|97:162,1,90,12|0,0:0|0:0,0:0:0:0:
255,57,105576,1,8,0:0:0:0:
180,220,105771,1,0,0:0:0:0:
77,74,105965,1,0,0:0:0:0:
192,236,106160,5,0,0:0:0:0:
233,249,106258,1,0,0:0:0:0:
271,228,106355,1,8,0:0:0:0:
281,186,106452,1,0,0:0:0:0:
257,150,106550,1,0,0:0:0:0:
214,143,106647,1,0,0:0:0:0:
232,196,106745,6,0,L|338:205,1,90,8|0,0:0|0:0,0:0:0:0:
457,112,107134,1,8,0:0:0:0:
378,274,107329,1,0,0:0:0:0:
278,125,107524,1,8,0:0:0:0:
457,135,107719,1,0,0:0:0:0:
378,297,107913,1,8,0:0:0:0:
371,71,108108,1,8,0:0:0:0:
179,191,108303,6,0,L|205:290,1,90,8|0,0:0|0:0,0:0:0:0:
378,251,108693,1,8,0:0:0:0:
207,101,108887,2,0,P|257:109|309:94,1,90,0|8,0:0|0:0,0:0:0:0:
137,39,109277,1,0,0:0:0:0:
65,203,109472,2,0,P|57:253|72:305,1,90,8|8,0:0|0:0,0:0:0:0:
382,310,109861,5,8,0:0:0:0:
165,249,110056,1,0,0:0:0:0:
225,369,110251,1,8,0:0:0:0:
346,180,110446,1,0,0:0:0:0:
192,14,110641,2,0,B|191:68|191:68|199:117,1,90,8|0,0:0|0:0,0:0:0:0:
235,164,110933,1,0,0:0:0:0:
279,220,111030,2,0,L|271:312,1,90,8|0,0:0|0:0,0:0:0:0:
419,269,111322,5,0,0:0:0:0:
426,263,111420,2,0,L|418:173,1,90,8|0,0:0|0:0,0:0:0:0:
235,164,111809,1,12,0:0:0:0:
364,350,112004,2,0,P|398:367|461:359,1,90,0|8,0:0|0:0,0:0:0:0:
492,108,112394,5,0,0:0:0:0:
456,81,112491,1,0,0:0:0:0:
412,73,112589,1,8,0:0:0:0:
369,86,112686,1,0,0:0:0:0:
336,116,112783,1,0,0:0:0:0:
321,158,112881,1,0,0:0:0:0:
325,203,112978,6,0,P|322:254|290:298,1,90,8|0,0:0|0:0,0:0:0:0:
12,206,113368,1,8,0:0:0:0:
95,367,113563,2,0,L|185:356,1,90,0|8,0:0|0:0,0:0:0:0:
418,173,113952,1,0,0:0:0:0:
224,214,114147,1,8,0:0:0:0:
357,362,114342,1,8,0:0:0:0:
130,269,114537,6,0,P|117:227|121:183,1,90,8|0,0:0|0:0,0:0:0:0:
332,28,114926,1,8,0:0:0:0:
160,89,115121,2,0,L|70:77,1,90,0|8,0:0|0:0,0:0:0:0:
130,269,115511,5,0,0:0:0:0:
147,308,115608,1,0,0:0:0:0:
183,336,115706,1,8,0:0:0:0:
226,344,115803,1,0,0:0:0:0:
255,310,115900,1,0,0:0:0:0:
296,293,115998,1,0,0:0:0:0:
341,298,116095,6,0,L|349:361,1,45,8|0,0:0|0:0,0:0:0:0:
452,337,116290,1,0,0:0:0:0:
183,336,116485,1,8,0:0:0:0:
319,104,116680,6,0,L|329:187,1,58.4999973220826,12|0,0:0|0:0,0:0:0:0:
311,317,117069,6,0,L|321:400,1,58.4999973220826,12|0,0:0|0:0,0:0:0:0:
350,75,117654,6,0,B|357:121|357:121|353:156|353:156|357:192,1,116.999994644165,12|0,0:0|0:0,0:0:0:0:
183,336,118043,5,8,0:0:0:0:
406,311,118238,1,0,0:0:0:0:
240,242,118433,1,0,0:0:0:0:
463,217,118628,1,0,0:0:0:0:
330,37,118822,1,8,0:0:0:0:
340,216,119017,1,8,0:0:0:0:
180,135,119212,6,0,B|178:105|178:105|172:89|172:89|176:74|176:74|173:22,1,90,12|0,0:0|0:0,0:0:0:0:
35,129,119602,1,8,0:0:0:0:
133,279,119796,1,8,0:0:0:0:
214,120,119991,1,0,0:0:0:0:
26,244,120186,2,0,L|23:301,2,45,0|0|8,0:0|0:0|0:0,0:0:0:0:
246,193,120576,5,0,0:0:0:0:
287,208,120673,1,0,0:0:0:0:
316,242,120771,1,12,0:0:0:0:
337,281,120868,1,8,0:0:0:0:
372,308,120965,1,0,0:0:0:0:
416,317,121063,1,0,0:0:0:0:
401,274,121160,6,0,L|272:288,1,90,8|0,0:0|0:0,0:0:0:0:
238,337,121452,1,0,0:0:0:0:
246,338,121550,1,8,0:0:0:0:
446,185,121745,1,0,0:0:0:0:
283,106,121939,1,8,0:0:0:0:
372,308,122134,1,0,0:0:0:0:
400,107,122329,6,0,L|391:12,1,90,8|0,0:0|0:0,0:0:0:0:
178,285,122719,2,0,L|169:374,1,90,8|0,0:0|0:0,0:0:0:0:
55,248,123108,1,8,0:0:0:0:
61,242,123206,1,0,0:0:0:0:
67,236,123303,1,0,0:0:0:0:
202,65,123498,1,8,0:0:0:0:
303,215,123693,1,8,0:0:0:0:
73,127,123887,6,0,B|70:87|70:87|62:67|62:67|58:-16,1,116.999994644165,12|0,0:0|0:0,0:0:0:0:
280,32,124277,1,8,0:0:0:0:
188,185,124472,1,0,0:0:0:0:
367,189,124667,1,0,0:0:0:0:
220,291,124861,1,0,0:0:0:0:
287,53,125056,2,0,B|284:93|284:93|291:112|291:112|282:182,1,90,8|0,0:0|0:0,0:0:0:0:
34,283,125446,6,0,P|56:244|95:222,1,90,12|0,0:0|0:0,0:0:0:0:
343,281,125835,1,8,0:0:0:0:
121,314,126030,1,0,0:0:0:0:
289,378,126225,1,8,0:0:0:0:
255,155,126420,1,0,0:0:0:0:
466,238,126615,1,8,0:0:0:0:
244,271,126809,1,0,0:0:0:0:
405,114,127004,6,0,L|398:-7,1,90,8|0,0:0|0:0,0:0:0:0:
126,174,127394,2,0,L|150:55,1,90,12|0,0:0|0:0,0:0:0:0:
316,71,127783,1,0,0:0:0:0:
268,292,127978,1,8,0:0:0:0:
255,272,128368,2,0,L|200:269,1,45,12|0,0:0|0:0,0:0:0:0:
146,217,128563,5,0,0:0:0:0:
129,215,128660,1,0,0:0:0:0:
112,214,128758,1,0,0:0:0:0:
96,212,128855,1,0,0:0:0:0:
78,211,128952,1,0,0:0:0:0:
61,209,129050,1,0,0:0:0:0:
45,209,129147,1,0,0:0:0:0:
28,208,129245,1,0,0:0:0:0:
32,133,129342,5,8,0:0:0:0:
45,295,129537,5,0,0:0:0:0:
54,134,129732,1,0,0:0:0:0:
67,296,129926,1,0,0:0:0:0:
188,42,130121,5,8,0:0:0:0:
28,208,130316,2,0,L|188:220,1,116.999994644165,0|12,0:0|0:0,0:0:0:0:
372,161,130706,1,0,0:0:0:0:
225,344,130900,2,0,L|382:314,1,116.999994644165,8|0,0:0|0:0,0:0:0:0:
235,111,131290,1,8,0:0:0:0:
266,241,131485,1,0,0:0:0:0:
477,112,131680,5,8,0:0:0:0:
446,242,131874,1,0,0:0:0:0:
241,132,132069,2,0,B|290:122|290:122|351:90,1,90,8|0,0:0|0:0,0:0:0:0:
380,31,132361,1,0,0:0:0:0:
379,39,132459,1,8,0:0:0:0:
348,307,132654,1,0,0:0:0:0:
124,141,132848,1,8,0:0:0:0:
131,146,132946,1,0,0:0:0:0:
138,151,133043,1,8,0:0:0:0:
401,210,133238,6,0,L|275:242,1,90,8|0,0:0|0:0,0:0:0:0:
32,323,133628,2,0,L|124:325,1,90,8|0,0:0|0:0,0:0:0:0:
350,329,134017,1,8,0:0:0:0:
98,229,134212,1,0,0:0:0:0:
212,36,134407,1,8,0:0:0:0:
226,305,134602,1,0,0:0:0:0:
57,96,134796,5,8,0:0:0:0:
282,160,134991,2,0,L|279:111,1,29.2499986610413,0|0,0:0|0:0,0:0:0:0:
310,146,135089,2,0,L|307:97,1,29.2499986610413,0|0,0:0|0:0,0:0:0:0:
338,132,135186,2,0,L|331:39,1,90,8|0,0:0|0:0,0:0:0:0:
102,206,135576,1,8,0:0:0:0:
323,254,135771,1,0,0:0:0:0:
210,8,135965,1,8,0:0:0:0:
229,187,136160,1,0,0:0:0:0:
470,68,136355,5,8,0:0:0:0:
417,321,136550,2,0,L|287:339,1,116.999994644165,0|8,0:0|0:0,0:0:0:0:
14,288,136939,1,0,0:0:0:0:
242,159,137134,2,0,L|357:175,1,116.999994644165,8|0,0:0|0:0,0:0:0:0:
163,288,137524,1,8,0:0:0:0:
121,66,137719,1,0,0:0:0:0:
340,208,137913,6,0,B|296:210|296:210|253:194,1,90,8|0,0:0|0:0,0:0:0:0:
391,42,138303,2,0,L|481:43,1,90,8|0,0:0|0:0,0:0:0:0:
442,224,138693,1,8,0:0:0:0:
217,74,138887,1,0,0:0:0:0:
311,328,139082,1,8,0:0:0:0:
384,67,139277,1,8,0:0:0:0:
171,235,139472,6,0,L|82:235,1,90,8|0,0:0|0:0,0:0:0:0:
44,25,139861,2,0,L|138:26,1,90,8|0,0:0|0:0,0:0:0:0:
368,201,140251,1,8,0:0:0:0:
152,142,140446,1,0,0:0:0:0:
209,359,140641,1,8,0:0:0:0:
425,300,140835,1,0,0:0:0:0:
289,65,141030,5,8,0:0:0:0:
288,73,141128,1,0,0:0:0:0:
287,81,141225,1,0,0:0:0:0:
154,301,141420,1,8,0:0:0:0:
153,293,141517,1,0,0:0:0:0:
152,285,141615,1,0,0:0:0:0:
60,58,141809,6,0,L|102:67,1,29.2499986610413,8|0,0:0|0:0,0:0:0:0:
67,90,141907,2,0,L|109:99,1,29.2499986610413,0|0,0:0|0:0,0:0:0:0:
76,126,142004,2,0,L|178:145,1,90,0|8,0:0|0:0,0:0:0:0:
421,57,142394,5,0,0:0:0:0:
429,61,142491,1,0,0:0:0:0:
436,65,142589,2,0,B|433:114|433:114|438:131|438:131|432:204,1,116.999994644165,8|0,0:0|0:0,0:0:0:0:
358,263,142881,2,0,B|362:212|362:212|357:196|357:196|360:146,1,116.999994644165,8|0,0:0|0:0,0:0:0:0:
321,66,143173,1,8,0:0:0:0:
439,315,143368,1,12,0:0:0:0:
440,292,143563,5,0,0:0:0:0:
322,43,143758,1,8,0:0:0:0:
282,357,143952,1,0,0:0:0:0:
441,269,144147,5,8,0:0:0:0:
436,65,144342,2,0,L|429:204,1,116.999994644165,0|12,0:0|0:0,0:0:0:0:
283,334,144732,1,0,0:0:0:0:
33,246,144926,2,0,L|167:223,1,116.999994644165,8|0,0:0|0:0,0:0:0:0:
223,176,145219,1,0,0:0:0:0:
221,167,145316,1,8,0:0:0:0:
64,78,145511,1,0,0:0:0:0:
192,315,145706,6,0,L|297:295,1,90,8|0,0:0|0:0,0:0:0:0:
502,252,146095,1,8,0:0:0:0:
309,134,146290,1,0,0:0:0:0:
317,136,146387,1,0,0:0:0:0:
325,138,146485,1,8,0:0:0:0:
396,343,146680,1,0,0:0:0:0:
142,248,146874,1,8,0:0:0:0:
304,31,147069,1,8,0:0:0:0:
490,146,147264,6,0,B|492:190|492:190|485:236,1,90,8|0,0:0|0:0,0:0:0:0:
159,234,147654,2,0,L|179:324,1,90,8|0,0:0|0:0,0:0:0:0:
393,320,148043,1,8,0:0:0:0:
172,125,148238,1,0,0:0:0:0:
354,143,148433,1,8,0:0:0:0:
98,292,148628,1,0,0:0:0:0:
3,137,148822,6,0,L|-2:11,1,90,8|0,0:0|0:0,0:0:0:0:
271,72,149212,1,8,0:0:0:0:
281,115,149309,1,0,0:0:0:0:
275,159,149407,1,0,0:0:0:0:
253,199,149504,1,0,0:0:0:0:
187,226,149602,5,8,0:0:0:0:
175,259,149699,1,0,0:0:0:0:
179,295,149796,1,0,0:0:0:0:
198,325,149894,1,0,0:0:0:0:
271,323,149991,5,8,0:0:0:0:
272,314,150089,1,0,0:0:0:0:
273,305,150186,1,0,0:0:0:0:
274,296,150283,1,0,0:0:0:0:
258,226,150381,5,8,0:0:0:0:
82,334,150576,2,0,L|198:325,1,116.999994644165,0|8,0:0|0:0,0:0:0:0:
405,214,150965,1,0,0:0:0:0:
240,16,151160,2,0,L|248:132,1,116.999994644165,8|0,0:0|0:0,0:0:0:0:
18,225,151550,1,8,0:0:0:0:
107,68,151745,1,0,0:0:0:0:
306,229,151939,6,0,P|263:241|219:238,1,90,8|0,0:0|0:0,0:0:0:0:
10,39,152329,2,0,L|100:46,1,90,8|0,0:0|0:0,0:0:0:0:
359,122,152719,1,8,0:0:0:0:
99,197,152913,1,0,0:0:0:0:
354,290,153108,1,8,0:0:0:0:
308,23,153303,1,8,0:0:0:0:
180,148,153498,6,0,B|185:213|185:213|200:267|200:267|204:349,1,180,8|8,0:0|0:0,0:0:0:0:
470,370,154082,1,0,0:0:0:0:
234,237,154277,2,0,L|323:219,1,90,8|0,0:0|0:0,0:0:0:0:
171,52,154667,1,8,0:0:0:0:
38,287,154861,2,0,B|55:340|55:340|80:375,1,90,0|8,0:0|0:0,0:0:0:0:
338,303,155251,5,0,0:0:0:0:
114,153,155446,2,0,L|83:43,1,90,8|0,0:0|0:0,0:0:0:0:
360,45,155835,1,8,0:0:0:0:
246,184,156030,1,0,0:0:0:0:
216,80,156225,1,8,0:0:0:0:
389,221,156420,1,0,0:0:0:0:
389,230,156517,1,0,0:0:0:0:
389,239,156615,6,0,B|343:312|343:312|277:328,1,116.999994644165,8|0,0:0|0:0,0:0:0:0:
189,288,156907,2,0,B|210:267|210:267|296:250,1,116.999994644165,8|0,0:0|0:0,0:0:0:0:
416,334,157199,2,0,L|383:383,1,58.4999973220826,8|0,0:0|0:0,0:0:0:0:
192,250,157394,2,0,L|195:191,1,58.4999973220826,12|0,0:0|0:0,0:0:0:0:
162,182,158173,6,0,L|157:272,1,90,12|0,0:0|0:0,0:0:0:0:
53,101,158563,1,0,0:0:0:0:
208,55,158758,2,0,B|256:45|256:45|329:55,1,90,0|0,0:0|0:0,0:0:0:0:
483,238,159147,1,0,0:0:0:0:
325,210,159342,1,0,0:0:0:0:
429,88,159537,1,0,0:0:0:0:
451,84,159732,6,0,L|446:174,1,90,0|0,0:0|0:0,0:0:0:0:
235,256,160121,1,0,0:0:0:0:
234,247,160219,1,0,0:0:0:0:
233,238,160316,1,0,0:0:0:0:
245,59,160511,1,0,0:0:0:0:
51,174,160706,1,0,0:0:0:0:
63,353,160900,1,0,0:0:0:0:
143,211,161095,1,0,0:0:0:0:
134,190,161290,6,0,L|139:76,1,90,0|0,0:0|0:0,0:0:0:0:
349,23,161680,2,0,L|383:25,3,22.5,0|0|0|0,0:0|0:0|0:0|0:0,0:0:0:0:
358,95,161874,2,0,B|308:91|308:91|253:70,1,90,0|0,0:0|0:0,0:0:0:0:
291,238,162264,1,0,0:0:0:0:
418,138,162459,1,0,0:0:0:0:
197,184,162654,1,0,0:0:0:0:
404,277,162848,2,0,L|504:264,2,90,0|0|0,0:0|0:0|0:0,0:0:0:0:
112,309,163433,6,0,L|119:357,1,29.2499986610413,0|0,0:0|0:0,0:0:0:0:
146,317,163530,2,0,L|153:365,1,29.2499986610413,0|0,0:0|0:0,0:0:0:0:
181,326,163628,2,0,L|171:203,1,116.999994644165,0|0,0:0|0:0,0:0:0:0:
331,58,164017,2,0,L|341:181,1,116.999994644165,0|0,0:0|0:0,0:0:0:0:
13,60,164407,6,0,P|67:43|133:54,1,116.999994644165,0|0,0:0|0:0,0:0:0:0:
23,280,164796,1,0,0:0:0:0:
239,249,164991,1,0,0:0:0:0:
120,186,165186,1,0,0:0:0:0:
254,357,165381,1,0,0:0:0:0:
247,140,165576,1,0,0:0:0:0:
439,243,165771,1,0,0:0:0:0:
420,230,165965,6,0,L|410:101,1,90,0|0,0:0|0:0,0:0:0:0:
342,155,166258,1,0,0:0:0:0:
345,190,166355,1,0,0:0:0:0:
348,226,166452,1,0,0:0:0:0:
351,261,166550,2,0,L|333:345,1,45,0|0,0:0|0:0,0:0:0:0:
176,193,166745,2,0,L|166:148,1,45,0|0,0:0|0:0,0:0:0:0:
332,110,166939,2,0,L|342:155,1,45,0|0,0:0|0:0,0:0:0:0:
224,292,167134,2,0,L|118:280,1,90,0|0,0:0|0:0,0:0:0:0:
242,40,167524,6,0,P|253:83|250:128,1,90,0|0,0:0|0:0,0:0:0:0:
38,208,167913,2,0,L|64:218,1,22.5,0|0,0:0|0:0,0:0:0:0:
44,242,168011,2,0,L|70:252,1,22.5,0|0,0:0|0:0,0:0:0:0:
50,278,168108,2,0,B|60:331|60:331|85:372,1,90,0|0,0:0|0:0,0:0:0:0:
383,279,168498,1,0,0:0:0:0:
130,182,168693,2,0,L|146:94,1,90,0|0,0:0|0:0,0:0:0:0:
371,72,169082,5,0,0:0:0:0:
229,258,169277,2,0,L|208:376,1,116.999994644165,0|0,0:0|0:0,0:0:0:0:
452,125,169667,6,0,B|440:207|440:207|396:296,1,180
49,38,170641,5,12,0:0:0:0:
50,55,170835,1,0,0:0:0:0:
186,100,171030,1,0,0:0:0:0:
185,117,171225,1,8,0:0:0:0:
86,178,171421,1,8,0:0:0:0:
87,195,171616,1,0,0:0:0:0:
186,252,171811,2,0,B|189:294|189:294|176:347,1,72,0|0,0:0|0:0,0:0:0:0:
324,344,172202,5,8,0:0:0:0:
320,327,172397,1,0,0:0:0:0:
434,232,172593,1,0,0:0:0:0:
440,248,172788,1,8,0:0:0:0:
323,199,172983,1,0,0:0:0:0:
320,182,173179,1,0,0:0:0:0:
400,101,173374,1,0,0:0:0:0:
257,80,173569,1,8,0:0:0:0:
145,172,173765,6,0,B|104:171|104:171|52:152,1,72,8|0,0:0|0:0,0:0:0:0:
21,58,174155,1,0,0:0:0:0:
38,52,174350,1,0,0:0:0:0:
150,76,174546,2,0,L|247:79,1,72,8|8,0:0|0:0,0:0:0:0:
327,32,174936,1,0,0:0:0:0:
310,26,175132,1,8,0:0:0:0:
264,163,175327,6,0,P|267:208|284:246,1,72,0|8,0:0|0:0,0:0:0:0:
414,275,175718,1,0,0:0:0:0:
245,336,175913,1,0,0:0:0:0:
280,340,176011,1,0,0:0:0:0:
315,344,176108,1,8,0:0:0:0:
452,299,176304,2,0,L|467:245,1,36,0|0,0:0|0:0,0:0:0:0:
411,204,176499,2,0,P|405:240|414:275,1,72,8|0,0:0|0:0,0:0:0:0:
501,159,176890,5,8,0:0:0:0:
498,141,177085,1,0,0:0:0:0:
373,68,177280,1,4,0:0:0:0:
370,86,177475,1,0,0:0:0:0:
245,160,177671,1,8,0:0:0:0:
242,142,177866,1,0,0:0:0:0:
103,103,178061,2,0,B|89:141|89:141|85:204,1,72,0|8,0:0|0:0,0:0:0:0:
62,313,178452,6,0,L|126:348,1,72,0|8,0:0|0:0,0:0:0:0:
276,255,178843,1,0,0:0:0:0:
140,115,179038,1,8,0:0:0:0:
133,131,179136,1,0,0:0:0:0:
127,148,179233,1,8,0:0:0:0:
125,166,179331,1,0,0:0:0:0:
124,184,179429,1,0,0:0:0:0:
264,158,179624,1,0,0:0:0:0:
225,18,179819,5,0,0:0:0:0:
219,21,179917,1,8,0:0:0:0:
213,24,180015,2,0,L|219:124,1,72,8|0,0:0|0:0,0:0:0:0:
396,86,180405,1,0,0:0:0:0:
337,217,180600,1,8,0:0:0:0:
336,209,180698,1,0,0:0:0:0:
335,201,180796,1,0,0:0:0:0:
465,139,180991,1,0,0:0:0:0:
464,147,181089,1,0,0:0:0:0:
463,155,181186,2,0,L|472:214,1,36,0|0,0:0|0:0,0:0:0:0:
392,311,181382,2,0,L|395:275,1,36,0|0,0:0|0:0,0:0:0:0:
252,215,181577,6,0,L|241:318,1,90,8|0,0:0|0:0,0:0:0:0:
121,62,181968,1,0,0:0:0:0:
283,384,182163,1,4,0:0:0:0:
324,26,182554,5,0,0:0:0:0:
337,44,183140,6,0,L|336:154,1,90,12|0,0:0|0:0,0:0:0:0:
455,268,183529,1,0,0:0:0:0:
243,191,183724,2,0,L|169:197,2,45,0|0|8,0:0|0:0|0:0,0:0:0:0:
166,355,184114,2,0,L|92:349,1,45,0|0,0:0|0:0,0:0:0:0:
23,220,184308,2,0,B|69:205|69:205|132:216,1,90,0|0,0:0|0:0,0:0:0:0:
352,310,184698,6,0,L|265:335,1,90,12|0,0:0|0:0,0:0:0:0:
122,231,185088,1,0,0:0:0:0:
335,162,185282,1,8,0:0:0:0:
370,170,185380,1,0,0:0:0:0:
405,178,185477,2,0,B|420:224|420:224|411:303,1,90,0|0,0:0|0:0,0:0:0:0:
317,244,185769,1,0,0:0:0:0:
309,240,185867,2,0,B|294:194|294:194|303:115,1,90,8|0,0:0|0:0,0:0:0:0:
491,46,186256,6,0,B|461:84|461:84|392:122,1,90,12|0,0:0|0:0,0:0:0:0:
161,22,186646,1,0,0:0:0:0:
341,34,186841,1,0,0:0:0:0:
86,124,187036,1,8,0:0:0:0:
266,112,187230,1,0,0:0:0:0:
187,274,187425,1,0,0:0:0:0:
64,117,187620,1,8,0:0:0:0:
57,123,187717,1,0,0:0:0:0:
50,129,187815,6,0,L|61:242,1,90,0|8,0:0|0:0,0:0:0:0:
212,383,188204,1,0,0:0:0:0:
307,230,188399,2,0,L|298:140,2,90,0|0|8,0:0|0:0|0:0,0:0:0:0:
409,318,188984,2,0,L|419:263,1,45,0|0,0:0|0:0,0:0:0:0:
377,145,189178,2,0,L|373:97,1,45,8|8,0:0|0:0,0:0:0:0:
219,178,189373,6,0,B|214:226|214:226|226:268,1,90,12|0,0:0|0:0,0:0:0:0:
448,229,189763,1,0,0:0:0:0:
269,366,189958,2,0,L|171:363,1,90,0|8,0:0|0:0,0:0:0:0:
13,149,190347,1,0,0:0:0:0:
62,322,190542,1,0,0:0:0:0:
132,108,190737,1,8,0:0:0:0:
315,268,190932,6,0,L|217:265,1,90,12|0,0:0|0:0,0:0:0:0:
33,159,191321,2,0,B|76:180|76:180|156:180,1,90,0|8,0:0|0:0,0:0:0:0:
187,157,191614,1,8,0:0:0:0:
251,124,191711,2,0,L|374:149,1,90,8|0,0:0|0:0,0:0:0:0:
508,77,192101,1,8,0:0:0:0:
430,287,192295,1,0,0:0:0:0:
425,295,192393,1,8,0:0:0:0:
423,303,192490,6,0,L|300:328,1,90,8|0,0:0|0:0,0:0:0:0:
113,274,192880,1,0,0:0:0:0:
193,57,193075,1,8,0:0:0:0:
199,65,193172,1,8,0:0:0:0:
202,73,193269,2,0,L|173:158,1,90,8|0,0:0|0:0,0:0:0:0:
3,83,193659,2,0,L|-6:19,2,45,0|0|4,0:0|0:0|0:0,0:0:0:0:
113,274,194049,5,8,0:0:0:0:
146,268,194146,1,0,0:0:0:0:
179,262,194243,1,0,0:0:0:0:
212,257,194341,1,0,0:0:0:0:
246,251,194438,1,0,0:0:0:0:
279,245,194536,1,0,0:0:0:0:
312,240,194633,1,0,0:0:0:0:
346,234,194730,1,0,0:0:0:0:
340,306,194828,5,8,0:0:0:0:
211,182,195023,5,0,0:0:0:0:
238,342,195217,1,0,0:0:0:0:
184,22,195412,1,0,0:0:0:0:
224,164,195607,5,8,0:0:0:0:
340,306,195802,2,0,L|319:174,1,116.999994644165,12|0,0:0|0:0,0:0:0:0:
184,22,196386,5,0,0:0:0:0:
171,40,196581,1,0,0:0:0:0:
119,114,196776,2,0,L|132:202,1,90,0|0,0:0|0:0,0:0:0:0:
67,299,197165,5,8,0:0:0:0:
80,281,197360,1,0,0:0:0:0:
229,218,197555,2,0,L|242:306,1,90,0|0,0:0|0:0,0:0:0:0:
391,369,197945,5,4,0:0:0:0:
377,279,198140,1,2,0:0:0:0:
370,235,198237,1,2,0:0:0:0:
363,191,198334,1,2,0:0:0:0:
348,101,198529,1,0,0:0:0:0:
194,204,198724,2,0,L|207:292,1,90,8|0,0:0|0:0,0:0:0:0:
39,225,199114,5,0,0:0:0:0:
52,207,199308,1,0,0:0:0:0:
189,29,199503,2,0,L|202:117,2,90,0|0|0,0:0|0:0|0:0,0:0:0:0:
344,8,200088,1,8,0:0:0:0:
370,186,200282,5,8,0:0:0:0:
202,118,200477,1,0,0:0:0:0:
203,126,200575,1,0,0:0:0:0:
204,134,200672,1,8,0:0:0:0:
232,312,200867,1,0,0:0:0:0:
400,380,201062,1,4,0:0:0:0:
372,202,201256,1,8,0:0:0:0:
371,194,201354,1,0,0:0:0:0:
370,186,201451,1,0,0:0:0:0:
259,341,201646,5,0,0:0:0:0:
288,164,201841,1,8,0:0:0:0:
172,306,202036,2,0,L|193:174,1,116.999994644165,4|0,0:0|0:0,0:0:0:0:
328,22,202620,5,8,0:0:0:0:
341,40,202815,1,0,0:0:0:0:
393,114,203010,2,0,L|380:202,1,90,0|0,0:0|0:0,0:0:0:0:
445,299,203399,5,8,0:0:0:0:
432,281,203594,1,0,0:0:0:0:
283,218,203789,2,0,L|270:306,1,90,8|0,0:0|0:0,0:0:0:0:
121,369,204178,5,4,0:0:0:0:
135,279,204373,1,0,0:0:0:0:
142,235,204471,1,0,0:0:0:0:
149,191,204568,1,2,0:0:0:0:
164,101,204763,1,0,0:0:0:0:
318,204,204958,2,0,L|305:292,1,90,0|0,0:0|0:0,0:0:0:0:
473,225,205347,5,0,0:0:0:0:
460,207,205542,1,0,0:0:0:0:
323,29,205737,1,0,0:0:0:0:
294,207,205932,2,2,L|286:262,2,45,2|2|0,0:0|0:0|0:0,0:0:0:0:
168,8,206321,1,0,0:0:0:0:
141,186,206516,5,8,0:0:0:0:
144,164,206711,1,0,0:0:0:0:
310,118,206906,1,0,0:0:0:0:
307,140,207101,1,0,0:0:0:0:
86,104,207295,1,6,0:0:0:0:
165,30,207490,2,0,L|287:37,2,90,0|0|0,0:0|0:0|0:0,0:0:0:0:
1,119,208075,5,8,0:0:0:0:
480,162,209049,5,0,0:0:0:0:
398,125,209243,5,0,0:0:0:0:
31,182,209438,5,0,0:0:0:0:
113,219,209633,5,8,0:0:0:0:
378,136,209828,2,0,L|231:70,1,116.999994644165,6|8,0:0|0:0,0:0:0:0:
39,271,210217,1,2,0:0:0:0:
320,350,210412,2,0,L|456:335,1,116.999994644165,8|2,0:0|0:0,0:0:0:0:
480,162,210802,1,8,0:0:0:0:
238,313,210997,1,2,0:0:0:0:
162,150,211191,6,0,B|146:104|146:104|150:37,1,90,8|2,0:0|0:0,0:0:0:0:
378,136,211581,2,0,P|374:209|347:251,1,90,8|2,0:0|0:0,0:0:0:0:
238,313,211971,1,8,0:0:0:0:
276,46,212165,1,2,0:0:0:0:
489,213,212360,1,8,0:0:0:0:
175,177,212555,1,8,0:0:0:0:
465,52,212750,6,0,B|415:59|415:59|356:52,1,90,8|2,0:0|0:0,0:0:0:0:
64,116,213140,1,8,0:0:0:0:
323,143,213334,1,2,0:0:0:0:
120,46,213529,1,8,0:0:0:0:
246,336,213724,1,2,0:0:0:0:
406,178,213919,1,8,0:0:0:0:
154,130,214114,1,2,0:0:0:0:
343,321,214308,6,0,L|458:305,1,90,8|2,0:0|0:0,0:0:0:0:
410,37,214698,1,8,0:0:0:0:
365,43,214795,1,0,0:0:0:0:
321,49,214893,1,2,0:0:0:0:
276,55,214990,1,0,0:0:0:0:
209,83,215088,5,8,0:0:0:0:
228,112,215185,1,0,0:0:0:0:
260,128,215282,1,2,0:0:0:0:
296,126,215380,1,0,0:0:0:0:
366,139,215477,5,8,0:0:0:0:
365,147,215575,1,0,0:0:0:0:
365,156,215672,1,2,0:0:0:0:
365,165,215769,1,0,0:0:0:0:
300,199,215867,5,8,0:0:0:0:
392,40,216062,2,0,L|235:59,1,116.999994644165,6|8,0:0|0:0,0:0:0:0:
37,223,216451,1,2,0:0:0:0:
310,326,216646,2,0,L|426:311,1,116.999994644165,12|2,0:0|0:0,0:0:0:0:
206,256,217036,1,8,0:0:0:0:
31,296,217230,1,2,0:0:0:0:
291,366,217425,5,8,0:0:0:0:
222,106,217620,1,2,0:0:0:0:
131,261,217815,2,0,B|126:310|126:310|134:378,1,90,8|2,0:0|0:0,0:0:0:0:
414,212,218204,1,8,0:0:0:0:
107,139,218399,1,2,0:0:0:0:
291,366,218594,1,8,0:0:0:0:
276,75,218789,1,10,0:0:0:0:
483,177,218984,6,0,B|474:236|474:236|481:302|481:302|468:369,1,180,8|8,0:0|0:0,0:0:0:0:
291,366,219568,1,2,0:0:0:0:
107,139,219763,1,8,0:0:0:0:
396,94,219958,1,2,0:0:0:0:
170,311,220152,1,8,0:0:0:0:
256,7,220347,1,2,0:0:0:0:
8,116,220542,6,0,P|10:174|29:217,1,90,8|2,0:0|0:0,0:0:0:0:
365,295,220932,2,0,P|313:267|267:262,1,90,8|2,0:0|0:0,0:0:0:0:
68,290,221321,1,8,0:0:0:0:
305,160,221516,1,2,0:0:0:0:
170,311,221711,1,8,0:0:0:0:
107,139,221906,1,2,0:0:0:0:
110,130,222003,1,0,0:0:0:0:
114,121,222101,6,0,B|158:95|158:95|224:97,1,116.999994644165,12|2,0:0|0:0,0:0:0:0:
414,135,222393,2,0,B|370:161|370:161|304:159,1,116.999994644165,8|0,0:0|0:0,0:0:0:0:
171,17,222685,2,0,L|229:17,1,58.4999973220826,10|0,0:0|0:0,0:0:0:0:
432,241,222880,2,0,L|373:241,1,58.4999973220826,12|0,0:0|0:0,0:0:0:0:
11,306,223659,6,0,P|34:353|50:282,1,180,12|0,0:0|0:0,0:0:0:0:
