osu file format v14

[General]
AudioFilename: audio.mp3
AudioLeadIn: 0
PreviewTime: 64097
Countdown: 0
SampleSet: None
StackLeniency: 0.7
Mode: 0
LetterboxInBreaks: 0
WidescreenStoryboard: 0

[Editor]
DistanceSpacing: 1.3
BeatDivisor: 4
GridSize: 4
TimelineZoom: 1

[Metadata]
Title:Deja Vu
TitleUnicode:Deja Vu
Artist:Dave Rodgers
ArtistUnicode:Dave Rodgers
Creator:[Kamiya]
Version:CURVE BATTLE
Source:頭文字D
Tags:initial d AE86 Tau man chi D
BeatmapID:1927766
BeatmapSetID:923137

[Difficulty]
HPDrainRate:6
CircleSize:4
OverallDifficulty:9
ApproachRate:9.5
SliderMultiplier:3.4
SliderTickRate:1

[Events]
//Background and Video events
0,0,"123.jpg",0,0
//Break Periods
//Storyboard Layer 0 (Background)
//Storyboard Layer 1 (Fail)
//Storyboard Layer 2 (Pass)
//Storyboard Layer 3 (Foreground)
//Storyboard Layer 4 (Overlay)
//Storyboard Sound Samples

[TimingPoints]
201,389.61038961039,4,3,1,50,1,0
1759,-200,4,3,1,50,0,0
14226,-333.333333333333,4,3,1,50,0,0
24356,-250,4,3,1,50,0,0
27084,-500,4,3,1,50,0,0
27473,-153.846153846154,4,3,1,50,0,0
29811,-133.333333333333,4,3,1,50,0,0
30006,-117.647058823529,4,3,1,50,0,0
30201,-100,4,3,1,50,0,0
30590,-153.846153846154,4,3,1,50,0,0
30980,-200,4,3,1,50,0,0
31175,-153.846153846154,4,3,1,50,0,0
32928,-100,4,3,1,50,0,0
33707,-153.846153846154,4,3,1,50,0,0
36045,-133.333333333333,4,3,1,50,0,0
36239,-117.647058823529,4,3,1,50,0,0
36434,-100,4,3,1,50,0,0
36824,-153.846153846154,4,3,1,50,0,0
37213,-200,4,3,1,50,0,0
37603,-153.846153846154,4,3,1,50,0,0
38382,-133.333333333333,4,3,1,50,0,0
38577,-100,4,3,1,50,0,0
38967,-125,4,3,1,50,0,0
39941,-153.846153846154,4,3,1,50,0,0
41304,-133.333333333333,4,3,1,50,0,0
41499,-153.846153846154,4,3,1,50,0,0
44226,-222.222222222222,4,3,1,50,0,0
44616,-153.846153846154,4,3,1,50,0,0
45395,-117.647058823529,4,3,1,50,0,0
45785,-100,4,3,1,50,0,0
46175,-153.846153846154,4,3,1,50,0,0
47538,-133.333333333333,4,3,1,50,0,0
47733,-153.846153846154,4,3,1,50,0,0
52798,-100,4,3,1,50,0,0
53188,-153.846153846154,4,3,1,50,0,0
53577,-133.333333333333,4,3,1,50,0,0
54162,-153.846153846154,4,3,1,50,0,0
54356,-100,4,3,1,50,0,0
54746,-153.846153846154,4,3,1,50,0,0
55136,-133.333333333333,4,3,1,50,0,0
55915,-153.846153846154,4,3,1,50,0,0
56889,-100,4,3,1,50,0,0
57473,-153.846153846154,4,3,1,50,0,0
57668,-100,4,3,1,50,0,0
58837,-153.846153846154,4,3,1,50,0,0
59032,-100,4,3,1,50,0,0
59421,-153.846153846154,4,3,1,50,0,0
59811,-133.333333333333,4,3,1,50,0,0
60201,-100,4,3,1,50,0,0
61369,-133.333333333333,4,3,1,50,0,0
62538,-100,4,3,1,50,0,0
62733,-166.666666666667,4,3,1,50,0,0
64097,-500,4,3,1,50,0,0
64876,-200,4,3,1,50,0,0
65071,-133.333333333333,4,3,1,50,0,0
65265,-133.333333333333,4,3,1,50,0,1
67213,-100,4,3,1,50,0,1
67993,-133.333333333333,4,3,1,50,0,1
69941,-100,4,3,1,50,0,1
71110,-133.333333333333,4,3,1,50,0,1
92149,-200,4,3,1,50,0,0
130720,-200,4,3,1,50,0,1
157603,-200,4,3,1,50,0,0
210201,-200,4,3,1,50,0,1
223058,-200,4,3,1,50,0,0

[HitObjects]
120,224,15006,6,0,L|176:124,1,101.999996887207
212,64,15590,1,0,0:0:0:0:
212,64,15785,1,0,0:0:0:0:
308,208,16175,5,0,0:0:0:0:
473,165,16564,2,0,P|427:145|380:160,1,101.999996887207
308,208,17149,1,0,0:0:0:0:
308,208,17343,2,0,L|320:272,1,50.9999984436036
396,272,17733,1,0,0:0:0:0:
240,304,18123,6,0,L|219:198,1,101.999996887207
196,128,18707,2,0,P|160:152|144:216,1,101.999996887207
92,268,19291,5,0,0:0:0:0:
8,108,19681,1,0,0:0:0:0:
8,108,19876,1,0,0:0:0:0:
92,268,20265,1,0,0:0:0:0:
92,268,20460,2,0,L|204:268,1,101.999996887207
392,224,21239,5,0,0:0:0:0:
300,64,21629,2,0,L|340:128,1,50.9999984436036
404,136,22018,1,0,0:0:0:0:
204,208,22408,5,0,0:0:0:0:
38,165,22797,2,0,P|84:145|132:160,1,101.999996887207
204,208,23382,1,0,0:0:0:0:
116,292,23576,2,0,L|125:241,1,50.9999984436036
204,208,23967,1,0,0:0:0:0:
408,88,24356,2,0,B|408:120|432:152|432:152|444:192|424:228|424:228|408:264|368:268|368:268|407:301|404:336,1,272
476,296,25330,1,0,0:0:0:0:
324,336,25525,1,0,0:0:0:0:
356,184,25720,1,0,0:0:0:0:
384,360,25915,5,0,0:0:0:0:
368,348,26012,1,0,0:0:0:0:
348,340,26109,1,0,0:0:0:0:
328,336,26207,1,0,0:0:0:0:
300,336,26304,5,0,0:0:0:0:
272,340,26402,1,0,0:0:0:0:
244,336,26499,1,0,0:0:0:0:
220,320,26597,1,0,0:0:0:0:
208,288,26694,5,0,0:0:0:0:
188,252,26791,1,0,0:0:0:0:
140,232,26889,1,0,0:0:0:0:
103,275,26986,1,0,0:0:0:0:
117,325,27084,6,0,L|101:265,1,51
104,276,27473,6,0,B|128:216|128:216|104:156,1,110.499994941712,4|0,0:0|0:0,0:0:0:0:
8,220,27863,1,0,0:0:0:0:
261,217,28058,2,0,L|217:325,1,110.499994941712
412,184,28447,2,0,L|368:292,1,110.499994941712
117,325,28837,1,0,0:0:0:0:
508,208,29032,2,0,P|504:148|448:104,1,110.499994941712
328,28,29324,1,0,0:0:0:0:
328,28,29421,2,0,L|264:52,1,55.2499974708559
316,52,29616,2,0,L|240:80,1,55.2499974708559
84,140,29811,6,0,L|164:156,1,63.7500024318696
412,188,30006,6,0,L|324:208,1,72.2500013780594
92,312,30201,6,0,B|64:268|64:268|164:264|164:264|148:312,1,170
316,326,30493,1,0,0:0:0:0:
316,326,30590,6,0,B|292:266|292:266|316:206,1,110.499994941712,4|0,0:0|0:0,0:0:0:0:
440,146,30980,2,0,L|448:122,4,21.25
184,368,31369,1,0,0:0:0:0:
408,252,31564,2,0,L|444:136,1,110.499994941712
316,140,31954,2,0,L|352:24,1,110.499994941712
496,344,32343,5,0,0:0:0:0:
316,276,32538,1,0,0:0:0:0:
184,368,32733,2,0,L|192:308,1,55.2499974708558
152,212,32928,6,0,B|200:192|240:212|240:212|276:160|340:176|340:176|272:100|272:100|220:112,1,340
68,152,33512,1,0,0:0:0:0:
239,107,33707,6,0,P|247:43|207:3,1,110.499994941712,4|0,0:0|0:0,0:0:0:0:
140,76,34097,1,0,0:0:0:0:
352,136,34291,2,0,P|328:196|276:228,1,110.499994941712
432,64,34681,2,0,P|456:120|452:176,1,110.499994941712
68,152,35071,1,0,0:0:0:0:
302,229,35265,2,0,B|314:173|314:173|354:133,1,110.499994941712
496,264,35558,1,0,0:0:0:0:
496,264,35655,2,0,L|484:324,1,55.2499974708558
512,276,35850,2,0,L|502:330,1,55.2499974708558
272,368,36045,6,0,L|332:348,1,63.7500024318696
156,192,36239,6,0,L|228:205,1,72.2500013780594
56,376,36434,6,0,B|24:332|24:332|120:312|120:312|104:352,1,170
384,152,36726,1,0,0:0:0:0:
384,152,36824,6,0,P|404:200|380:260,1,110.499994941712,4|0,0:0|0:0,0:0:0:0:
192,208,37213,2,0,L|176:176,4,21.25
376,336,37603,1,0,0:0:0:0:
192,208,37798,2,0,L|168:144,1,55.2499974708558
216,64,37993,6,0,B|152:52|152:52|84:80,1,110.499994941712
80,40,38382,6,0,L|148:12,1,63.7500024318696
304,104,38577,6,0,B|324:60|300:20|300:20|324:60|368:60|368:60|388:32|448:16|448:16|416:56|420:72,1,255
484,172,38967,6,0,B|488:140|512:104|512:104|470:108|440:126|440:126|418:157|381:157|381:157|366:195|326:202|326:202|299:208|270:191|270:191|300:216|304:280,1,408
365,316,39941,6,0,P|347:270|288:236,1,110.499994941712
88,296,40330,1,0,0:0:0:0:
184,96,40525,1,0,0:0:0:0:
184,96,40720,2,0,L|216:208,1,110.499994941712
384,136,41012,1,0,0:0:0:0:
384,136,41110,6,0,L|335:160,1,55.2499974708558
214,202,41304,6,0,L|278:234,1,63.7500024318696
500,160,41499,2,0,P|500:104|452:52,1,110.499994941712
304,24,41889,1,0,0:0:0:0:
112,112,42084,1,0,0:0:0:0:
112,112,42181,1,0,0:0:0:0:
112,112,42278,1,0,0:0:0:0:
304,24,42473,1,0,0:0:0:0:
184,220,42668,1,0,0:0:0:0:
124,12,42863,2,0,L|180:12,1,55.2499974708558
328,144,43058,6,0,B|275:112|275:112|223:112,1,110.499994941712
20,116,43447,1,0,0:0:0:0:
92,308,43642,2,0,B|108:252|108:252|92:196,2,110.499994941712
188,348,44129,1,0,0:0:0:0:
188,348,44226,6,0,L|204:300,1,38.2499988327027
228,324,44421,2,0,L|244:272,1,38.2499988327027
280,196,44616,2,0,P|328:232|340:288,1,110.499994941712
428,56,45006,2,0,P|380:92|368:148,1,110.499994941712
420,224,45298,1,0,0:0:0:0:
340,278,45395,6,0,B|292:278|292:278|244:250|244:250|192:250,1,144.500002756119
120,196,45688,1,0,0:0:0:0:
32,224,45785,6,0,P|38:142|108:99,1,170
328,56,46175,6,0,P|310:102|251:136,1,110.499994941712
107,99,46564,1,0,0:0:0:0:
324,320,46759,1,0,0:0:0:0:
324,320,46954,2,0,L|292:208,1,110.499994941712
100,304,47246,1,0,0:0:0:0:
100,304,47344,6,0,L|150:281,1,55.2499974708558
293,213,47538,6,0,L|229:181,1,63.7500024318696
12,280,47733,2,0,P|12:336|60:388,1,110.499994941712
224,344,48123,1,0,0:0:0:0:
400,240,48318,1,0,0:0:0:0:
400,240,48415,1,0,0:0:0:0:
400,240,48512,1,0,0:0:0:0:
224,344,48707,1,0,0:0:0:0:
375,132,48902,1,0,0:0:0:0:
344,364,49097,2,0,L|400:364,1,55.2499974708558
204,256,49291,6,0,B|236:280|236:280|340:280,1,110.499994941712
492,268,49681,1,0,0:0:0:0:
432,104,49876,2,0,B|416:160|416:160|432:216,2,110.499994941712
440,88,50363,1,0,0:0:0:0:
448,72,50460,1,0,0:0:0:0:
456,60,50558,5,0,0:0:0:0:
412,72,50655,1,0,0:0:0:0:
364,88,50752,1,0,0:0:0:0:
308,108,50850,5,0,0:0:0:0:
232,264,51045,1,0,0:0:0:0:
136,96,51239,1,0,0:0:0:0:
416,316,51434,1,0,0:0:0:0:
280,356,51824,1,0,0:0:0:0:
280,356,52408,1,0,0:0:0:0:
280,356,52603,2,0,L|284:292,1,55.2499974708558
252,152,52798,6,0,B|260:184|288:196|288:196|248:192|220:220|220:220|194:204|164:200,1,170
68,96,53090,1,0,0:0:0:0:
68,96,53188,6,0,L|44:164,1,55.2499974708558
207,256,53382,2,0,L|183:196,1,55.2499974708558
56,64,53577,6,0,L|24:144,1,63.7500024318696
240,272,53772,2,0,L|212:200,1,63.7500024318696
160,40,53967,1,0,0:0:0:0:
160,40,54162,2,0,L|188:96,1,55.2499974708558
224,248,54356,6,0,B|216:216|188:204|188:204|228:208|256:180|256:180|282:196|312:200,1,170
416,280,54649,1,0,0:0:0:0:
416,280,54747,6,0,L|440:212,1,55.2499974708558
305,128,54941,2,0,L|329:188,1,55.2499974708558
424,312,55136,6,0,L|456:232,1,63.7500024318696
272,112,55331,2,0,L|300:184,1,63.7500024318696
328,312,55525,5,0,0:0:0:0:
316,312,55623,1,0,0:0:0:0:
304,312,55720,1,0,0:0:0:0:
292,312,55817,1,0,0:0:0:0:
280,312,55915,6,0,B|216:312|216:312|160:272,1,110.499994941712
40,228,56207,1,0,0:0:0:0:
40,228,56304,2,0,B|88:192|88:192|88:128,1,110.499994941712
80,8,56694,1,0,0:0:0:0:
28,128,56889,6,0,B|66:127|88:144|88:144|136:104|196:108|196:108|220:124|284:108|284:108|235:92|208:60,1,340
28,128,57473,6,0,P|64:132|88:144,1,55.2499974708558
308,148,57668,6,0,B|284:108|284:108|252:100|224:76|224:76|184:84|144:68|144:68|176:96|180:160,1,255
212,296,58058,2,0,P|228:260|224:204,1,85
144,68,58252,1,0,0:0:0:0:
316,244,58447,1,0,0:0:0:0:
16,260,58642,5,0,0:0:0:0:
16,260,58837,2,0,L|16:340,1,55.2499974708558
61,172,59032,6,0,B|101:148|101:148|133:164|181:148|181:148|145:180,1,170
280,271,59323,1,0,0:0:0:0:
280,271,59421,6,0,L|304:203,1,55.2499974708558
161,96,59615,2,0,L|185:156,1,55.2499974708558
292,303,59810,6,0,L|324:223,1,63.7500024318696
128,80,60005,2,0,L|156:152,1,63.7500024318696
292,303,60201,6,0,B|252:327|252:327|220:311|172:327|172:327|208:295,1,170
324,112,60493,1,0,0:0:0:0:
324,112,60590,2,0,P|370:132|396:176,1,85
432,240,60785,2,0,B|480:216|476:152|476:152|496:112|496:112|512:160,1,170
464,324,61077,1,0,0:0:0:0:
464,324,61175,2,0,P|416:330|376:308,1,85
260,44,61369,6,0,L|228:128,1,63.7500024318696
92,216,61564,2,0,P|124:216|156:232,1,63.7500024318696
72,116,61759,6,0,P|60:188|28:172,1,127.500004863739
144,76,62149,2,0,P|176:140|152:216,1,127.500004863739
200,24,62538,6,0,P|236:72|252:124,1,85
208,4,62733,6,0,P|244:52|280:184,1,152.999995330811
244,280,63123,5,0,0:0:0:0:
220,264,63220,1,0,0:0:0:0:
196,240,63317,1,0,0:0:0:0:
176,204,63415,1,0,0:0:0:0:
172,160,63512,1,0,0:0:0:0:
192,112,63610,1,0,0:0:0:0:
244,92,63707,5,0,0:0:0:0:
300,120,63804,1,0,0:0:0:0:
316,184,63902,1,0,0:0:0:0:
272,240,63999,1,0,0:0:0:0:
240,172,64097,6,0,P|292:168|344:224,1,119
344,224,64876,2,0,L|332:272,1,42.5
312,272,65071,6,0,L|336:184,1,63.7500024318696
388,100,65265,2,0,L|392:188,1,63.7500024318696
476,272,65460,1,0,0:0:0:0:
400,240,65558,1,0,0:0:0:0:
328,210,65655,2,0,B|264:184|264:184|188:210,1,127.500004863739
160,344,65947,1,0,0:0:0:0:
160,344,66045,2,0,L|136:272,1,63.7500024318696
56,76,66239,6,0,P|104:132|76:192,1,127.500004863739
0,280,66629,1,0,0:0:0:0:
208,202,66824,6,0,B|260:174|260:174|304:182|348:174|348:174|316:222,1,191.250007295609
278,282,67213,6,0,L|326:206,1,85
316,25,67408,2,0,P|324:61|300:109,1,85
208,202,67603,2,0,L|180:118,1,85
92,32,67798,1,0,0:0:0:0:
52,104,67895,1,0,0:0:0:0:
8,172,67993,6,0,B|-8:200|0:244|0:244|17:264|24:300,1,127.500004863739
136,296,68285,1,0,0:0:0:0:
136,296,68382,2,0,P|180:288|264:328,1,127.500004863739
376,360,68772,2,0,P|332:304|356:224,1,127.500004863739
424,208,69064,1,0,0:0:0:0:
424,208,69162,2,0,L|400:140,1,63.7500024318696
328,44,69356,6,0,L|376:188,1,127.500004863739
456,288,69649,1,0,0:0:0:0:
456,288,69746,2,0,L|440:244,3,31.8750012159348
460,300,69941,2,0,B|470:273|461:231|461:231|408:184|408:120|408:120|400:160|376:192,1,255
512,96,70330,2,0,P|488:112|508:160,1,85
320,124,70525,6,0,P|300:176|304:224,1,85
332,316,70720,2,0,P|304:288|248:276,1,85
160,320,70915,1,0,0:0:0:0:
128,244,71012,1,0,0:0:0:0:
88,168,71110,2,0,L|64:104,1,63.7500024318696
148,16,71304,6,0,B|156:48|156:48|128:156,1,127.500004863739
