osu file format v14

[General]
AudioFilename: audio.MP3
AudioLeadIn: 0
PreviewTime: 49434
Countdown: 1
SampleSet: Normal
StackLeniency: 0.2
Mode: 0
LetterboxInBreaks: 0
WidescreenStoryboard: 1

[Editor]
DistanceSpacing: 1
BeatDivisor: 8
GridSize: 20
TimelineZoom: 1

[Metadata]
Title:Feels Like Tonight
TitleUnicode:Feels Like Tonight
Artist:Daughtry
ArtistUnicode:Daughtry
Creator:DemoPlayer
Version:CYTUS
Source:
Tags:Daughtry Feels Like Tonight CYTUS
BeatmapID:1787842
BeatmapSetID:855672

[Difficulty]
HPDrainRate:0
CircleSize:2.5
OverallDifficulty:2
ApproachRate:2
SliderMultiplier:3
SliderTickRate:4

[Events]
//Background and Video events
0,0,"acxrv1aw8blz.jpg",0,0
//Break Periods
//Storyboard Layer 0 (Background)
//Storyboard Layer 1 (Fail)
//Storyboard Layer 2 (Pass)
//Storyboard Layer 3 (Foreground)
//Storyboard Sound Samples

[TimingPoints]
1915.69717976453,458.015267175573,4,1,0,100,1,0
18404,3664.12213740458,4,1,0,100,1,0
18404,-1000,4,1,0,100,0,0
20236,458.015267175573,4,1,0,100,1,0

[Colours]
Combo1 : 255,255,255
Combo2 : 255,255,255
Combo3 : 255,255,255
Combo4 : 255,255,255
SliderBorder : 0,0,0
SliderTrackOverride : 0,0,0

[HitObjects]
0,220,2373,5,0,0:0:0:0:
0,100,2602,1,0,0:0:0:0:
220,20,2831,1,0,0:0:0:0:
220,120,3060,1,0,0:0:0:0:
400,220,3289,1,0,0:0:0:0:
400,320,3518,1,0,0:0:0:0:
180,400,3747,2,0,L|40:280,1,150
60,200,4205,2,0,L|200:80,1,150
300,20,4663,1,0,0:0:0:0:
435,97,4892,2,0,B|328:202|328:202|440:302|440:302|406:336|406:336|334:407,1,450
240,320,5808,1,0,0:0:0:0:
240,220,6037,1,0,0:0:0:0:
180,120,6266,1,0,0:0:0:0:
120,20,6495,1,0,0:0:0:0:
60,120,6724,1,0,0:0:0:0:
0,220,6953,1,0,0:0:0:0:
60,320,7182,1,0,0:0:0:0:
140,400,7411,1,0,0:0:0:0:
200,320,7640,1,0,0:0:0:0:
260,220,7869,1,0,0:0:0:0:
320,120,8098,1,0,0:0:0:0:
380,20,8327,1,0,0:0:0:0:
440,120,8556,1,0,0:0:0:0:
480,220,8785,2,0,L|405:271,1,75
340,320,9014,2,0,L|270:368,1,75
142,407,9243,2,0,B|31:306|31:306|174:185,1,300
280,100,9930,1,0,0:0:0:0:
280,0,10159,1,0,0:0:0:0:
400,120,10388,1,0,0:0:0:0:
400,220,10617,1,0,0:0:0:0:
400,320,10846,1,0,0:0:0:0:
99,407,11076,2,0,L|34:340,1,75
200,220,11534,2,0,L|258:167,1,75
80,120,11763,2,0,L|24:67,1,75
340,120,12221,2,0,L|401:174,1,75
340,400,12908,1,0,0:0:0:0:
340,300,13137,1,0,0:0:0:0:
340,200,13366,1,0,0:0:0:0:
340,100,13595,1,0,0:0:0:0:
120,20,13824,1,0,0:0:0:0:
120,120,14053,1,0,0:0:0:0:
120,220,14282,1,0,0:0:0:0:
120,320,14511,1,0,0:0:0:0:
419,407,14740,2,0,L|273:294,1,150
300,220,15198,2,0,L|420:120,1,150
60,20,15656,2,0,L|200:120,1,150
200,220,16114,2,0,L|80:320,1,150
320,400,16572,1,0,0:0:0:0:
420,300,16801,1,0,0:0:0:0:
320,220,17030,1,0,0:0:0:0:
420,120,17259,1,0,0:0:0:0:
80,20,17488,1,0,0:0:0:0:
180,120,17717,1,0,0:0:0:0:
80,220,17946,1,0,0:0:0:0:
180,320,18175,1,0,0:0:0:0:
365,395,18404,2,0,L|365:407,1,2.8125
440,220,18862,2,0,L|440:226,1,0.9375
360,120,19091,2,0,L|360:132,1,2.8125
220,120,19549,2,0,L|220:131,1,4.625
