osu file format v14

[General]
AudioFilename: audio.mp3
AudioLeadIn: 0
PreviewTime: 34431
Countdown: 1
SampleSet: Normal
StackLeniency: 0.3
Mode: 0
LetterboxInBreaks: 0
WidescreenStoryboard: 1

[Editor]
DistanceSpacing: 1.3
BeatDivisor: 4
GridSize: 4
TimelineZoom: 1.5

[Metadata]
Title:The Lords Song
TitleUnicode:The Lords Song
Artist:Daughters
ArtistUnicode:Daughters
Creator:- Physical -
Version:Insane
Source:
Tags:you won't get what you want industrial noise rock art punk post hardcore wont ywgwyw
BeatmapID:2082196
BeatmapSetID:991641

[Difficulty]
HPDrainRate:6
CircleSize:4
OverallDifficulty:7.5
ApproachRate:9
SliderMultiplier:1.7
SliderTickRate:1

[Events]
//Background and Video events
0,0,"ywgwyw.jpg",0,0
//Break Periods
2,145924,150728
//Storyboard Layer 0 (Background)
//Storyboard Layer 1 (Fail)
//Storyboard Layer 2 (Pass)
//Storyboard Layer 3 (Foreground)
//Storyboard Sound Samples

[TimingPoints]
1673,344.827586206897,4,3,0,60,1,0
12707,-100,4,1,0,70,0,0
34776,-83.3333333333333,4,1,0,75,0,1
39948,-83.3333333333333,4,1,0,75,0,0
40293,-83.3333333333333,4,1,0,75,0,1
45810,-100,4,3,0,60,0,0
54086,-83.3333333333333,4,1,0,60,0,1
56759,-100,4,1,0,60,0,0
57535,344.827586206897,4,1,0,70,1,0
79603,-80,4,3,0,60,0,0
85121,-83.3333333333333,4,1,0,75,0,1
90293,-83.3333333333333,4,1,0,75,0,0
90638,-83.3333333333333,4,1,0,75,0,1
96155,-100,4,3,0,60,0,0
104431,-83.3333333333333,4,1,0,60,0,1
106500,-83.3333333333333,4,1,0,65,0,1
107190,-83.3333333333333,4,1,0,75,0,0
134776,-76.9230769230769,4,1,0,75,0,1
140207,-76.9230769230769,4,1,0,75,0,0
140293,-76.9230769230769,4,1,0,75,0,1
145724,-76.9230769230769,4,1,0,75,0,0
151328,-76.9230769230769,4,3,0,50,0,1
151414,-100,4,3,0,50,0,0
152707,-100,4,3,0,45,0,0
153397,-100,4,3,0,40,0,0
154086,-100,4,3,0,35,0,0
154776,-100,4,3,0,30,0,0
155466,-100,4,3,0,25,0,0
156155,-100,4,3,0,20,0,0
156845,-100,4,3,0,15,0,0
157535,-100,4,3,0,10,0,0

[Colours]
Combo1 : 117,117,117
Combo2 : 205,205,205

[HitObjects]
331,322,1673,6,0,L|426:317,1,85,8|0,0:0|0:0,0:0:0:0:
245,274,2017,2,0,L|160:278,1,85,8|0,0:0|0:0,0:0:0:0:
326,238,2362,2,0,L|421:233,1,85,8|0,0:0|0:0,0:0:0:0:
240,190,2706,2,0,L|155:194,1,85,8|0,0:0|0:0,0:0:0:0:
320,148,3052,6,0,P|324:103|305:60,1,85,8|0,0:0|0:0,0:0:0:0:
213,121,3397,2,0,P|184:86|140:69,1,85,8|0,0:0|0:0,0:0:0:0:
118,176,3741,2,0,P|73:172|30:191,1,85,8|0,0:0|0:0,0:0:0:0:
91,283,4086,2,0,P|56:311|39:355,1,85,8|0,0:0|0:0,0:0:0:0:
201,318,4431,6,0,P|210:274|193:218,1,85,8|0,0:0|0:0,0:0:0:0:
309,148,4776,2,0,P|301:107|311:66,1,85,8|0,0:0|0:0,0:0:0:0:
309,235,5121,2,0,P|301:276|311:318,1,85,8|0,0:0|0:0,0:0:0:0:
202,148,5466,2,0,P|210:107|200:65,1,85,8|0,0:0|0:0,0:0:0:0:
299,138,5810,6,0,P|340:146|382:136,1,85,8|0,0:0|0:0,0:0:0:0:
213,109,6155,2,0,P|171:101|130:110,1,85,8|0,0:0|0:0,0:0:0:0:
293,219,6500,2,0,P|334:226|375:217,1,85,8|0,0:0|0:0,0:0:0:0:
206,189,6845,2,0,P|164:181|123:190,1,85,8|0,0:0|0:0,0:0:0:0:
171,311,7190,5,8,0:0:0:0:
277,284,7362,1,0,0:0:0:0:
250,177,7535,1,8,0:0:0:0:
143,203,7707,1,0,0:0:0:0:
273,295,7879,6,0,P|322:303|371:290,1,85,8|0,0:0|0:0,0:0:0:0:
137,197,8224,2,0,P|88:189|39:202,1,85,8|0,0:0|0:0,0:0:0:0:
311,214,8569,5,8,0:0:0:0:
255,118,8741,1,0,0:0:0:0:
199,213,8914,1,8,0:0:0:0:
143,117,9086,1,0,0:0:0:0:
88,213,9259,6,0,P|80:262|93:311,1,85,8|0,0:0|0:0,0:0:0:0:
238,128,9604,2,0,P|246:79|233:30,1,85,8|0,0:0|0:0,0:0:0:0:
325,191,9948,6,0,P|375:200|415:190,1,85,8|0,0:0|0:0,0:0:0:0:
257,261,10293,2,0,P|248:311|258:351,1,85,8|0,0:0|0:0,0:0:0:0:
187,193,10638,2,0,P|137:184|97:194,1,85,8|0,0:0|0:0,0:0:0:0:
255,123,10983,2,0,P|264:73|254:33,1,85,8|0,0:0|0:0,0:0:0:0:
325,191,11328,6,0,P|329:236|319:278,1,85,12|0,0:0|0:0,0:0:0:0:
291,295,11586,1,0,0:0:0:0:
291,295,11673,2,0,L|237:292,1,42.5,2|0,0:0|0:0,0:0:0:0:
173,321,11845,2,0,L|119:318,1,42.5
72,263,12017,5,8,0:0:0:0:
66,234,12103,1,0,0:0:0:0:
69,205,12189,1,0,0:0:0:0:
81,178,12275,1,0,0:0:0:0:
98,153,12362,1,2,0:0:0:0:
104,124,12448,1,0,0:0:0:0:
101,95,12534,1,0,0:0:0:0:
89,68,12620,1,0,0:0:0:0:
70,44,12707,6,0,P|113:64|236:49,1,170,4|8,0:0|0:0,0:0:0:0:
363,80,13224,2,0,L|463:72,1,85
264,133,13569,2,0,L|164:125,1,85,0|8,0:0|0:0,0:0:0:0:
357,182,13914,1,0,0:0:0:0:
407,251,14086,6,0,L|403:356,2,85,0|0|8,0:0|0:0|0:0,0:0:0:0:
328,152,14604,2,0,P|357:113|468:131,1,170
348,235,15121,2,0,P|298:233|256:204,1,85,8|0,0:0|0:0,0:0:0:0:
211,121,15466,6,0,L|215:16,2,85,0|0|8,0:0|0:0|0:0,0:0:0:0:
132,222,15983,2,0,P|90:195|120:86,1,170
232,150,16500,2,0,P|181:156|133:148,1,85,8|0,0:0|0:0,0:0:0:0:
335,98,16845,6,0,P|388:104|429:135,1,85,8|0,0:0|0:0,0:0:0:0:
232,150,17190,2,0,P|210:101|217:50,1,85,8|0,0:0|0:0,0:0:0:0:
329,214,17535,2,0,P|297:256|249:276,1,85,8|0,0:0|0:0,0:0:0:0:
335,98,17879,1,8,0:0:0:0:
356,96,17965,1,0,0:0:0:0:
377,100,18051,1,0,0:0:0:0:
396,108,18137,1,0,0:0:0:0:
414,119,18224,6,0,P|419:169|414:213,1,85,4|0,0:0|0:0,0:0:0:0:
291,154,18569,2,0,P|286:104|291:60,1,85,8|0,0:0|0:0,0:0:0:0:
355,241,18914,2,0,P|360:291|355:335,1,85
232,276,19259,2,0,P|227:226|232:182,1,85,8|0,0:0|0:0,0:0:0:0:
275,350,19604,6,0,P|226:359|148:270,1,170,0|8,0:0|0:0,0:0:0:0:
197,177,20121,2,0,B|210:91|210:91|192:10,1,170
98,110,20638,1,8,0:0:0:0:
206,147,20810,1,0,0:0:0:0:
325,81,20983,6,0,P|374:82|425:91,2,85,0|0|8,0:0|0:0|0:0,0:0:0:0:
196,85,21500,2,0,B|164:89|140:79|140:79|150:107|140:138|140:138|131:166|142:202,1,170
215,291,22017,2,0,P|261:306|327:294,1,85,8|0,0:0|0:0,0:0:0:0:
385,234,22362,6,0,L|389:143,1,85,12|0,0:0|0:0,0:0:0:0:
362,118,22621,1,0,0:0:0:0:
362,118,22707,2,0,L|365:66,1,42.5,2|0,0:0|0:0,0:0:0:0:
280,95,22879,2,0,L|282:52,1,42.5
200,80,23052,5,8,0:0:0:0:
171,72,23138,1,0,0:0:0:0:
142,78,23224,1,0,0:0:0:0:
120,97,23310,1,0,0:0:0:0:
108,124,23396,1,2,0:0:0:0:
110,153,23483,1,0,0:0:0:0:
126,178,23569,1,0,0:0:0:0:
152,193,23655,1,0,0:0:0:0:
181,194,23741,6,0,L|285:184,1,85,4|0,0:0|0:0,0:0:0:0:
360,111,24086,2,0,L|464:101,1,85,8|0,0:0|0:0,0:0:0:0:
444,281,24431,2,0,L|360:273,1,85
265,198,24776,2,0,L|181:190,1,85,8|0,0:0|0:0,0:0:0:0:
68,231,25121,6,0,P|56:276|68:322,1,85
175,251,25466,2,0,P|182:209|170:169,1,85,8|0,0:0|0:0,0:0:0:0:
281,269,25810,2,0,P|269:314|281:360,1,85
388,289,26155,2,0,P|395:247|383:207,1,85,8|0,0:0|0:0,0:0:0:0:
493,317,26500,5,0,0:0:0:0:
478,199,26673,1,0,0:0:0:0:
402,295,26845,1,8,0:0:0:0:
387,177,27018,1,0,0:0:0:0:
315,274,27190,5,0,0:0:0:0:
300,156,27363,1,0,0:0:0:0:
224,252,27535,1,8,0:0:0:0:
209,134,27708,1,0,0:0:0:0:
140,235,27879,6,0,P|97:242|53:234,1,85,8|0,0:0|0:0,0:0:0:0:
247,259,28224,2,0,P|274:292|289:334,1,85,8|0,0:0|0:0,0:0:0:0:
214,154,28569,2,0,P|229:113|258:79,1,85,8|0,0:0|0:0,0:0:0:0:
140,235,28914,1,8,0:0:0:0:
119,240,29000,1,0,0:0:0:0:
98,241,29086,1,0,0:0:0:0:
77,240,29172,1,0,0:0:0:0:
56,235,29259,6,0,B|54:146|54:146|86:64,1,170,4|8,0:0|0:0,0:0:0:0:
178,127,29776,1,0,0:0:0:0:
178,127,29948,2,0,P|238:142|354:124,1,170,0|8,0:0|0:0,0:0:0:0:
434,63,30466,1,0,0:0:0:0:
482,162,30638,6,0,P|489:209|477:248,1,85
343,231,30983,2,0,P|335:183|347:144,1,85,8|0,0:0|0:0,0:0:0:0:
487,175,31328,2,0,P|485:223|466:259,1,85
337,217,31673,2,0,P|339:169|358:133,1,85,8|0,0:0|0:0,0:0:0:0:
489,190,32017,6,0,P|478:236|374:289,1,170,0|8,0:0|0:0,0:0:0:0:
256,248,32535,1,0,0:0:0:0:
134,289,32707,2,0,P|55:265|23:190,1,170,0|8,0:0|0:0,0:0:0:0:
145,164,33224,1,0,0:0:0:0:
187,61,33397,5,12,0:0:0:0:
275,143,33569,1,0,0:0:0:0:
275,143,33655,1,0,0:0:0:0:
275,143,33741,2,0,L|319:131,3,42.5,2|0|0|0,0:0|0:0|0:0|0:0,0:0:0:0:
329,215,34086,2,0,L|374:216,3,42.5,8|0|0|0,0:0|0:0|0:0|0:0,0:0:0:0:
378,294,34431,5,2,0:0:0:0:
358,316,34517,1,0,0:0:0:0:
332,330,34603,1,0,0:0:0:0:
303,333,34689,1,0,0:0:0:0:
274,325,34776,6,0,P|217:330|117:217,1,203.999993774414,4|8,0:0|0:0,0:0:0:0:
238,123,35293,1,0,0:0:0:0:
238,123,35466,2,0,P|244:179|229:227,1,101.999996887207
95,152,35810,2,0,P|89:96|104:48,1,101.999996887207,8|0,0:0|0:0,0:0:0:0:
251,144,36155,6,0,B|240:348,1,203.999993774414,0|8,0:0|0:0,0:0:0:0:
131,225,36673,1,0,0:0:0:0:
131,225,36845,2,0,L|141:123,1,101.999996887207
349,162,37190,2,0,L|339:264,1,101.999996887207,8|0,0:0|0:0,0:0:0:0:
273,87,37535,6,0,P|327:56|446:116,1,203.999993774414,0|8,0:0|0:0,0:0:0:0:
319,214,38052,1,0,0:0:0:0:
319,214,38224,2,0,P|294:259|308:327,1,101.999996887207
188,181,38569,2,0,P|161:136|95:114,1,101.999996887207,8|0,0:0|0:0,0:0:0:0:
273,99,38914,6,0,P|324:98|376:52,1,101.999996887207,8|0,0:0|0:0,0:0:0:0:
349,209,39259,2,0,P|349:260|395:312,1,101.999996887207,8|0,0:0|0:0,0:0:0:0:
239,285,39604,2,0,P|187:285|135:331,1,101.999996887207,8|0,0:0|0:0,0:0:0:0:
163,175,39949,1,8,0:0:0:0:
166,149,40035,1,0,0:0:0:0:
162,124,40121,1,0,0:0:0:0:
151,101,40207,1,0,0:0:0:0:
134,83,40293,6,0,B|107:142|107:142|123:285,1,203.999993774414,4|8,0:0|0:0,0:0:0:0:
255,340,40810,1,0,0:0:0:0:
255,340,40983,2,0,P|319:346|368:329,1,101.999996887207
275,216,41328,2,0,P|324:174|347:128,1,101.999996887207,8|0,0:0|0:0,0:0:0:0:
200,123,41673,6,0,P|206:59|63:38,1,203.999993774414,0|8,0:0|0:0,0:0:0:0:
146,200,42190,1,0,0:0:0:0:
146,200,42362,2,0,P|198:214|255:204,1,101.999996887207
128,84,42707,2,0,P|77:77|28:91,1,101.999996887207,8|0,0:0|0:0,0:0:0:0:
260,128,43052,6,0,B|309:151|354:135|354:135|409:115|460:140,1,203.999993774414,0|8,0:0|0:0,0:0:0:0:
404,306,43569,1,0,0:0:0:0:
404,306,43741,2,0,L|404:199,1,101.999996887207
291,122,44086,2,0,L|291:15,1,101.999996887207,8|0,0:0|0:0,0:0:0:0:
204,174,44431,6,0,P|150:188|90:170,1,101.999996887207,12|0,0:0|0:0,0:0:0:0:
81,151,44690,1,0,0:0:0:0:
81,151,44776,2,0,L|22:151,1,50.9999984436036,2|0,0:0|0:0,0:0:0:0:
63,230,44948,2,0,L|21:271,1,50.9999984436036
109,294,45121,6,0,L|109:353,1,50.9999984436036,8|0,0:0|0:0,0:0:0:0:
176,245,45293,2,0,L|176:194,1,50.9999984436036
236,296,45466,2,0,L|236:355,1,50.9999984436036,2|0,0:0|0:0,0:0:0:0:
303,247,45638,2,0,L|303:196,1,50.9999984436036
361,298,45810,6,0,P|419:316|459:220,1,170,4|8,0:0|0:0,0:0:0:0:
393,148,46328,1,0,0:0:0:0:
393,148,46500,2,0,L|403:60,1,85,8|0,0:0|0:0,0:0:0:0:
307,120,46845,2,0,L|304:31,1,85,8|0,0:0|0:0,0:0:0:0:
220,107,47190,6,0,L|202:20,1,85,8|0,0:0|0:0,0:0:0:0:
129,106,47535,2,0,L|99:22,1,85,8|0,0:0|0:0,0:0:0:0:
45,121,47879,1,8,0:0:0:0:
167,143,48052,1,0,0:0:0:0:
75,204,48224,1,8,0:0:0:0:
197,226,48397,1,0,0:0:0:0:
106,289,48569,6,0,P|140:321|266:317,1,170,8|8,0:0|0:0,0:0:0:0:
322,232,49086,1,0,0:0:0:0:
322,232,49259,2,0,L|323:144,1,85,8|0,0:0|0:0,0:0:0:0:
189,147,49604,2,0,L|190:232,1,85,8|0,0:0|0:0,0:0:0:0:
322,256,49948,6,0,L|323:168,1,85,8|0,0:0|0:0,0:0:0:0:
189,171,50293,2,0,L|189:255,1,85,8|0,0:0|0:0,0:0:0:0:
322,280,50638,2,0,L|323:192,1,85,8|0,0:0|0:0,0:0:0:0:
189,195,50983,2,0,L|189:279,1,85,8|0,0:0|0:0,0:0:0:0:
322,304,51328,6,0,L|323:132,1,170,8|8,0:0|0:0,0:0:0:0:
206,151,51845,1,0,0:0:0:0:
206,151,52017,2,0,P|142:154|96:145,1,85,8|0,0:0|0:0,0:0:0:0:
307,151,52362,2,0,P|372:154|417:145,1,85,8|0,0:0|0:0,0:0:0:0:
232,107,52707,6,0,P|196:53|181:8,1,85,8|0,0:0|0:0,0:0:0:0:
282,194,53052,2,0,P|311:252|342:287,1,85,8|0,0:0|0:0,0:0:0:0:
282,107,53397,2,0,P|311:49|342:14,1,85,8|0,0:0|0:0,0:0:0:0:
232,194,53742,2,0,P|196:248|181:293,1,85,8|0,0:0|0:0,0:0:0:0:
307,150,54086,6,0,P|361:147|400:156,3,50.9999984436036
292,229,54431,2,0,P|340:253|369:279,3,50.9999984436036
241,294,54776,2,0,P|270:339|282:376,3,50.9999984436036
163,309,55121,2,0,P|166:363|157:401,3,50.9999984436036
91,264,55466,6,0,P|86:185|98:129,1,101.999996887207,12|0,0:0|0:0,0:0:0:0:
112,135,55724,1,0,0:0:0:0:
112,135,55810,2,0,L|111:84,3,50.9999984436036,2|0|0|0,0:0|0:0|0:0|0:0,0:0:0:0:
172,185,56155,5,8,0:0:0:0:
207,185,56241,1,0,0:0:0:0:
243,186,56327,1,0,0:0:0:0:
279,187,56413,1,0,0:0:0:0:
314,188,56499,1,2,0:0:0:0:
350,189,56586,1,0,0:0:0:0:
386,190,56672,1,0,0:0:0:0:
421,191,56758,1,0,0:0:0:0:
421,191,57535,6,0,B|425:68|425:68|401:26,1,170,4|8,0:0|0:0,0:0:0:0:
301,106,58052,2,0,P|250:115|210:106,1,85
387,189,58397,2,0,P|438:198|478:189,1,85,0|8,0:0|0:0,0:0:0:0:
285,221,58741,1,0,0:0:0:0:
210,145,58914,6,0,L|215:60,2,85,0|0|8,0:0|0:0|0:0,0:0:0:0:
132,241,59431,2,0,P|67:230|72:113,1,170
148,219,59948,2,0,L|137:308,1,85,8|0,0:0|0:0,0:0:0:0:
243,166,60293,6,0,L|232:77,2,85,0|0|8,0:0|0:0|0:0,0:0:0:0:
319,259,60810,2,0,B|353:265|353:265|383:261|383:261|411:284|450:287|481:266,1,170
469,101,61328,1,8,0:0:0:0:
436,198,61500,1,0,0:0:0:0:
340,132,61672,6,0,L|246:120,1,85,8|0,0:0|0:0,0:0:0:0:
150,157,62017,2,0,L|56:145,1,85,8|0,0:0|0:0,0:0:0:0:
226,224,62362,2,0,L|320:212,1,85,8|0,0:0|0:0,0:0:0:0:
416,249,62707,1,8,0:0:0:0:
437,246,62793,1,0,0:0:0:0:
458,243,62879,1,0,0:0:0:0:
479,240,62965,1,0,0:0:0:0:
500,238,63052,6,0,P|503:183|490:133,1,85,4|0,0:0|0:0,0:0:0:0:
378,123,63397,2,0,P|375:67|388:17,1,85,8|0,0:0|0:0,0:0:0:0:
265,134,63741,2,0,P|271:175|267:218,1,85
147,249,64086,2,0,P|140:290|144:333,1,85,8|0,0:0|0:0,0:0:0:0:
28,242,64431,6,0,P|28:146|41:64,1,170,0|8,0:0|0:0,0:0:0:0:
184,177,64948,2,0,P|107:208|46:140,1,170
182,90,65466,2,0,L|277:98,1,85,8|0,0:0|0:0,0:0:0:0:
383,143,65810,6,0,L|467:135,2,85,0|0|8,0:0|0:0|0:0,0:0:0:0:
290,245,66328,1,0,0:0:0:0:
189,164,66500,2,0,P|179:117|192:69,1,85
325,81,66845,2,0,P|332:122|323:164,1,85,8|0,0:0|0:0,0:0:0:0:
202,239,67190,6,0,L|152:252,3,42.5,12|0|0|0,0:0|0:0|0:0|0:0,0:0:0:0:
227,309,67535,2,0,L|185:319,3,42.5,2|0|0|0,0:0|0:0|0:0|0:0,0:0:0:0:
303,313,67879,5,8,0:0:0:0:
331,320,67965,1,0,0:0:0:0:
360,317,68051,1,0,0:0:0:0:
387,304,68137,1,0,0:0:0:0:
406,281,68224,1,2,0:0:0:0:
413,252,68310,1,0,0:0:0:0:
416,223,68396,1,0,0:0:0:0:
416,193,68482,1,0,0:0:0:0:
411,163,68569,6,0,P|407:110|412:67,1,85,4|0,0:0|0:0,0:0:0:0:
318,228,68914,2,0,P|314:280|319:323,1,85,8|0,0:0|0:0,0:0:0:0:
228,156,69259,2,0,P|224:103|229:60,1,85
135,221,69604,2,0,P|131:273|136:316,1,85,8|0,0:0|0:0,0:0:0:0:
82,111,69948,6,0,P|35:102|-13:116,1,85
106,239,70293,2,0,P|153:248|201:234,1,85,8|0,0:0|0:0,0:0:0:0:
284,105,70638,2,0,P|237:96|189:110,1,85
308,233,70983,2,0,P|355:242|403:228,1,85,8|0,0:0|0:0,0:0:0:0:
350,99,71328,5,0,0:0:0:0:
207,163,71501,1,0,0:0:0:0:
310,202,71673,1,8,0:0:0:0:
247,59,71845,1,0,0:0:0:0:
207,163,72017,5,0,0:0:0:0:
310,202,72189,1,0,0:0:0:0:
350,99,72362,1,8,0:0:0:0:
247,59,72534,1,0,0:0:0:0:
148,110,72707,6,0,P|130:161|153:220,1,85,8|0,0:0|0:0,0:0:0:0:
279,119,73052,2,0,P|282:77|266:38,1,85,8|0,0:0|0:0,0:0:0:0:
256,235,73397,2,0,P|297:238|336:222,1,85,8|0,0:0|0:0,0:0:0:0:
138,202,73741,1,8,0:0:0:0:
133,222,73827,1,0,0:0:0:0:
134,243,73913,1,0,0:0:0:0:
140,264,73999,1,0,0:0:0:0:
150,282,74086,6,0,B|200:280|230:300|230:300|261:280|316:283,1,170,4|8,0:0|0:0,0:0:0:0:
423,303,74603,1,0,0:0:0:0:
423,303,74776,2,0,P|434:245|420:208,1,85
340,152,75121,2,0,P|329:94|343:57,1,85,8|0,0:0|0:0,0:0:0:0:
434,157,75466,6,0,P|412:215|305:241,1,170,0|8,0:0|0:0,0:0:0:0:
216,167,75983,1,0,0:0:0:0:
216,167,76155,2,0,L|123:171,1,85
330,214,76500,2,0,L|423:210,1,85,8|0,0:0|0:0,0:0:0:0:
206,260,76845,6,0,B|156:274|149:321|149:321|183:355|235:339,1,170,0|8,0:0|0:0,0:0:0:0:
322,213,77362,1,0,0:0:0:0:
322,213,77535,2,0,P|331:172|317:132,1,85
214,222,77879,2,0,P|204:262|218:302,1,85,8|0,0:0|0:0,0:0:0:0:
150,146,78224,6,0,P|103:143|60:149,1,85,12|0,0:0|0:0,0:0:0:0:
41,178,78483,1,0,0:0:0:0:
41,178,78569,2,0,L|34:222,1,42.5,2|0,0:0|0:0,0:0:0:0:
105,259,78741,2,0,L|110:308,1,42.5
193,307,78914,5,8,0:0:0:0:
221,315,79000,1,0,0:0:0:0:
250,319,79086,1,0,0:0:0:0:
280,319,79172,1,0,0:0:0:0:
310,316,79258,1,2,0:0:0:0:
340,312,79345,1,0,0:0:0:0:
369,312,79431,1,0,0:0:0:0:
399,317,79517,1,0,0:0:0:0:
427,325,79603,6,0,L|425:258,3,53.125,12|0|0|0,0:0|0:0|0:0|0:0,0:0:0:0:
345,245,79948,2,0,L|347:178,3,53.125
431,175,80293,2,0,L|429:108,3,53.125,8|0|0|0,0:0|0:0|0:0|0:0,0:0:0:0:
349,95,80638,2,0,L|351:28,3,53.125
259,93,80983,5,8,0:0:0:0:
233,99,81069,1,0,0:0:0:0:
207,103,81155,1,0,0:0:0:0:
180,106,81241,1,0,0:0:0:0:
154,108,81327,1,0,0:0:0:0:
127,108,81414,1,0,0:0:0:0:
101,106,81500,1,0,0:0:0:0:
74,103,81586,1,0,0:0:0:0:
48,98,81672,2,0,L|41:167,7,53.125,8|0|0|0|0|0|0|0,0:0|0:0|0:0|0:0|0:0|0:0|0:0|0:0,0:0:0:0:
119,165,82362,6,0,L|120:233,1,53.125,8|0,0:0|0:0,0:0:0:0:
194,184,82535,2,0,L|205:251,1,53.125
270,191,82707,2,0,L|290:256,1,53.125
347,189,82880,2,0,L|376:250,1,53.125
301,116,83052,6,0,L|251:68,1,53.125
234,155,83225,2,0,L|178:115,1,53.125
175,204,83397,2,0,L|114:172,1,53.125
122,260,83570,2,0,L|57:237,1,53.125
170,330,83741,5,12,0:0:0:0:
206,336,83827,1,0,0:0:0:0:
243,337,83913,1,0,0:0:0:0:
280,333,83999,1,0,0:0:0:0:
316,323,84086,2,0,L|316:255,3,53.125
267,213,84431,5,8,0:0:0:0:
230,219,84517,1,0,0:0:0:0:
193,220,84603,1,0,0:0:0:0:
156,216,84689,1,0,0:0:0:0:
120,206,84776,2,0,L|120:137,3,53.125
160,85,85121,6,0,B|256:52|256:52|358:83,1,203.999993774414,4|8,0:0|0:0,0:0:0:0:
266,200,85638,1,0,0:0:0:0:
266,200,85810,2,0,P|198:211|159:196,1,101.999996887207
270,68,86155,2,0,P|337:56|376:71,1,101.999996887207,8|0,0:0|0:0,0:0:0:0:
428,186,86500,6,0,P|423:243|341:184,1,203.999993774414,0|8,0:0|0:0,0:0:0:0:
235,277,87017,1,0,0:0:0:0:
235,277,87190,2,0,L|128:282,1,101.999996887207
193,129,87535,2,0,L|294:133,1,101.999996887207,8|0,0:0|0:0,0:0:0:0:
119,172,87879,6,0,B|91:123|117:78|117:78|116:51|97:33|97:33|124:43|159:35,1,203.999993774414,0|8,0:0|0:0,0:0:0:0:
270,48,88397,1,0,0:0:0:0:
270,48,88569,2,0,P|372:38|395:44,1,101.999996887207
199,143,88914,2,0,P|148:144|98:132,1,101.999996887207,8|0,0:0|0:0,0:0:0:0:
347,157,89259,6,0,L|376:257,1,101.999996887207,8|0,0:0|0:0,0:0:0:0:
256,220,89603,2,0,L|256:328,1,101.999996887207,8|0,0:0|0:0,0:0:0:0:
165,157,89948,2,0,L|136:257,1,101.999996887207,8|0,0:0|0:0,0:0:0:0:
208,80,90293,1,8,0:0:0:0:
228,65,90379,1,0,0:0:0:0:
253,60,90465,1,0,0:0:0:0:
278,65,90551,1,0,0:0:0:0:
298,80,90638,6,0,B|287:151|287:151|301:217|301:217|288:284,1,203.999993774414,4|8,0:0|0:0,0:0:0:0:
173,220,91155,1,0,0:0:0:0:
173,220,91328,2,0,P|116:213|71:222,1,101.999996887207
296,288,91672,2,0,P|353:295|398:286,1,101.999996887207,8|0,0:0|0:0,0:0:0:0:
185,205,92017,6,0,B|131:190|82:202|82:202|125:157|123:106,1,203.999993774414,0|8,0:0|0:0,0:0:0:0:
139,291,92535,1,0,0:0:0:0:
139,291,92707,2,0,P|196:302|247:288,1,101.999996887207
184,129,93052,2,0,P|127:118|76:132,1,101.999996887207,8|0,0:0|0:0,0:0:0:0:
252,212,93397,6,0,B|281:215|307:205|307:205|336:215|361:207|361:207|383:221|406:220|406:220|426:208|450:206,1,203.999993774414,0|8,0:0|0:0,0:0:0:0:
395,80,93914,1,0,0:0:0:0:
302,206,94086,2,0,B|248:218|248:218|190:211,1,101.999996887207
351,92,94431,2,0,B|405:80|405:80|463:87,1,101.999996887207,8|0,0:0|0:0,0:0:0:0:
238,132,94776,6,0,B|188:137|188:137|137:125,1,101.999996887207,12|0,0:0|0:0,0:0:0:0:
121,108,95035,1,0,0:0:0:0:
121,108,95121,2,0,L|65:106,1,50.9999984436036,2|0,0:0|0:0,0:0:0:0:
88,184,95293,2,0,L|32:182,1,50.9999984436036
136,252,95466,6,0,L|134:308,1,50.9999984436036,8|0,0:0|0:0,0:0:0:0:
212,285,95638,2,0,L|210:341,1,50.9999984436036
287,254,95810,2,0,L|285:198,1,50.9999984436036,2|0,0:0|0:0,0:0:0:0:
363,221,95982,2,0,L|361:165,1,50.9999984436036
418,284,96155,6,0,B|428:331|428:331|465:275|448:213,1,170,12|8,0:0|0:0,0:0:0:0:
383,124,96672,1,0,0:0:0:0:
383,124,96845,2,0,P|377:72|384:29,1,85,8|0,0:0|0:0,0:0:0:0:
274,159,97190,2,0,P|280:211|273:254,1,85,8|0,0:0|0:0,0:0:0:0:
135,147,97535,6,0,L|146:52,1,85,8|0,0:0|0:0,0:0:0:0:
286,178,97879,2,0,L|295:262,1,85,8|0,0:0|0:0,0:0:0:0:
148,236,98224,2,0,L|53:225,1,85,8|0,0:0|0:0,0:0:0:0:
250,107,98569,2,0,L|345:96,1,85,8|0,0:0|0:0,0:0:0:0:
295,262,98914,6,0,P|245:282|118:262,1,170,8|8,0:0|0:0,0:0:0:0:
70,160,99431,1,0,0:0:0:0:
70,160,99603,2,0,L|65:71,1,85,8|0,0:0|0:0,0:0:0:0:
188,140,99948,2,0,L|198:51,1,85,8|0,0:0|0:0,0:0:0:0:
296,158,100293,6,0,P|309:111|335:79,1,85,8|0,0:0|0:0,0:0:0:0:
380,208,100638,2,0,P|366:254|341:287,1,85,8|0,0:0|0:0,0:0:0:0:
167,283,100983,2,0,P|142:248|132:208,1,85,8|0,0:0|0:0,0:0:0:0:
180,82,101328,2,0,P|205:117|216:158,1,85,8|0,0:0|0:0,0:0:0:0:
93,281,101672,6,0,B|80:159|80:159|94:102,1,170,8|8,0:0|0:0,0:0:0:0:
213,180,102190,1,0,0:0:0:0:
213,180,102362,2,0,P|260:192|307:178,1,85,8|0,0:0|0:0,0:0:0:0:
130,242,102707,2,0,P|83:230|36:244,1,85,8|0,0:0|0:0,0:0:0:0:
211,311,103052,6,0,P|258:323|305:309,1,85,8|0,0:0|0:0,0:0:0:0:
375,237,103397,2,0,P|387:190|373:143,1,85,8|0,0:0|0:0,0:0:0:0:
301,73,103741,2,0,P|254:61|207:75,1,85,8|0,0:0|0:0,0:0:0:0:
137,147,104086,2,0,P|125:194|139:241,1,85,8|0,0:0|0:0,0:0:0:0:
233,289,104431,6,0,L|290:287,3,50.9999984436036
330,219,104776,2,0,L|387:217,3,50.9999984436036
257,177,105121,2,0,L|206:178,3,50.9999984436036
303,108,105465,2,0,L|354:107,3,50.9999984436036
222,71,105810,6,0,L|105:69,1,101.999996887207,12|0,0:0|0:0,0:0:0:0:
85,84,106069,1,0,0:0:0:0:
85,84,106155,2,0,L|27:82,1,50.9999984436036,2|0,0:0|0:0,0:0:0:0:
60,161,106328,2,0,L|2:159,1,50.9999984436036
36,240,106500,5,8,0:0:0:0:
27,274,106586,1,0,0:0:0:0:
34,309,106672,1,0,0:0:0:0:
53,338,106758,1,0,0:0:0:0:
83,358,106844,1,2,0:0:0:0:
118,364,106931,1,0,0:0:0:0:
152,355,107017,1,0,0:0:0:0:
181,334,107103,1,0,0:0:0:0:
198,303,107190,6,0,L|203:194,1,101.999996887207,4|0,0:0|0:0,0:0:0:0:
88,69,107535,2,0,P|77:118|85:168,1,101.999996887207,8|0,0:0|0:0,0:0:0:0:
317,174,107879,2,0,P|324:123|314:74,2,101.999996887207,0|0|8,0:0|0:0|0:0,0:0:0:0:
172,229,108397,1,0,0:0:0:0:
304,298,108569,6,0,P|364:308|410:301,1,101.999996887207
196,222,108914,2,0,P|136:212|90:219,1,101.999996887207,8|0,0:0|0:0,0:0:0:0:
320,166,109259,2,0,L|425:156,2,101.999996887207,0|0|8,0:0|0:0|0:0,0:0:0:0:
187,98,109776,1,0,0:0:0:0:
112,188,109948,6,0,P|63:212|12:219,1,101.999996887207
187,254,110293,2,0,P|169:305|138:346,1,101.999996887207,8|0,0:0|0:0,0:0:0:0:
291,243,110638,2,0,P|315:292|322:343,2,101.999996887207,0|0|8,0:0|0:0|0:0,0:0:0:0:
242,136,111155,1,0,0:0:0:0:
370,155,111328,6,0,L|483:150,1,101.999996887207
288,54,111672,2,0,L|175:49,1,101.999996887207,8|0,0:0|0:0,0:0:0:0:
154,163,112017,6,0,L|141:216,3,50.9999984436036,12|0|0|0,0:0|0:0|0:0|0:0,0:0:0:0:
223,210,112362,2,0,L|225:264,3,50.9999984436036,8|0|0|0,0:0|0:0|0:0|0:0,0:0:0:0:
304,205,112707,6,0,P|366:193|418:198,1,101.999996887207,4|0,0:0|0:0,0:0:0:0:
196,205,113052,2,0,P|134:193|82:198,1,101.999996887207,8|0,0:0|0:0,0:0:0:0:
248,271,113397,2,0,L|248:372,2,101.999996887207,0|0|8,0:0|0:0|0:0,0:0:0:0:
246,100,113914,1,0,0:0:0:0:
192,193,114086,6,0,P|130:205|78:200,1,101.999996887207
300,193,114431,2,0,P|362:205|414:200,1,101.999996887207,8|0,0:0|0:0,0:0:0:0:
210,106,114776,2,0,P|203:49|219:5,2,101.999996887207,0|0|8,0:0|0:0|0:0,0:0:0:0:
279,209,115293,1,0,0:0:0:0:
168,256,115466,6,0,P|116:257|66:254,1,101.999996887207
302,203,115810,2,0,P|354:202|404:205,1,101.999996887207,8|0,0:0|0:0,0:0:0:0:
163,143,116155,2,0,P|111:144|61:141,2,101.999996887207,0|0|8,0:0|0:0|0:0,0:0:0:0:
291,80,116672,1,0,0:0:0:0:
404,153,116845,6,0,P|415:207|401:261,1,101.999996887207,12|0,0:0|0:0,0:0:0:0:
378,271,117103,1,0,0:0:0:0:
378,271,117190,2,0,L|321:277,3,50.9999984436036,2|0|0|0,0:0|0:0|0:0|0:0,0:0:0:0:
255,251,117535,5,8,0:0:0:0:
233,237,117621,1,0,0:0:0:0:
209,228,117707,1,0,0:0:0:0:
184,225,117793,1,0,0:0:0:0:
158,227,117879,1,2,0:0:0:0:
134,235,117966,1,0,0:0:0:0:
112,248,118052,1,0,0:0:0:0:
93,265,118138,1,0,0:0:0:0:
79,286,118224,6,0,L|74:183,1,101.999996887207,4|0,0:0|0:0,0:0:0:0:
188,131,118569,2,0,L|193:27,1,101.999996887207,8|0,0:0|0:0,0:0:0:0:
264,216,118914,2,0,P|221:244|159:245,1,101.999996887207
256,87,119259,2,0,P|305:77|353:92,1,101.999996887207,8|0,0:0|0:0,0:0:0:0:
211,246,119603,6,0,P|160:256|102:235,1,101.999996887207
228,123,119948,2,0,P|278:112|336:133,1,101.999996887207,8|0,0:0|0:0,0:0:0:0:
135,162,120293,2,0,P|124:111|145:53,1,101.999996887207
288,206,120638,2,0,P|298:256|277:314,1,101.999996887207,8|0,0:0|0:0,0:0:0:0:
161,184,120983,6,0,P|162:127|172:79,1,101.999996887207
285,127,121328,2,0,P|326:87|367:60,1,101.999996887207,8|0,0:0|0:0,0:0:0:0:
379,183,121672,2,0,P|436:184|484:194,1,101.999996887207
405,290,122017,2,0,P|444:331|471:372,1,101.999996887207,8|0,0:0|0:0,0:0:0:0:
301,328,122362,6,0,B|245:331|245:331|197:319,1,101.999996887207
289,201,122707,2,0,B|345:198|345:198|393:210,1,101.999996887207,8|0,0:0|0:0,0:0:0:0:
176,218,123052,5,12,0:0:0:0:
163,195,123138,1,0,0:0:0:0:
157,171,123224,1,0,0:0:0:0:
156,145,123310,1,0,0:0:0:0:
161,120,123396,1,8,0:0:0:0:
171,97,123483,1,0,0:0:0:0:
187,77,123569,1,0,0:0:0:0:
206,61,123655,1,0,0:0:0:0:
229,50,123741,6,0,L|341:57,1,101.999996887207,4|0,0:0|0:0,0:0:0:0:
109,97,124086,2,0,L|-3:104,1,101.999996887207,8|0,0:0|0:0,0:0:0:0:
239,142,124431,2,0,L|351:149,1,101.999996887207
119,189,124776,2,0,L|7:196,1,101.999996887207,8|0,0:0|0:0,0:0:0:0:
237,245,125121,6,0,P|248:306|230:348,1,101.999996887207
349,198,125466,2,0,P|338:137|356:95,1,101.999996887207,8|0,0:0|0:0,0:0:0:0:
247,163,125810,2,0,P|186:174|144:156,1,101.999996887207
337,280,126155,2,0,P|398:269|440:287,1,101.999996887207,8|0,0:0|0:0,0:0:0:0:
218,264,126500,6,0,P|163:272|96:267,1,101.999996887207
288,154,126845,2,0,P|338:152|389:160,1,101.999996887207,8|0,0:0|0:0,0:0:0:0:
167,166,127190,2,0,L|161:58,1,101.999996887207
316,250,127535,2,0,L|310:358,1,101.999996887207,8|0,0:0|0:0,0:0:0:0:
279,151,127879,6,0,L|288:97,3,50.9999984436036,12|0|0|0,0:0|0:0|0:0|0:0,0:0:0:0:
365,166,128224,2,0,L|409:134,3,50.9999984436036,2|0|0|0,0:0|0:0|0:0|0:0,0:0:0:0:
425,225,128569,5,8,0:0:0:0:
417,249,128655,1,0,0:0:0:0:
410,273,128741,1,0,0:0:0:0:
402,298,128827,1,0,0:0:0:0:
394,320,128913,1,2,0:0:0:0:
368,319,129000,1,0,0:0:0:0:
343,318,129086,1,0,0:0:0:0:
317,316,129172,1,0,0:0:0:0:
292,315,129259,6,0,P|230:313|181:317,1,101.999996887207,4|0,0:0|0:0,0:0:0:0:
313,203,129603,2,0,P|375:205|424:201,1,101.999996887207,8|0,0:0|0:0,0:0:0:0:
183,179,129948,2,0,P|120:176|71:180,1,101.999996887207
203,66,130294,2,0,P|266:69|315:65,1,101.999996887207,8|0,0:0|0:0,0:0:0:0:
183,151,130638,6,0,P|171:203|182:260,1,101.999996887207
329,233,130983,2,0,P|341:181|330:124,1,101.999996887207,8|0,0:0|0:0,0:0:0:0:
177,162,131328,2,0,P|173:216|193:270,1,101.999996887207
334,221,131673,2,0,P|338:167|318:113,1,101.999996887207,8|0,0:0|0:0,0:0:0:0:
189,69,132017,6,0,L|79:61,1,101.999996887207
323,122,132362,2,0,L|433:114,1,101.999996887207,8|0,0:0|0:0,0:0:0:0:
187,175,132707,2,0,L|77:167,1,101.999996887207
321,228,133052,2,0,L|431:220,1,101.999996887207,8|0,0:0|0:0,0:0:0:0:
307,326,133397,5,8,0:0:0:0:
173,229,133569,1,0,0:0:0:0:
339,229,133742,1,8,0:0:0:0:
205,326,133914,1,0,0:0:0:0:
256,169,134086,1,8,0:0:0:0:
256,156,134172,1,0,0:0:0:0:
256,143,134258,1,0,0:0:0:0:
256,130,134344,1,0,0:0:0:0:
256,118,134430,1,8,0:0:0:0:
256,105,134517,1,0,0:0:0:0:
256,92,134603,1,0,0:0:0:0:
256,79,134689,1,0,0:0:0:0:
256,67,134776,6,0,P|321:50|430:155,1,220.999989883423,4|8,0:0|0:0,0:0:0:0:
233,245,135293,1,0,0:0:0:0:
233,245,135466,2,0,P|218:181|231:132,1,110.499994941712
379,217,135810,2,0,P|388:270|373:323,1,110.499994941712,8|0,0:0|0:0,0:0:0:0:
210,238,136155,6,0,B|183:157|223:84|223:84|192:111|139:103,1,220.999989883423,0|8,0:0|0:0,0:0:0:0:
335,99,136672,1,0,0:0:0:0:
335,99,136845,2,0,B|389:93|389:93|460:108,1,110.499994941712
278,196,137190,2,0,B|223:201|223:201|152:186,1,110.499994941712,8|0,0:0|0:0,0:0:0:0:
409,207,137535,6,0,P|464:230|374:295,1,220.999989883423,0|8,0:0|0:0,0:0:0:0:
295,157,138052,1,0,0:0:0:0:
295,157,138224,2,0,L|313:39,1,110.499994941712
203,246,138569,2,0,L|185:128,1,110.499994941712,8|0,0:0|0:0,0:0:0:0:
320,275,138914,6,0,L|383:284,3,55.2499974708558,12|0|0|0,0:0|0:0|0:0|0:0,0:0:0:0:
367,202,139259,2,0,L|428:186,3,55.2499974708558,2|0|0|0,0:0|0:0|0:0|0:0,0:0:0:0:
383,117,139603,2,0,L|434:79,3,55.2499974708558,8|0|0|0,0:0|0:0|0:0|0:0,0:0:0:0:
308,130,139948,5,2,0:0:0:0:
270,138,140034,1,0,0:0:0:0:
231,141,140120,1,0,0:0:0:0:
193,138,140206,1,0,0:0:0:0:
155,130,140293,6,0,B|85:107|85:107|32:171|73:257,1,220.999989883423,4|8,0:0|0:0,0:0:0:0:
235,203,140810,1,0,0:0:0:0:
235,203,140983,2,0,P|237:129|232:83,1,110.499994941712
361,251,141328,2,0,P|359:325|364:371,1,110.499994941712,8|0,0:0|0:0,0:0:0:0:
449,137,141672,6,0,B|455:95|445:59|445:59|401:73|370:64|370:64|335:56|300:67,1,220.999989883423,0|8,0:0|0:0,0:0:0:0:
192,120,142190,1,0,0:0:0:0:
192,120,142362,2,0,P|133:106|73:112,1,110.499994941712
295,243,142707,2,0,P|354:257|414:251,1,110.499994941712,8|0,0:0|0:0,0:0:0:0:
148,195,143052,6,0,B|78:193|53:239|53:239|72:292|146:296,1,220.999989883423,0|8,0:0|0:0,0:0:0:0:
313,285,143569,1,0,0:0:0:0:
313,285,143741,2,0,L|428:277,1,110.499994941712
202,157,144086,2,0,L|87:165,1,110.499994941712,8|0,0:0|0:0,0:0:0:0:
319,182,144431,5,12,0:0:0:0:
337,148,144517,1,0,0:0:0:0:
341,110,144603,1,0,0:0:0:0:
327,74,144689,1,0,0:0:0:0:
300,47,144775,1,2,0:0:0:0:
264,33,144862,1,0,0:0:0:0:
226,37,144948,1,0,0:0:0:0:
193,56,145034,1,0,0:0:0:0:
171,87,145121,6,0,L|110:93,1,55.2499974708558,8|0,0:0|0:0,0:0:0:0:
230,153,145293,2,0,L|291:158,1,55.2499974708558
140,189,145466,2,0,L|78:194,1,55.2499974708558
198,254,145638,2,0,L|259:259,1,55.2499974708558
256,192,151328,5,6,0:0:0:0:
256,192,151414,12,0,158224,0:0:0:0:
