osu file format v14

[General]
AudioFilename: New Ways.mp3
AudioLeadIn: 0
PreviewTime: 118491
Countdown: 0
SampleSet: Soft
StackLeniency: 0.7
Mode: 0
LetterboxInBreaks: 0
EpilepsyWarning: 1
WidescreenStoryboard: 1

[Editor]
Bookmarks: 9758,24533,26644,272022,322153
DistanceSpacing: 2
BeatDivisor: 4
GridSize: 8
TimelineZoom: 2.699999

[Metadata]
Title:New Ways
TitleUnicode:New Ways
Artist:Daughter
ArtistUnicode:Daughter
Creator:sheela
Version:Hard
Source:
Tags:Not To Disappear alternative pop rock sheela901
BeatmapID:882046
BeatmapSetID:405840

[Difficulty]
HPDrainRate:6.4
CircleSize:4.5
OverallDifficulty:6.5
ApproachRate:7.5
SliderMultiplier:1.1
SliderTickRate:1

[Events]
//Background and Video events
0,0,"BG.jpg",0,0
//Break Periods
//Storyboard Layer 0 (Background)
//Storyboard Layer 1 (Fail)
//Storyboard Layer 2 (Pass)
//Storyboard Layer 3 (Foreground)
//Storyboard Sound Samples

[TimingPoints]
1337,527.704485488127,4,2,1,10,1,0
11891,-100,4,2,1,5,0,0
12946,-100,4,2,1,10,0,0
16112,-100,4,2,1,5,0,0
17167,-100,4,2,1,10,0,0
17168,-100,4,2,1,10,0,0
24555,-100,4,2,1,5,0,0
26139,-100,4,2,1,5,0,0
26402,-100,4,2,3,5,0,0
26666,-100,4,2,1,20,0,0
29305,-100,4,2,1,5,0,0
29833,-100,4,2,1,20,0,0
31811,-100,4,2,1,10,0,0
31943,-100,4,2,1,20,0,0
37748,-100,4,2,1,10,0,0
38276,-100,4,2,1,20,0,0
42365,-100,4,2,1,5,0,0
42497,-100,4,2,1,20,0,0
58592,-100,4,2,1,5,0,0
58856,-100,4,2,1,20,0,0
59251,-100,4,2,1,5,0,0
59383,-100,4,2,1,20,0,0
69805,-100,4,2,1,5,0,0
69937,-100,4,2,1,20,0,0
71257,-100,4,2,1,10,0,0
71916,-100,4,2,1,5,0,0
72048,-100,4,2,1,20,0,0
75214,-100,4,2,1,15,0,0
75215,-100,4,2,1,15,0,0
77325,-100,4,2,1,20,0,0
77326,-100,4,2,1,20,0,0
92366,-100,4,2,1,5,0,0
92629,-100,4,2,1,20,0,0
93024,-100,4,2,1,5,0,0
93155,-100,4,2,1,20,0,0
109910,-100,4,2,1,5,0,0
110042,-100,4,2,1,20,0,0
115319,-100,4,2,1,30,0,0
115321,-100,4,2,1,30,0,0
119540,-100,4,2,4,40,0,0
119542,-90.9090909090909,4,2,4,40,0,0
120862,-90.9090909090909,4,2,1,30,0,0
122709,-90.9090909090909,4,2,4,40,0,0
122972,-90.9090909090909,4,2,1,40,0,0
124819,-90.9090909090909,4,2,4,40,0,0
125083,-90.9090909090909,4,2,1,40,0,0
126930,-90.9090909090909,4,2,4,40,0,0
130096,-90.9090909090909,4,2,1,40,0,0
131152,-90.9090909090909,4,2,4,40,0,0
131284,-90.9090909090909,4,2,1,40,0,0
133263,-90.9090909090909,4,2,4,40,0,0
133395,-90.9090909090909,4,2,1,40,0,0
135373,-90.9090909090909,4,2,4,40,0,0
135505,-90.9090909090909,4,2,1,40,0,0
137484,-90.9090909090909,4,2,4,40,0,0
137616,-90.9090909090909,4,2,1,40,0,0
139595,-90.9090909090909,4,2,4,40,0,0
139859,-90.9090909090909,4,2,1,40,0,0
141706,-90.9090909090909,4,2,4,40,0,0
141838,-90.9090909090909,4,2,1,40,0,0
143817,-90.9090909090909,4,2,4,40,0,0
144081,-90.9090909090909,4,2,1,40,0,0
145928,-90.9090909090909,4,2,4,40,0,0
146191,-90.9090909090909,4,2,1,40,0,0
148038,-90.9090909090909,4,2,4,40,0,0
148170,-90.9090909090909,4,2,1,40,0,0
150149,-90.9090909090909,4,2,4,40,0,0
150281,-90.9090909090909,4,2,1,40,0,0
152260,-90.9090909090909,4,2,4,40,0,0
156479,-90.9090909090909,4,2,1,30,0,0
156482,-100,4,2,1,30,0,0
168616,-100,4,2,1,20,0,0
168619,-100,4,2,1,20,0,0
169144,-100,4,2,1,30,0,0
169147,-100,4,2,1,30,0,0
170067,-100,4,2,1,5,0,0
170070,-100,4,2,1,5,0,0
170199,-100,4,2,2,20,0,0
170202,-100,4,2,2,20,0,0
178510,-100,4,2,2,5,0,0
178513,-100,4,2,2,5,0,0
178642,-100,4,2,2,20,0,0
178645,-100,4,2,2,20,0,0
186957,-100,4,2,2,5,0,0
187088,-100,4,2,1,30,0,0
203447,-200,4,2,1,20,0,0
203843,-200,4,2,1,5,0,0
203975,-90.9090909090909,4,2,2,40,0,1
211891,-105.263157894737,4,2,2,40,0,1
212289,-105.263157894737,4,2,2,5,0,1
212418,-90.9090909090909,4,2,2,40,0,1
220334,-105.263157894737,4,2,2,40,0,1
220862,-90.9090909090909,4,2,2,40,0,1
228777,-105.263157894737,4,2,2,40,0,1
229305,-90.9090909090909,4,2,2,40,0,1
237220,-105.263157894737,4,2,2,40,0,1
237748,-90.9090909090909,4,2,2,80,0,1
237880,-90.9090909090909,4,2,2,40,0,1
245664,-105.263157894737,4,2,2,40,0,1
246191,-90.9090909090909,4,2,2,40,0,1
254635,-90.9090909090909,4,2,2,80,0,1
254767,-90.9090909090909,4,2,2,40,0,1
262550,-105.263157894737,4,2,2,40,0,1
262946,-105.263157894737,4,2,2,5,0,1
263078,-90.9090909090909,4,2,2,40,0,1
270993,-105.263157894737,4,2,2,40,0,0
271521,-90.9090909090909,4,2,2,80,0,1
271653,-90.9090909090909,4,2,2,40,0,1
279437,-105.263157894737,4,2,2,40,0,1
279964,-90.9090909090909,4,2,2,40,0,1
287880,-105.263157894737,4,2,2,40,0,1
288408,-90.9090909090909,4,2,2,40,0,1
296323,-105.263157894737,4,2,2,40,0,1
296851,-90.9090909090909,4,2,2,40,0,1
304767,-105.263157894737,4,2,2,40,0,1
305294,-90.9090909090909,4,2,2,40,0,1
313210,-105.263157894737,4,2,2,40,0,1
313738,-100,4,2,1,20,0,0

[Colours]
Combo1 : 158,139,160
Combo2 : 149,142,125
Combo3 : 190,169,176
Combo4 : 173,194,211
Combo5 : 128,161,186
Combo6 : 154,111,206
Combo7 : 121,196,138
Combo8 : 143,134,196

[HitObjects]
238,102,9780,6,0,B|211:100|179:100|176:97,3,55,2|2|2|2,0:0|0:0|0:0|0:0,0:0:0:0:
105,59,10835,5,8,0:0:0:0:
65,133,11099,1,8,0:0:0:0:
115,185,11363,1,8,0:0:0:0:
106,232,11627,1,8,0:0:0:0:
103,263,11891,2,0,P|98:286|96:319,3,55,8|8|8|8,0:0|0:0|0:0|0:0,0:0:0:0:
177,361,12946,5,8,0:0:0:0:
271,341,13210,1,8,0:0:0:0:
205,272,13474,1,8,0:0:0:0:
299,257,13738,1,2,0:0:0:0:
393,242,14001,6,0,L|398:176,3,55,2|2|2|2,0:0|0:0|0:0|0:0,0:0:0:0:
405,94,15057,5,8,0:0:0:0:
330,51,15321,1,8,0:0:0:0:
299,134,15585,1,8,0:0:0:0:
253,117,15848,1,8,0:0:0:0:
221,108,16112,2,0,P|176:111|160:116,3,55,8|8|8|8,0:0|0:0|0:0|0:0,0:0:0:0:
126,178,17168,5,8,0:0:0:0:
78,291,17431,1,8,0:0:0:0:
157,256,17695,1,8,0:0:0:0:
51,211,17959,1,2,0:0:0:0:
126,178,18223,6,0,B|118:186|135:171|143:157|153:130,3,55,2|2|2|2,0:0|0:0|0:0|0:0,0:0:0:0:
161,39,19278,5,8,0:0:0:0:
251,79,19542,1,8,0:0:0:0:
308,152,19806,1,8,0:0:0:0:
328,195,20070,1,8,0:0:0:0:
333,230,20334,2,0,P|332:269|328:294,1,55,8|2,0:0|0:0,0:0:0:0:
258,337,20862,2,0,L|196:337,1,55,2|2,0:0|0:0,0:0:0:0:
87,290,21389,5,8,0:0:0:0:
163,217,21653,1,8,0:0:0:0:
100,165,21917,1,8,0:0:0:0:
114,122,22181,1,8,0:0:0:0:
124,67,22445,6,0,L|178:75,3,55,2|2|2|2,0:0|0:0|0:0|0:0,0:0:0:0:
272,98,23500,5,8,0:0:0:0:
243,203,23764,1,8,0:0:0:0:
334,148,24028,1,8,0:0:0:0:
337,254,24292,1,8,0:0:0:0:
256,192,24555,12,0,26139,0:0:0:0:
220,335,26666,102,0,L|209:273,1,55,2|2,0:0|0:0,0:0:0:0:
145,213,27194,2,0,L|120:339,1,110,2|8,0:0|0:0,0:0:0:0:
59,252,27986,1,8,0:0:0:0:
34,161,28249,2,0,P|61:157|87:165,1,55,8|0,0:0|0:0,0:0:0:0:
182,216,28777,6,0,P|158:262|179:328,1,110,0|0,0:0|0:0,0:0:0:0:
294,157,29833,2,0,P|255:140|228:142,1,55,8|0,0:0|0:0,0:0:0:0:
170,80,30360,2,0,P|197:76|220:62,1,55,8|2,0:0|0:0,0:0:0:0:
90,38,30888,6,0,L|105:146,2,110,2|2|8,0:0|0:0|0:0,0:0:0:0:
14,94,32207,1,8,0:0:0:0:
35,184,32471,2,0,P|35:211|33:238,1,55,8|0,0:0|0:0,0:0:0:0:
97,318,32999,6,0,L|158:321,1,55,0|2,0:0|0:0,0:0:0:0:
230,269,33526,2,0,P|200:198|209:147,1,110,2|8,0:0|0:0,0:0:0:0:
259,92,34318,1,8,0:0:0:0:
339,138,34582,1,8,0:0:0:0:
339,138,34846,1,0,0:0:0:0:
379,222,35110,70,0,L|459:209,1,55,2|0,0:0|0:0,0:0:0:0:
479,294,35637,2,0,L|350:316,1,110,0|8,0:0|0:0,0:0:0:0:
279,290,36429,1,8,0:0:0:0:
296,198,36693,2,0,L|376:211,1,55,8|0,0:0|0:0,0:0:0:0:
221,231,37220,6,0,P|221:173|263:118,1,110,0|0,0:0|0:0,0:0:0:0:
344,257,38276,1,8,0:0:0:0:
315,173,38540,1,8,0:0:0:0:
252,235,38804,2,0,P|254:270|251:303,1,55,8|8,0:0|0:0,0:0:0:0:
162,221,39331,6,0,L|156:155,1,55,2|0,0:0|0:0,0:0:0:0:
83,107,39859,2,0,L|76:223,1,110,2|8,0:0|0:0,0:0:0:0:
74,310,40650,1,8,0:0:0:0:
138,377,40914,2,0,P|169:380|197:377,1,55,8|8,0:0|0:0,0:0:0:0:
270,325,41442,6,0,L|282:199,2,110,0|0|8,0:0|0:0|0:0,0:0:0:0:
356,288,42761,1,8,0:0:0:0:
414,361,43025,1,8,0:0:0:0:
479,294,43289,1,2,0:0:0:0:
417,223,43553,70,0,P|430:189|431:152,1,55,2|0,0:0|0:0,0:0:0:0:
382,90,44081,2,0,P|430:76|501:97,1,110,2|8,0:0|0:0,0:0:0:0:
432,170,44872,1,8,0:0:0:0:
316,130,45136,2,0,P|308:103|308:70,1,55,8|8,0:0|0:0,0:0:0:0:
218,25,45664,6,0,B|211:70|211:70|228:141,1,110,0|0,0:0|0:0,0:0:0:0:
79,197,46719,2,0,P|73:142|73:137,1,55,8|8,0:0|0:0,0:0:0:0:
159,93,47247,2,0,P|153:148|153:153,1,55,8|2,0:0|0:0,0:0:0:0:
250,171,47774,6,0,L|234:40,1,110,2|2,0:0|0:0,0:0:0:0:
384,176,48830,1,8,0:0:0:0:
313,238,49094,1,8,0:0:0:0:
366,314,49358,2,0,P|419:306|437:306,1,55,8|8,0:0|0:0,0:0:0:0:
493,238,49885,6,0,P|465:235|438:229,1,55,0|2,0:0|0:0,0:0:0:0:
384,152,50413,2,0,P|334:130|280:137,1,110,2|8,0:0|0:0,0:0:0:0:
199,185,51205,1,8,0:0:0:0:
235,270,51468,1,8,0:0:0:0:
141,263,51732,1,8,0:0:0:0:
101,178,51996,70,0,L|110:123,1,55,2|2,0:0|0:0,0:0:0:0:
201,102,52524,2,0,P|231:66|232:-6,1,110,2|8,0:0|0:0,0:0:0:0:
146,33,53315,1,8,0:0:0:0:
56,117,53579,2,0,P|88:124|129:119,1,55,8|8,0:0|0:0,0:0:0:0:
168,196,54107,6,0,L|157:305,2,110,0|0|8,0:0|0:0|0:0,0:0:0:0:
245,143,55426,1,8,0:0:0:0:
280,229,55690,1,8,0:0:0:0:
339,156,55954,1,8,0:0:0:0:
432,153,56218,6,0,P|414:128|409:101,1,55,2|0,0:0|0:0,0:0:0:0:
355,27,56745,2,0,P|345:59|332:79,1,55,2|0,0:0|0:0,0:0:0:0:
256,23,57273,1,8,0:0:0:0:
190,89,57537,1,8,0:0:0:0:
211,179,57801,2,0,P|240:179|287:176,1,55,8|8,0:0|0:0,0:0:0:0:
297,264,58329,6,0,P|243:283|181:262,1,110,0|0,0:0|0:0,0:0:0:0:
106,104,59384,1,8,0:0:0:0:
198,116,59648,1,8,0:0:0:0:
243,197,59912,1,8,0:0:0:0:
312,134,60176,1,2,0:0:0:0:
391,219,60439,70,0,L|329:216,1,55,2|0,0:0|0:0,0:0:0:0:
288,297,60967,2,0,L|342:294,1,55,0|0,0:0|0:0,0:0:0:0:
254,370,61495,1,8,0:0:0:0:
179,314,61759,1,8,0:0:0:0:
111,249,62023,2,0,P|102:215|103:187,1,55,8|8,0:0|0:0,0:0:0:0:
167,127,62550,6,0,L|55:118,1,110,0|0,0:0|0:0,0:0:0:0:
226,37,63606,1,8,0:0:0:0:
289,106,63869,1,8,0:0:0:0:
357,42,64133,1,8,0:0:0:0:
424,106,64397,1,2,0:0:0:0:
377,207,64661,6,0,P|347:212|312:205,1,55,2|0,0:0|0:0,0:0:0:0:
241,161,65189,2,0,L|242:107,1,55,2|0,0:0|0:0,0:0:0:0:
155,179,65716,1,8,0:0:0:0:
188,266,65980,1,8,0:0:0:0:
130,339,66244,2,0,L|63:345,1,55,8|8,0:0|0:0,0:0:0:0:
39,240,66772,6,0,L|118:251,1,55,0|2,0:0|0:0,0:0:0:0:
188,266,67300,2,0,L|267:277,1,55,2|2,0:0|0:0,0:0:0:0:
325,230,67827,1,8,0:0:0:0:
381,304,68091,1,8,0:0:0:0:
455,247,68355,2,0,P|449:203|448:184,1,55,8|8,0:0|0:0,0:0:0:0:
374,131,68883,70,0,P|333:135|268:86,1,110,2|0,0:0|0:0,0:0:0:0:
452,35,69938,1,8,0:0:0:0:
470,126,70202,1,8,0:0:0:0:
487,217,70466,2,0,L|483:277,1,55,8|8,0:0|0:0,0:0:0:0:
406,333,70993,6,0,P|396:289|405:209,1,110,0|0,0:0|0:0,0:0:0:0:
448,43,72049,1,8,0:0:0:0:
358,67,72313,1,8,0:0:0:0:
301,141,72577,1,8,0:0:0:0:
237,71,72840,1,8,0:0:0:0:
146,93,73104,6,0,P|150:42|145:21,1,55,2|0,0:0|0:0,0:0:0:0:
62,73,73632,2,0,P|60:100|65:127,1,55,2|0,0:0|0:0,0:0:0:0:
153,206,74160,1,8,0:0:0:0:
244,184,74424,1,8,0:0:0:0:
329,221,74687,1,8,0:0:0:0:
373,303,74951,1,8,0:0:0:0:
442,365,75215,2,0,P|459:316|458:289,3,55,0|0|0|0,0:0|0:0|0:0|0:0,0:0:0:0:
456,219,76271,5,8,0:0:0:0:
367,248,76534,1,8,0:0:0:0:
386,156,76798,1,8,0:0:0:0:
297,185,77062,1,2,0:0:0:0:
204,125,77326,54,0,L|218:65,1,55,2|0,0:0|0:0,0:0:0:0:
298,25,77854,2,0,P|334:38|420:30,1,110,2|8,0:0|0:0,0:0:0:0:
493,5,78645,1,8,0:0:0:0:
475,109,78909,2,0,P|425:112|397:111,1,55,8|8,0:0|0:0,0:0:0:0:
359,183,79437,6,0,L|374:295,1,110,0|0,0:0|0:0,0:0:0:0:
201,367,80492,1,8,0:0:0:0:
256,291,80756,1,8,0:0:0:0:
288,203,81020,1,8,0:0:0:0:
289,109,81284,1,2,0:0:0:0:
256,21,81548,6,0,P|218:12|196:10,1,55,2|0,0:0|0:0,0:0:0:0:
157,93,82075,2,0,P|184:89|210:82,1,55,2|0,0:0|0:0,0:0:0:0:
123,25,82603,1,8,0:0:0:0:
83,109,82867,1,8,0:0:0:0:
64,200,83131,2,0,P|57:237|56:257,1,55,8|8,0:0|0:0,0:0:0:0:
138,298,83658,6,0,L|127:239,1,55,0|2,0:0|0:0,0:0:0:0:
197,180,84186,1,2,0:0:0:0:
264,244,84450,1,2,0:0:0:0:
248,335,84714,1,8,0:0:0:0:
325,377,84978,1,8,0:0:0:0:
341,289,85242,2,0,P|389:295|408:306,1,55,8|8,0:0|0:0,0:0:0:0:
462,238,85769,70,0,L|475:364,1,110,2|2,0:0|0:0,0:0:0:0:
352,196,86825,1,8,0:0:0:0:
443,174,87088,1,8,0:0:0:0:
379,105,87352,2,0,P|349:101|317:101,1,55,8|0,0:0|0:0,0:0:0:0:
253,165,87880,6,0,P|233:125|234:59,1,110,0|0,0:0|0:0,0:0:0:0:
418,32,88935,1,8,0:0:0:0:
382,118,89199,1,8,0:0:0:0:
429,198,89463,1,8,0:0:0:0:
421,290,89727,1,8,0:0:0:0:
321,262,89991,6,0,L|323:318,1,55,2|0,0:0|0:0,0:0:0:0:
248,259,90519,2,0,L|250:315,1,55,2|0,0:0|0:0,0:0:0:0:
171,262,91046,1,8,0:0:0:0:
208,176,91310,1,8,0:0:0:0:
124,134,91574,2,0,P|89:136|65:142,1,55,8|8,0:0|0:0,0:0:0:0:
50,232,92102,6,0,P|85:230|109:224,1,55,0|0,0:0|0:0,0:0:0:0:
187,182,92629,2,0,P|194:231|172:286,1,110,0|8,0:0|0:0,0:0:0:0:
103,349,93421,1,8,0:0:0:0:
51,270,93685,1,8,0:0:0:0:
109,200,93949,1,2,0:0:0:0:
8,142,94212,70,0,P|40:197|52:204,1,55,2|0,0:0|0:0,0:0:0:0:
99,125,94740,2,0,P|115:102|122:76,1,55,2|0,0:0|0:0,0:0:0:0:
28,63,95268,1,0,0:0:0:0:
90,0,95532,1,0,0:0:0:0:
131,83,95796,2,0,L|185:86,1,55,8|8,0:0|0:0,0:0:0:0:
220,173,96323,6,0,P|280:165|341:182,1,110,0|0,0:0|0:0,0:0:0:0:
425,335,97379,1,8,0:0:0:0:
403,243,97643,1,8,0:0:0:0:
447,160,97906,1,8,0:0:0:0:
386,89,98170,1,2,0:0:0:0:
334,167,98434,6,0,P|263:173|257:174,1,55,2|0,0:0|0:0,0:0:0:0:
190,202,98962,2,0,P|119:196|113:195,1,55,2|0,0:0|0:0,0:0:0:0:
167,98,99490,5,8,0:0:0:0:
73,107,99753,1,8,0:0:0:0:
116,24,100017,1,8,0:0:0:0:
116,24,100281,6,0,B|131:46|140:57|163:77,1,55,0|0,0:0|0:0,0:0:0:0:
209,140,100809,1,2,0:0:0:0:
155,216,101073,1,2,0:0:0:0:
162,309,101337,1,2,0:0:0:0:
253,326,101600,2,0,P|286:318|323:323,1,55,8|8,0:0|0:0,0:0:0:0:
324,227,102128,2,0,P|357:235|394:230,1,55,8|8,0:0|0:0,0:0:0:0:
455,161,102656,6,0,L|467:274,1,110,2|2,0:0|0:0,0:0:0:0:
295,345,103711,1,8,0:0:0:0:
347,267,103975,1,8,0:0:0:0:
291,192,104239,1,8,0:0:0:0:
200,216,104503,1,8,0:0:0:0:
175,306,104767,6,0,P|167:346|172:368,1,55,0|0,0:0|0:0,0:0:0:0:
261,342,105294,2,0,P|324:349|382:325,1,110,0|8,0:0|0:0,0:0:0:0:
310,259,106086,1,8,0:0:0:0:
240,196,106350,1,8,0:0:0:0:
189,274,106614,1,8,0:0:0:0:
132,200,106877,6,0,P|97:206|64:205,1,55,2|0,0:0|0:0,0:0:0:0:
18,133,107405,2,0,L|30:72,1,55,2|0,0:0|0:0,0:0:0:0:
127,27,107933,1,8,0:0:0:0:
153,116,108197,1,8,0:0:0:0:
196,199,108461,1,8,0:0:0:0:
285,226,108724,1,8,0:0:0:0:
364,177,108988,70,0,P|415:171|427:171,1,55,0|0,0:0|0:0,0:0:0:0:
490,230,109516,1,0,0:0:0:0:
320,310,110044,1,8,0:0:0:0:
236,267,110307,1,8,0:0:0:0:
142,258,110571,1,8,0:0:0:0:
53,288,110835,1,2,0:0:0:0:
62,194,111099,6,0,L|62:139,1,55,2|0,0:0|0:0,0:0:0:0:
149,103,111627,2,0,L|149:177,1,55,2|0,0:0|0:0,0:0:0:0:
230,112,112154,1,8,0:0:0:0:
192,26,112418,1,8,0:0:0:0:
285,27,112682,1,8,0:0:0:0:
321,112,112946,1,0,0:0:0:0:
289,200,113210,6,0,P|332:202|359:200,1,55,0|0,0:0|0:0,0:0:0:0:
414,138,113738,2,0,P|416:95|414:68,1,55,0|0,0:0|0:0,0:0:0:0:
491,29,114265,1,8,0:0:0:0:
495,122,114529,1,8,0:0:0:0:
470,212,114793,1,8,0:0:0:0:
409,141,115057,2,0,P|381:137|365:137,1,27.5,0|0,0:0|0:0,0:0:0:0:
357,140,115321,6,0,L|300:138,1,55,2|0,0:0|0:0,0:0:0:0:
213,168,115848,2,0,L|224:231,1,55,2|0,0:0|0:0,0:0:0:0:
191,310,116376,1,8,0:0:0:0:
281,284,116640,1,8,0:0:0:0:
373,295,116904,1,8,0:0:0:0:
454,340,117168,1,8,0:0:0:0:
481,251,117431,6,0,P|484:187|481:182,1,55,0|2,0:0|0:0,0:0:0:0:
372,169,117959,2,0,P|415:216|420:217,1,55,2|2,0:0|0:0,0:0:0:0:
448,129,118487,2,0,L|451:61,1,55,8|8,0:0|0:0,0:0:0:0:
357,61,119015,2,0,P|318:74|277:70,1,82.5,8|0,0:0|0:0,0:0:0:0:
244,63,119542,54,0,L|247:185,1,121.000003692627,2|0,0:0|0:0,0:0:0:0:
250,281,120334,1,0,0:0:0:0:
149,227,120598,2,0,P|118:217|86:213,1,60.5000018463135,8|8,0:0|0:0,0:0:0:0:
44,145,121125,2,0,P|73:140|102:131,1,60.5000018463135,8|8,0:0|0:0,0:0:0:0:
188,85,121653,6,0,L|198:147,1,60.5000018463135,8|2,0:0|0:0,0:0:0:0:
214,240,122181,1,2,0:0:0:0:
230,335,122445,1,2,0:0:0:0:
299,267,122709,1,8,0:0:0:0:
366,336,122972,1,8,0:0:0:0:
421,256,123236,1,8,0:0:0:0:
358,182,123500,1,0,0:0:0:0:
361,142,123632,1,0,0:0:0:0:
367,103,123764,6,0,P|323:103|286:119,1,60.5000018463135,2|0,0:0|0:0,0:0:0:0:
221,138,124292,2,0,P|221:94|205:57,1,60.5000018463135,0|0,0:0|0:0,0:0:0:0:
137,21,124819,2,0,L|121:146,1,121.000003692627,8|8,0:0|0:0,0:0:0:0:
160,229,125611,1,8,0:0:0:0:
216,307,125875,70,0,P|246:307|276:312,1,60.5000018463135,0|0,0:0|0:0,0:0:0:0:
327,229,126402,2,0,P|289:234|265:234,1,60.5000018463135,0|0,0:0|0:0,0:0:0:0:
231,215,126798,1,0,0:0:0:0:
208,182,126930,2,0,L|225:48,1,121.000003692627,8|0,0:0|0:0,0:0:0:0:
302,9,127722,1,2,0:0:0:0:
364,82,127986,6,0,L|361:163,1,60.5000018463135,2|0,0:0|0:0,0:0:0:0:
286,204,128513,2,0,L|283:123,1,60.5000018463135,2|0,0:0|0:0,0:0:0:0:
340,254,129041,2,0,P|300:275|230:250,1,121.000003692627,8|0,0:0|0:0,0:0:0:0:
201,159,129833,1,0,0:0:0:0:
147,239,130096,6,0,L|161:301,2,60.5000018463135,8|8|8,0:0|0:0|0:0,0:0:0:0:
70,178,130888,1,8,0:0:0:0:
81,140,131020,1,0,0:0:0:0:
94,103,131152,2,0,P|105:72|106:39,1,60.5000018463135,8|8,0:0|0:0,0:0:0:0:
14,59,131680,1,8,0:0:0:0:
106,44,131943,1,2,0:0:0:0:
198,51,132207,6,0,L|284:45,1,60.5000018463135,2|0,0:0|0:0,0:0:0:0:
311,128,132735,2,0,P|280:127|250:132,1,60.5000018463135,2|0,0:0|0:0,0:0:0:0:
224,160,133131,1,0,0:0:0:0:
208,196,133263,2,0,L|223:333,1,121.000003692627,8|8,0:0|0:0,0:0:0:0:
299,378,134054,1,8,0:0:0:0:
362,304,134318,6,0,P|315:299|296:296,1,60.5000018463135,8|2,0:0|0:0,0:0:0:0:
270,205,134846,2,0,P|317:200|336:197,1,60.5000018463135,2|0,0:0|0:0,0:0:0:0:
369,193,135242,1,0,0:0:0:0:
408,188,135373,2,0,P|418:157|415:123,1,60.5000018463135,8|8,0:0|0:0,0:0:0:0:
365,58,135901,2,0,L|307:72,1,60.5000018463135,8|0,0:0|0:0,0:0:0:0:
212,154,136429,70,0,L|233:25,1,121.000003692627,2|0,0:0|0:0,0:0:0:0:
134,29,137220,1,0,0:0:0:0:
142,67,137352,1,0,0:0:0:0:
150,105,137484,2,0,L|140:174,1,60.5000018463135,8|8,0:0|0:0,0:0:0:0:
58,205,138012,2,0,L|48:136,1,60.5000018463135,8|8,0:0|0:0,0:0:0:0:
129,246,138540,6,0,L|194:237,1,60.5000018463135,8|2,0:0|0:0,0:0:0:0:
279,228,139067,1,2,0:0:0:0:
369,218,139331,1,2,0:0:0:0:
386,182,139463,1,0,0:0:0:0:
405,148,139595,5,8,0:0:0:0:
372,61,139859,1,8,0:0:0:0:
291,114,140123,1,8,0:0:0:0:
200,79,140387,1,0,0:0:0:0:
155,165,140650,6,0,P|204:156|238:155,1,60.5000018463135,2|0,0:0|0:0,0:0:0:0:
168,240,141178,2,0,P|137:236|108:230,1,60.5000018463135,8|0,0:0|0:0,0:0:0:0:
86,197,141574,1,0,0:0:0:0:
63,164,141706,2,0,P|28:162|-6:172,1,60.5000018463135,8|8,0:0|0:0,0:0:0:0:
36,77,142234,2,0,P|65:83|95:80,1,60.5000018463135,8|8,0:0|0:0,0:0:0:0:
165,36,142761,6,0,L|227:34,1,60.5000018463135,8|8,0:0|0:0,0:0:0:0:
256,113,143289,2,0,L|195:111,1,60.5000018463135,0|0,0:0|0:0,0:0:0:0:
244,193,143817,2,0,P|290:189|319:179,1,60.5000018463135,8|8,0:0|0:0,0:0:0:0:
376,149,144344,2,0,P|422:153|451:163,1,60.5000018463135,8|10,0:0|0:0,0:0:0:0:
388,239,144872,69,2,0:0:0:0:
304,203,145136,1,0,0:0:0:0:
237,264,145400,1,2,0:0:0:0:
260,351,145664,1,0,0:0:0:0:
171,328,145928,2,0,L|109:319,1,60.5000018463135,8|8,0:0|0:0,0:0:0:0:
36,266,146455,2,0,P|26:237|26:207,1,60.5000018463135,8|8,0:0|0:0,0:0:0:0:
96,129,146983,5,8,0:0:0:0:
177,76,147247,1,8,0:0:0:0:
180,172,147511,1,8,0:0:0:0:
118,246,147774,1,0,0:0:0:0:
109,284,147906,1,0,0:0:0:0:
100,322,148038,2,0,L|167:312,1,60.5000018463135,8|8,0:0|0:0,0:0:0:0:
249,311,148566,2,0,L|316:301,1,60.5000018463135,8|2,0:0|0:0,0:0:0:0:
373,226,149094,6,0,P|343:220|299:227,1,60.5000018463135,2|0,0:0|0:0,0:0:0:0:
258,151,149621,2,0,P|228:157|184:150,1,60.5000018463135,2|0,0:0|0:0,0:0:0:0:
177,120,150017,1,0,0:0:0:0:
159,85,150149,2,0,L|91:87,1,60.5000018463135,8|8,0:0|0:0,0:0:0:0:
55,5,150677,2,0,L|115:6,1,60.5000018463135,8|8,0:0|0:0,0:0:0:0:
205,19,151205,6,0,P|234:12|264:5,1,60.5000018463135,8|2,0:0|0:0,0:0:0:0:
328,60,151732,2,0,P|320:98|311:134,1,60.5000018463135,2|2,0:0|0:0,0:0:0:0:
251,198,152260,2,0,P|281:213|378:194,1,121.000003692627,8|0,0:0|0:0,0:0:0:0:
435,136,153052,1,0,0:0:0:0:
443,237,153315,6,0,L|513:234,1,60.5000018463135,2|0,0:0|0:0,0:0:0:0:
495,138,153843,2,0,L|434:135,1,60.5000018463135,0|0,0:0|0:0,0:0:0:0:
406,133,154239,1,0,0:0:0:0:
372,134,154371,2,0,P|313:133|263:92,1,121.000003692627,8|0,0:0|0:0,0:0:0:0:
120,37,155426,2,0,L|132:166,1,121.000003692627,0|0,0:0|0:0,0:0:0:0:
257,261,156482,2,0,P|284:256|310:248,3,55,8|8|8|8,0:0|0:0|0:0|0:0,0:0:0:0:
391,217,157537,5,2,0:0:0:0:
374,147,157801,1,2,0:0:0:0:
370,93,158065,1,2,0:0:0:0:
357,56,158329,1,2,0:0:0:0:
333,28,158592,6,0,P|305:27|278:22,3,55,8|8|8|8,0:0|0:0|0:0|0:0,0:0:0:0:
182,31,159648,2,0,P|187:57|188:85,3,55
99,145,160703,6,0,L|278:118,1,165,0|0,0:0|0:0,0:0:0:0:
313,209,161759,6,0,P|266:216|234:215,1,55,2|0,0:0|0:0,0:0:0:0:
175,199,162286,1,0,0:0:0:0:
115,223,162550,1,0,0:0:0:0:
98,270,162814,2,0,P|86:319|82:348,3,55,8|8|8|8,0:0|0:0|0:0|0:0,0:0:0:0:
158,378,163869,5,0,0:0:0:0:
234,339,164133,1,0,0:0:0:0:
272,279,164397,1,0,0:0:0:0:
286,245,164661,1,0,0:0:0:0:
290,203,164925,6,0,P|288:161|286:147,2,55,8|8|8,0:0|0:0|0:0,0:0:0:0:
205,181,165716,1,2,0:0:0:0:
231,94,165980,5,2,0:0:0:0:
316,62,166244,1,2,0:0:0:0:
368,93,166508,1,2,0:0:0:0:
390,124,166772,1,2,0:0:0:0:
402,163,167036,2,0,P|432:152|454:146,3,55,8|8|8|8,0:0|0:0|0:0|0:0,0:0:0:0:
482,216,168091,5,0,0:0:0:0:
426,280,168355,1,2,0:0:0:0:
359,232,168619,1,2,0:0:0:0:
289,186,168883,1,2,0:0:0:0:
223,121,169147,6,0,L|183:313,1,192.5,8|0,0:0|0:0,0:0:0:0:
181,341,170202,85,2,0:0:0:0:
181,341,171257,1,2,0:0:0:0:
240,223,172313,5,2,0:0:0:0:
240,223,173368,1,2,0:0:0:0:
322,307,174424,5,2,0:0:0:0:
322,307,175479,1,2,0:0:0:0:
233,203,176534,5,2,0:0:0:0:
233,203,177590,2,0,L|427:181,1,192.5,2|0,0:0|0:0,0:0:0:0:
447,177,178645,69,2,0:0:0:0:
447,177,179701,1,2,0:0:0:0:
357,54,180756,5,2,0:0:0:0:
357,54,181811,1,2,0:0:0:0:
279,151,182867,5,2,0:0:0:0:
279,151,183922,1,2,0:0:0:0:
165,75,184978,5,2,0:0:0:0:
165,75,186033,2,0,L|206:265,1,192.5,0|0,0:0|0:0,0:0:0:0:
226,283,187088,70,0,L|291:291,1,55,2|0,0:0|0:0,0:0:0:0:
354,328,187616,1,2,0:0:0:0:
430,315,187880,1,0,0:0:0:0:
464,231,188144,5,8,0:0:0:0:
363,203,188408,1,8,0:0:0:0:
444,143,188672,1,8,0:0:0:0:
373,108,188935,1,8,0:0:0:0:
285,137,189199,6,0,L|293:74,1,55,2|0,0:0|0:0,0:0:0:0:
219,44,189727,2,0,L|212:98,1,55,0|0,0:0|0:0,0:0:0:0:
199,186,190255,5,8,0:0:0:0:
113,187,190519,1,8,0:0:0:0:
46,244,190782,1,8,0:0:0:0:
60,329,191046,1,8,0:0:0:0:
138,374,191310,70,0,L|196:370,1,55,2|0,0:0|0:0,0:0:0:0:
282,359,191838,1,2,0:0:0:0:
365,353,192102,1,2,0:0:0:0:
293,272,192366,5,8,0:0:0:0:
195,259,192629,1,8,0:0:0:0:
227,176,192893,1,8,0:0:0:0:
302,187,193157,1,8,0:0:0:0:
398,149,193421,6,0,P|402:179|401:217,1,55,2|0,0:0|0:0,0:0:0:0:
387,275,193949,1,2,0:0:0:0:
327,329,194212,1,2,0:0:0:0:
238,260,194476,5,8,0:0:0:0:
332,226,194740,1,8,0:0:0:0:
237,175,195004,1,8,0:0:0:0:
310,137,195268,1,8,0:0:0:0:
230,78,195532,70,0,P|179:76|154:80,1,55,2|0,0:0|0:0,0:0:0:0:
104,123,196059,1,2,0:0:0:0:
20,96,196323,1,2,0:0:0:0:
53,193,196587,5,8,0:0:0:0:
38,298,196851,1,8,0:0:0:0:
120,243,197115,1,8,0:0:0:0:
129,327,197379,1,8,0:0:0:0:
225,269,197643,5,2,0:0:0:0:
244,264,198170,1,0,0:0:0:0:
368,256,198698,5,8,0:0:0:0:
349,245,199226,1,0,0:0:0:0:
353,106,199753,69,2,0:0:0:0:
353,106,200017,1,2,0:0:0:0:
304,187,200281,1,2,0:0:0:0:
304,187,200545,1,2,0:0:0:0:
217,118,200809,5,8,0:0:0:0:
135,71,201073,1,8,0:0:0:0:
66,137,201337,1,8,0:0:0:0:
104,233,201600,1,8,0:0:0:0:
212,223,201864,5,0,0:0:0:0:
212,223,203447,6,0,L|168:220,1,41.25
147,218,203975,86,0,P|167:165|160:136,1,60.5000018463135,4|0,0:0|0:0,0:0:0:0:
68,152,204503,2,0,L|76:78,1,60.5000018463135,0|0,0:0|0:0,0:0:0:0:
177,15,205030,2,0,L|185:158,1,121.000003692627,8|2,0:0|0:0,0:0:0:0:
242,212,205822,1,0,0:0:0:0:
242,212,205954,1,0,0:0:0:0:
242,212,206086,6,0,P|285:205|308:208,1,60.5000018463135,0|0,0:0|0:0,0:0:0:0:
384,257,206614,2,0,L|388:175,1,60.5000018463135,2|0,0:0|0:0,0:0:0:0:
310,102,207141,1,8,0:0:0:0:
218,132,207405,1,0,0:0:0:0:
238,43,207669,1,2,0:0:0:0:
155,69,207933,2,0,L|152:40,2,20.1666672821045
142,91,208197,6,0,L|81:83,1,60.5000018463135
12,137,208724,2,0,P|5:166|7:196,1,60.5000018463135,2|0,0:0|0:0,0:0:0:0:
124,225,209252,1,8,0:0:0:0:
217,200,209516,1,0,0:0:0:0:
293,259,209780,2,0,P|335:273|368:269,1,60.5000018463135,2|0,0:0|0:0,0:0:0:0:
429,216,210307,6,0,L|430:146,1,60.5000018463135,0|0,0:0|0:0,0:0:0:0:
361,87,210835,1,2,0:0:0:0:
288,150,211099,1,0,0:0:0:0:
170,121,211363,2,0,P|190:173|183:199,1,60.5000018463135,8|0,0:0|0:0,0:0:0:0:
159,260,211891,2,0,L|169:337,1,78.3749979071618,2|0,0:0|0:0,0:0:0:0:
171,364,212418,54,0,P|141:353|100:356,1,60.5000018463135,0|0,0:0|0:0,0:0:0:0:
40,288,212946,2,0,P|70:287|98:276,1,60.5000018463135,2|0,0:0|0:0,0:0:0:0:
177,184,213474,2,0,L|192:333,1,121.000003692627,8|2,0:0|0:0,0:0:0:0:
272,353,214265,1,0,0:0:0:0:
272,353,214397,1,0,0:0:0:0:
272,353,214529,6,0,P|276:312|271:284,1,60.5000018463135,0|0,0:0|0:0,0:0:0:0:
250,198,215057,1,2,0:0:0:0:
174,137,215321,1,0,0:0:0:0:
252,45,215585,2,0,L|322:41,1,60.5000018463135,8|0,0:0|0:0,0:0:0:0:
385,104,216112,1,2,0:0:0:0:
468,55,216376,1,0,0:0:0:0:
512,150,216640,6,0,P|479:167|450:173,1,60.5000018463135,0|0,0:0|0:0,0:0:0:0:
383,236,217168,2,0,P|366:203|360:174,1,60.5000018463135,2|0,0:0|0:0,0:0:0:0:
268,101,217695,2,0,L|252:233,1,121.000003692627,8|2,0:0|0:0,0:0:0:0:
176,161,218487,1,0,0:0:0:0:
176,161,218619,1,0,0:0:0:0:
176,161,218751,6,0,P|130:152|109:154,1,60.5000018463135,0|0,0:0|0:0,0:0:0:0:
52,226,219278,1,2,0:0:0:0:
64,321,219542,1,0,0:0:0:0:
181,349,219806,2,0,P|177:302|169:265,1,60.5000018463135,8|0,0:0|0:0,0:0:0:0:
217,216,220334,2,0,L|295:221,1,78.3749979071618,2|0,0:0|0:0,0:0:0:0:
321,246,220862,54,0,P|378:259|433:235,1,121.000003692627,0|2,0:0|0:0,0:0:0:0:
487,155,221653,1,0,0:0:0:0:
386,88,221917,2,0,P|381:119|368:147,1,60.5000018463135,8|0,0:0|0:0,0:0:0:0:
287,91,222445,1,2,0:0:0:0:
289,187,222709,1,0,0:0:0:0:
393,227,222972,21,0,0:0:0:0:
393,227,223500,2,0,L|396:303,1,60.5000018463135,2|0,0:0|0:0,0:0:0:0:
290,348,224028,2,0,P|287:315|292:279,1,60.5000018463135,8|0,0:0|0:0,0:0:0:0:
303,191,224555,1,2,0:0:0:0:
320,95,224819,1,0,0:0:0:0:
235,24,225083,6,0,L|166:22,1,60.5000018463135,0|0,0:0|0:0,0:0:0:0:
133,110,225611,2,0,L|211:110,1,60.5000018463135,2|0,0:0|0:0,0:0:0:0:
269,205,226139,2,0,P|233:217|146:193,1,121.000003692627,8|2,0:0|0:0,0:0:0:0:
91,125,226930,1,0,0:0:0:0:
20,190,227194,6,0,L|22:261,1,60.5000018463135,0|0,0:0|0:0,0:0:0:0:
92,316,227722,2,0,L|163:314,1,60.5000018463135,2|0,0:0|0:0,0:0:0:0:
273,298,228249,2,0,P|255:264|258:215,1,60.5000018463135,8|0,0:0|0:0,0:0:0:0:
284,164,228777,2,0,L|371:167,1,78.3749979071618,2|0,0:0|0:0,0:0:0:0:
388,184,229305,54,0,P|426:186|453:181,1,60.5000018463135,0|0,0:0|0:0,0:0:0:0:
467,277,229833,2,0,L|385:288,1,60.5000018463135,2|0,0:0|0:0,0:0:0:0:
296,235,230360,2,0,P|277:292|303:362,1,121.000003692627,8|2,0:0|0:0,0:0:0:0:
382,384,231152,1,0,0:0:0:0:
451,316,231416,5,0,0:0:0:0:
451,316,231943,2,0,L|441:235,1,60.5000018463135,2|0,0:0|0:0,0:0:0:0:
425,135,232471,1,8,0:0:0:0:
340,182,232735,1,0,0:0:0:0:
253,138,232999,1,2,0:0:0:0:
166,181,233263,1,0,0:0:0:0:
101,109,233526,6,0,L|18:102,1,60.5000018463135,0|0,0:0|0:0,0:0:0:0:
7,195,234054,2,0,L|90:188,1,60.5000018463135,2|0,0:0|0:0,0:0:0:0:
34,306,234582,1,8,0:0:0:0:
128,286,234846,1,0,0:0:0:0:
210,335,235110,2,0,P|239:341|269:342,1,60.5000018463135,2|0,0:0|0:0,0:0:0:0:
328,256,235637,6,0,P|357:249|387:248,1,60.5000018463135,0|0,0:0|0:0,0:0:0:0:
483,293,236165,1,2,0:0:0:0:
438,378,236429,1,0,0:0:0:0:
334,316,236693,2,0,L|325:231,1,60.5000018463135,8|0,0:0|0:0,0:0:0:0:
384,179,237220,2,0,L|305:183,1,78.3749979071618,2|0,0:0|0:0,0:0:0:0:
272,164,237748,102,0,P|276:208|272:241,1,60.5000018463135,4|0,0:0|0:0,0:0:0:0:
185,262,238276,2,0,P|181:218|185:185,1,60.5000018463135,2|0,0:0|0:0,0:0:0:0:
226,89,238804,2,0,L|94:101,1,121.000003692627,8|2,0:0|0:0,0:0:0:0:
47,177,239595,1,0,0:0:0:0:
127,230,239859,6,0,P|157:225|200:230,1,60.5000018463135,0|0,0:0|0:0,0:0:0:0:
266,281,240387,1,2,0:0:0:0:
330,353,240650,1,0,0:0:0:0:
403,257,240914,2,0,L|408:171,1,60.5000018463135,8|0,0:0|0:0,0:0:0:0:
326,140,241442,2,0,P|319:178|318:208,1,60.5000018463135,2|0,0:0|0:0,0:0:0:0:
319,229,241838,1,0,0:0:0:0:
321,258,241970,6,0,L|260:265,1,60.5000018463135,2|0,0:0|0:0,0:0:0:0:
176,272,242497,2,0,L|179:212,1,60.5000018463135,2|0,0:0|0:0,0:0:0:0:
120,105,243025,2,0,P|165:92|190:94,1,60.5000018463135,8|0,0:0|0:0,0:0:0:0:
273,113,243553,2,0,P|318:126|343:124,1,60.5000018463135,2|0,0:0|0:0,0:0:0:0:
419,183,244081,6,0,L|410:110,1,60.5000018463135,0|0,0:0|0:0,0:0:0:0:
498,80,244608,2,0,L|489:153,1,60.5000018463135,2|0,0:0|0:0,0:0:0:0:
472,260,245136,2,0,P|427:237|395:239,1,60.5000018463135,8|0,0:0|0:0,0:0:0:0:
346,280,245664,2,0,L|253:276,1,78.3749979071618,2|0,0:0|0:0,0:0:0:0:
235,275,246191,54,0,L|226:215,1,60.5000018463135,0|0,0:0|0:0,0:0:0:0:
130,228,246719,2,0,P|124:188|124:144,1,60.5000018463135,2|0,0:0|0:0,0:0:0:0:
203,77,247247,2,0,P|241:93|311:60,1,121.000003692627,8|2,0:0|0:0,0:0:0:0:
385,3,248038,1,0,0:0:0:0:
394,94,248302,6,0,P|427:94|455:91,1,60.5000018463135,0|0,0:0|0:0,0:0:0:0:
487,183,248830,2,0,P|456:179|426:180,1,60.5000018463135,2|0,0:0|0:0,0:0:0:0:
316,229,249358,2,0,P|320:274|319:297,1,60.5000018463135,8|0,0:0|0:0,0:0:0:0:
293,382,249885,2,0,L|362:369,1,60.5000018463135,2|0,0:0|0:0,0:0:0:0:
413,294,250413,5,0,0:0:0:0:
344,226,250677,1,0,0:0:0:0:
265,282,250941,1,2,0:0:0:0:
196,213,251205,1,0,0:0:0:0:
131,137,251468,2,0,L|125:76,1,60.5000018463135,8|0,0:0|0:0,0:0:0:0:
197,11,251996,2,0,P|236:6|261:11,1,60.5000018463135,2|0,0:0|0:0,0:0:0:0:
316,86,252524,6,0,L|313:163,1,60.5000018463135,0|0,0:0|0:0,0:0:0:0:
410,147,253052,2,0,L|407:86,1,60.5000018463135,2|0,0:0|0:0,0:0:0:0:
293,43,253579,1,8,0:0:0:0:
285,139,253843,1,0,0:0:0:0:
365,228,254107,1,8,0:0:0:0:
461,217,254371,1,0,0:0:0:0:
395,318,254635,70,0,P|344:319|322:331,1,60.5000018463135,4|0,0:0|0:0,0:0:0:0:
273,248,255162,2,0,L|205:238,1,60.5000018463135,2|0,0:0|0:0,0:0:0:0:
126,153,255690,2,0,P|204:151|242:113,1,121.000003692627,8|2,0:0|0:0,0:0:0:0:
267,34,256482,1,0,0:0:0:0:
335,102,256745,6,0,P|348:129|364:154,1,60.5000018463135,0|0,0:0|0:0,0:0:0:0:
443,210,257273,2,0,P|421:248|410:272,1,60.5000018463135,2|0,0:0|0:0,0:0:0:0:
300,304,257801,2,0,P|290:267|287:244,1,60.5000018463135,8|0,0:0|0:0,0:0:0:0:
229,166,258329,2,0,P|211:190|196:216,1,60.5000018463135,2|0,0:0|0:0,0:0:0:0:
189,242,258724,1,0,0:0:0:0:
186,273,258856,6,0,P|156:276|127:286,1,60.5000018463135,0|0,0:0|0:0,0:0:0:0:
66,362,259384,2,0,P|36:358|7:348,1,60.5000018463135,2|0,0:0|0:0,0:0:0:0:
8,228,259912,2,0,L|142:204,1,121.000003692627,8|2,0:0|0:0,0:0:0:0:
222,190,260703,1,0,0:0:0:0:
313,158,260967,6,0,P|303:195|303:223,1,60.5000018463135,0|0,0:0|0:0,0:0:0:0:
391,255,261495,2,0,P|381:218|381:190,1,60.5000018463135,2|0,0:0|0:0,0:0:0:0:
346,79,262023,2,0,P|386:86|429:68,1,60.5000018463135,8|0,0:0|0:0,0:0:0:0:
483,52,262550,2,0,L|472:129,1,78.3749979071618,2|0,0:0|0:0,0:0:0:0:
468,166,263078,54,0,P|429:155|403:156,1,60.5000018463135,0|0,0:0|0:0,0:0:0:0:
321,196,263606,2,0,P|319:165|310:137,1,60.5000018463135,2|0,0:0|0:0,0:0:0:0:
259,247,264133,2,0,P|323:273|378:248,1,121.000003692627,8|2,0:0|0:0,0:0:0:0:
431,184,264925,1,0,0:0:0:0:
431,184,265057,1,0,0:0:0:0:
431,184,265189,6,0,P|456:216|467:252,1,60.5000018463135,0|0,0:0|0:0,0:0:0:0:
369,256,265716,2,0,P|355:283|351:312,1,60.5000018463135,2|0,0:0|0:0,0:0:0:0:
239,371,266244,1,8,0:0:0:0:
279,282,266508,1,0,0:0:0:0:
211,212,266772,1,2,0:0:0:0:
159,293,267036,1,0,0:0:0:0:
159,294,267168,1,0,0:0:0:0:
159,294,267300,6,0,P|113:306|96:309,1,60.5000018463135,0|0,0:0|0:0,0:0:0:0:
5,287,267827,2,0,P|6:239|7:222,1,60.5000018463135,2|0,0:0|0:0,0:0:0:0:
91,140,268355,2,0,L|150:131,1,60.5000018463135,0|0,0:0|0:0,0:0:0:0:
150,131,268751,1,0,0:0:0:0:
150,131,268883,1,2,0:0:0:0:
219,198,269147,1,0,0:0:0:0:
219,198,269278,1,0,0:0:0:0:
219,198,269410,6,0,P|258:183|281:184,1,60.5000018463135,0|0,0:0|0:0,0:0:0:0:
368,259,269938,1,10,0:0:0:0:
436,190,270202,1,0,0:0:0:0:
358,95,270466,2,0,L|355:157,1,60.5000018463135,8|0,0:0|0:0,0:0:0:0:
269,200,270993,2,0,L|281:282,1,78.3749979071618,2|0,0:0|0:0,0:0:0:0:
282,310,271521,86,0,P|249:313|220:313,1,60.5000018463135,4|0,0:0|0:0,0:0:0:0:
132,275,272049,2,0,P|102:275|72:278,1,60.5000018463135,2|0,0:0|0:0,0:0:0:0:
62,156,272577,1,8,0:0:0:0:
141,101,272840,1,0,0:0:0:0:
226,146,273104,2,0,P|235:111|232:76,1,60.5000018463135,2|0,0:0|0:0,0:0:0:0:
186,2,273632,5,0,0:0:0:0:
186,2,274160,2,0,P|156:9|118:9,1,60.5000018463135,2|0,0:0|0:0,0:0:0:0:
5,2,274687,1,8,0:0:0:0:
50,87,274951,1,0,0:0:0:0:
88,175,275215,1,2,0:0:0:0:
61,268,275479,1,0,0:0:0:0:
61,268,275611,1,0,0:0:0:0:
61,268,275743,6,0,P|117:267|133:263,1,60.5000018463135,0|0,0:0|0:0,0:0:0:0:
214,293,276271,2,0,P|213:237|209:221,1,60.5000018463135,2|0,0:0|0:0,0:0:0:0:
167,120,276798,2,0,P|196:131|288:105,1,121.000003692627,8|2,0:0|0:0,0:0:0:0:
358,52,277590,1,0,0:0:0:0:
427,119,277854,6,0,L|437:184,1,60.5000018463135,0|0,0:0|0:0,0:0:0:0:
371,250,278381,2,0,L|381:315,1,60.5000018463135,2|0,0:0|0:0,0:0:0:0:
275,370,278909,2,0,P|253:344|241:301,1,60.5000018463135,8|0,0:0|0:0,0:0:0:0:
252,236,279437,2,0,P|189:247|167:240,1,78.3749979071618,2|0,0:0|0:0,0:0:0:0:
145,235,279964,54,0,L|155:309,1,60.5000018463135,0|0,0:0|0:0,0:0:0:0:
55,292,280492,2,0,L|45:366,1,60.5000018463135,2|0,0:0|0:0,0:0:0:0:
153,294,281020,2,0,P|187:271|281:285,1,121.000003692627,8|2,0:0|0:0,0:0:0:0:
354,309,281811,1,0,0:0:0:0:
354,309,281943,1,0,0:0:0:0:
354,309,282075,6,0,L|347:234,1,60.5000018463135,0|0,0:0|0:0,0:0:0:0:
364,152,282603,2,0,P|330:164|295:161,1,60.5000018463135,2|0,0:0|0:0,0:0:0:0:
211,86,283131,1,8,0:0:0:0:
130,32,283395,1,0,0:0:0:0:
38,63,283658,1,2,0:0:0:0:
10,155,283922,1,0,0:0:0:0:
88,210,284186,6,0,P|105:166|103:134,1,60.5000018463135,0|0,0:0|0:0,0:0:0:0:
133,60,284714,2,0,L|203:60,1,60.5000018463135,2|0,0:0|0:0,0:0:0:0:
206,180,285242,2,0,P|251:149|317:168,1,121.000003692627,8|2,0:0|0:0,0:0:0:0:
356,250,286033,1,0,0:0:0:0:
417,175,286297,6,0,L|487:165,1,60.5000018463135,0|0,0:0|0:0,0:0:0:0:
434,84,286825,1,2,0:0:0:0:
355,143,287088,1,8,0:0:0:0:
304,47,287352,1,8,0:0:0:0:
209,109,287616,1,0,0:0:0:0:
138,179,287880,2,0,L|150:274,1,78.3749979071618,2|0,0:0|0:0,0:0:0:0:
123,284,288408,102,0,L|108:160,1,121.000003692627,4|0,0:0|0:0,0:0:0:0:
109,164,289463,2,0,P|158:157|194:158,1,60.5000018463135,8|0,0:0|0:0,0:0:0:0:
268,169,289991,2,0,P|270:138|276:109,1,60.5000018463135,2|0,0:0|0:0,0:0:0:0:
365,65,290519,5,0,0:0:0:0:
365,65,291046,2,0,L|375:143,1,60.5000018463135,2|0,0:0|0:0,0:0:0:0:
402,242,291574,2,0,P|364:245|341:241,1,60.5000018463135,8|0,0:0|0:0,0:0:0:0:
253,201,292102,2,0,L|243:279,1,60.5000018463135,2|0,0:0|0:0,0:0:0:0:
240,288,292497,1,0,0:0:0:0:
228,317,292629,6,0,P|194:324|151:322,1,60.5000018463135,0|0,0:0|0:0,0:0:0:0:
93,265,293157,2,0,P|63:257|33:257,1,60.5000018463135,2|0,0:0|0:0,0:0:0:0:
70,142,293685,1,8,0:0:0:0:
158,179,293949,1,0,0:0:0:0:
251,152,294212,1,2,0:0:0:0:
342,185,294476,1,0,0:0:0:0:
388,99,294740,6,0,L|302:92,1,60.5000018463135,0|0,0:0|0:0,0:0:0:0:
251,152,295268,2,0,L|165:145,1,60.5000018463135,2|0,0:0|0:0,0:0:0:0:
85,87,295796,2,0,B|100:121|100:121|93:148|93:148|89:165,1,60.5000018463135,8|0,0:0|0:0,0:0:0:0:
64,221,296323,2,0,P|99:224|147:208,1,78.3749979071618,2|0,0:0|0:0,0:0:0:0:
167,196,296851,54,0,L|171:132,1,60.5000018463135,0|0,0:0|0:0,0:0:0:0:
265,115,297379,2,0,L|261:175,1,60.5000018463135,2|0,0:0|0:0,0:0:0:0:
380,196,297906,2,0,L|368:69,1,121.000003692627,8|2,0:0|0:0,0:0:0:0:
439,8,298698,1,0,0:0:0:0:
369,76,298962,6,0,L|300:70,1,60.5000018463135,0|0,0:0|0:0,0:0:0:0:
212,65,299490,1,2,0:0:0:0:
115,61,299753,1,0,0:0:0:0:
154,175,300017,2,0,P|125:173|93:179,1,60.5000018463135,8|0,0:0|0:0,0:0:0:0:
97,275,300545,2,0,P|126:280|156:278,1,60.5000018463135,2|0,0:0|0:0,0:0:0:0:
190,267,300941,1,0,0:0:0:0:
220,253,301073,6,0,L|226:337,1,60.5000018463135,0|0,0:0|0:0,0:0:0:0:
314,276,301600,2,0,L|309:216,1,60.5000018463135,2|0,0:0|0:0,0:0:0:0:
231,121,302128,2,0,P|188:134|101:108,1,121.000003692627,8|2,0:0|0:0,0:0:0:0:
69,32,302920,1,0,0:0:0:0:
23,117,303183,6,0,P|27:146|27:177,1,60.5000018463135,0|0,0:0|0:0,0:0:0:0:
22,268,303711,1,2,0:0:0:0:
99,357,303975,1,8,0:0:0:0:
173,264,304239,1,8,0:0:0:0:
237,347,304503,1,0,0:0:0:0:
308,292,304767,2,0,L|301:213,1,78.3749979071618,2|0,0:0|0:0,0:0:0:0:
300,184,305294,38,0,P|262:182|238:182,1,60.5000018463135,4|0,0:0|0:0,0:0:0:0:
145,204,305822,1,2,0:0:0:0:
51,181,306086,1,0,0:0:0:0:
19,297,306350,2,0,P|49:293|79:290,1,60.5000018463135,8|0,0:0|0:0,0:0:0:0:
175,300,306877,1,2,0:0:0:0:
257,350,307141,1,0,0:0:0:0:
350,281,307405,5,0,0:0:0:0:
350,281,307933,2,0,P|302:285|287:282,1,60.5000018463135,2|0,0:0|0:0,0:0:0:0:
212,188,308461,1,8,0:0:0:0:
282,121,308724,1,0,0:0:0:0:
366,168,308988,2,0,P|414:164|429:167,1,60.5000018463135,2|0,0:0|0:0,0:0:0:0:
498,230,309516,5,0,0:0:0:0:
406,262,309780,1,0,0:0:0:0:
336,329,310044,1,2,0:0:0:0:
241,348,310307,1,0,0:0:0:0:
186,239,310571,2,0,P|223:227|270:237,1,60.5000018463135,8|0,0:0|0:0,0:0:0:0:
346,219,311099,2,0,L|330:152,1,60.5000018463135,2|0,0:0|0:0,0:0:0:0:
296,70,311627,6,0,P|259:83|171:51,1,121.000003692627,0|2,0:0|0:0,0:0:0:0:
98,12,312418,1,0,0:0:0:0:
34,114,312682,2,0,P|16:161|21:197,1,60.5000018463135,8|0,0:0|0:0,0:0:0:0:
65,237,313210,2,0,L|154:231,1,78.3749979071618,2|0,0:0|0:0,0:0:0:0:
166,236,313738,22,0,L|385:243,1,220,4|0,3:0|0:0,0:0:0:0:
231,159,315321,1,0,0:0:0:0:
275,237,315585,1,0,0:0:0:0:
275,237,315716,1,0,0:0:0:0:
275,237,315848,6,0,B|310:213|322:193|325:162|318:145|318:145|327:125|327:125|300:87|328:35,1,220,2|0,0:0|0:0,0:0:0:0:
495,84,317431,1,0,0:0:0:0:
472,169,317695,1,0,0:0:0:0:
472,169,317827,1,0,0:0:0:0:
472,169,317959,6,0,B|441:178|441:178|369:149|369:149|391:184|375:233|375:233|352:206,1,220,2|8,0:0|3:2,0:0:0:0:
219,109,319542,1,0,0:0:0:0:
211,196,319806,1,0,0:0:0:0:
124,208,320070,6,0,B|120:185|137:156|137:156|127:137|127:137|148:139|128:101|128:101|164:113|189:94|215:69|215:69|189:31|133:13|81:12|38:67|56:116,1,440,0|0,0:0|0:0,0:0:0:0:
