osu file format v14

[General]
AudioFilename: New Ways.mp3
AudioLeadIn: 0
PreviewTime: 118491
Countdown: 0
SampleSet: Soft
StackLeniency: 0.7
Mode: 0
LetterboxInBreaks: 0
EpilepsyWarning: 1
WidescreenStoryboard: 1

[Editor]
Bookmarks: 9758,24533,26644,209358,272022,322153
DistanceSpacing: 2
BeatDivisor: 6
GridSize: 8
TimelineZoom: 3.599999

[Metadata]
Title:New Ways
TitleUnicode:New Ways
Artist:Daughter
ArtistUnicode:Daughter
Creator:sheela
Version:Desolation
Source:
Tags:Not To Disappear alternative pop rock sheela901
BeatmapID:937938
BeatmapSetID:405840

[Difficulty]
HPDrainRate:6.4
CircleSize:4.5
OverallDifficulty:7
ApproachRate:8.5
SliderMultiplier:1.3
SliderTickRate:1

[Events]
//Background and Video events
0,0,"BG.jpg",0,0
//Break Periods
//Storyboard Layer 0 (Background)
//Storyboard Layer 1 (Fail)
//Storyboard Layer 2 (Pass)
//Storyboard Layer 3 (Foreground)
//Storyboard Sound Samples

[TimingPoints]
1337,527.704485488127,4,2,1,10,1,0
11890,-100,4,2,1,5,0,0
12946,-100,4,2,1,10,0,0
16112,-100,4,2,1,5,0,0
17167,-100,4,2,1,10,0,0
24555,-100,4,2,1,5,0,0
26402,-100,4,2,3,5,0,0
26666,-100,4,2,1,20,0,0
29305,-100,4,2,1,5,0,0
29833,-100,4,2,1,20,0,0
31811,-100,4,2,1,10,0,0
31943,-100,4,2,1,20,0,0
37748,-100,4,2,1,10,0,0
38276,-100,4,2,1,20,0,0
42365,-100,4,2,1,5,0,0
42497,-100,4,2,1,20,0,0
58592,-100,4,2,1,5,0,0
58856,-100,4,2,1,20,0,0
59251,-100,4,2,1,5,0,0
59383,-100,4,2,1,20,0,0
69805,-100,4,2,1,5,0,0
69937,-100,4,2,1,20,0,0
71257,-100,4,2,1,10,0,0
71916,-100,4,2,1,5,0,0
72048,-100,4,2,1,20,0,0
75214,-100,4,2,1,15,0,0
77325,-100,4,2,1,20,0,0
92366,-100,4,2,1,5,0,0
92629,-100,4,2,1,20,0,0
93024,-100,4,2,1,5,0,0
93155,-100,4,2,1,20,0,0
109910,-100,4,2,1,5,0,0
110042,-100,4,2,1,20,0,0
115319,-100,4,2,1,30,0,0
119540,-90.9090909090909,4,2,4,40,0,0
120862,-100,4,2,1,30,0,0
122709,-90.9090909090909,4,2,4,40,0,0
122972,-90.9090909090909,4,2,1,40,0,0
124819,-90.9090909090909,4,2,4,40,0,0
125083,-90.9090909090909,4,2,1,40,0,0
126930,-90.9090909090909,4,2,4,40,0,0
130096,-90.9090909090909,4,2,1,40,0,0
131152,-90.9090909090909,4,2,4,40,0,0
131284,-90.9090909090909,4,2,1,40,0,0
133263,-90.9090909090909,4,2,4,40,0,0
133395,-90.9090909090909,4,2,1,40,0,0
135373,-90.9090909090909,4,2,4,40,0,0
135505,-90.9090909090909,4,2,1,40,0,0
137484,-90.9090909090909,4,2,4,40,0,0
137616,-90.9090909090909,4,2,1,40,0,0
139595,-90.9090909090909,4,2,4,40,0,0
139859,-90.9090909090909,4,2,1,40,0,0
141706,-90.9090909090909,4,2,4,40,0,0
141838,-90.9090909090909,4,2,1,40,0,0
143817,-90.9090909090909,4,2,4,40,0,0
144081,-90.9090909090909,4,2,1,40,0,0
145928,-90.9090909090909,4,2,4,40,0,0
146191,-90.9090909090909,4,2,1,40,0,0
148038,-90.9090909090909,4,2,4,40,0,0
148170,-90.9090909090909,4,2,1,40,0,0
150149,-90.9090909090909,4,2,4,40,0,0
150281,-90.9090909090909,4,2,1,40,0,0
152260,-90.9090909090909,4,2,4,40,0,0
156479,-100,4,2,1,30,0,0
168616,-100,4,2,1,20,0,0
169144,-100,4,2,1,30,0,0
170067,-100,4,2,1,5,0,0
170199,-100,4,2,2,20,0,0
172310,-111.111111111111,4,2,2,20,0,0
174421,-125,4,2,2,20,0,0
176531,-142.857142857143,4,2,2,20,0,0
177587,-100,4,2,2,20,0,0
178510,-100,4,2,2,5,0,0
178642,-100,4,2,2,20,0,0
180753,-111.111111111111,4,2,2,20,0,0
182864,-125,4,2,2,20,0,0
184978,-142.857142857143,4,2,2,20,0,0
186033,-100,4,2,2,20,0,0
186957,-100,4,2,2,5,0,0
187088,-100,4,2,1,30,0,0
203444,-200,4,2,1,20,0,0
203909,-200,4,2,1,5,0,0
203975,-90.9090909090909,4,2,2,40,0,1
211891,-105.263157894737,4,2,2,40,0,1
212289,-105.263157894737,4,2,2,5,0,1
212418,-90.9090909090909,4,2,2,40,0,1
220334,-105.263157894737,4,2,2,40,0,1
220862,-90.9090909090909,4,2,2,40,0,1
228777,-105.263157894737,4,2,2,40,0,1
229305,-90.9090909090909,4,2,2,40,0,1
237220,-105.263157894737,4,2,2,40,0,1
237748,-90.9090909090909,4,2,2,80,0,1
237880,-90.9090909090909,4,2,2,40,0,1
245664,-105.263157894737,4,2,2,40,0,1
246191,-90.9090909090909,4,2,2,40,0,1
254635,-66.6666666666667,4,2,2,80,0,1
254767,-90.9090909090909,4,2,2,40,0,1
262550,-105.263157894737,4,2,2,40,0,1
262946,-105.263157894737,4,2,2,5,0,1
263078,-90.9090909090909,4,2,2,40,0,1
270993,-105.263157894737,4,2,2,40,0,0
271521,-90.9090909090909,4,2,2,80,0,1
271653,-90.9090909090909,4,2,2,40,0,1
279437,-105.263157894737,4,2,2,40,0,1
279964,-90.9090909090909,4,2,2,40,0,1
287880,-105.263157894737,4,2,2,40,0,1
288408,-90.9090909090909,4,2,2,40,0,1
296323,-105.263157894737,4,2,2,40,0,1
296851,-90.9090909090909,4,2,2,40,0,1
304767,-105.263157894737,4,2,2,40,0,1
305294,-90.9090909090909,4,2,2,40,0,1
313210,-105.263157894737,4,2,2,40,0,1
313738,-100,4,2,1,20,0,0

[Colours]
Combo1 : 158,139,160
Combo2 : 149,142,125
Combo3 : 190,169,176
Combo4 : 173,194,211
Combo5 : 128,161,186
Combo6 : 154,111,206
Combo7 : 121,196,138
Combo8 : 143,134,196

[HitObjects]
168,5,9780,5,2,0:0:0:0:
181,100,10044,1,2,0:0:0:0:
191,165,10307,1,2,0:0:0:0:
196,197,10571,1,2,0:0:0:0:
91,118,10835,5,8,0:0:0:0:
278,116,11099,1,8,0:0:0:0:
116,203,11363,1,8,0:0:0:0:
272,200,11627,1,8,0:0:0:0:
148,285,11891,1,8,0:0:0:0:
238,284,12154,1,8,0:0:0:0:
158,327,12418,1,8,0:0:0:0:
228,326,12682,1,8,0:0:0:0:
66,243,12946,5,8,0:0:0:0:
295,222,13210,1,8,0:0:0:0:
127,188,13474,1,8,0:0:0:0:
191,349,13738,1,2,0:0:0:0:
319,203,14001,69,2,0:0:0:0:
224,187,14265,1,2,0:0:0:0:
159,178,14529,1,2,0:0:0:0:
127,173,14793,1,2,0:0:0:0:
238,89,15057,5,8,0:0:0:0:
163,271,15321,1,8,0:0:0:0:
161,112,15585,1,8,0:0:0:0:
253,252,15848,1,8,0:0:0:0:
207,134,16112,1,8,0:0:0:0:
192,246,16376,1,8,0:0:0:0:
167,158,16640,1,8,0:0:0:0:
239,222,16904,1,8,0:0:0:0:
91,221,17168,5,8,0:0:0:0:
266,184,17431,1,8,0:0:0:0:
93,137,17695,1,8,0:0:0:0:
231,79,17959,1,2,0:0:0:0:
292,249,18223,69,2,0:0:0:0:
329,160,18487,1,2,0:0:0:0:
355,100,18751,1,2,0:0:0:0:
368,70,19015,1,2,0:0:0:0:
235,135,19278,5,8,0:0:0:0:
434,132,19542,1,8,0:0:0:0:
281,64,19806,1,8,0:0:0:0:
402,210,20070,1,8,0:0:0:0:
305,219,20334,1,8,0:0:0:0:
349,134,20598,5,2,0:0:0:0:
386,217,20862,1,2,0:0:0:0:
420,298,21125,1,2,0:0:0:0:
488,214,21389,5,8,0:0:0:0:
312,291,21653,1,8,0:0:0:0:
346,160,21917,1,8,0:0:0:0:
221,199,22181,1,8,0:0:0:0:
281,51,22445,69,2,0:0:0:0:
260,144,22709,1,2,0:0:0:0:
247,209,22972,1,2,0:0:0:0:
241,240,23236,1,2,0:0:0:0:
165,311,23500,5,8,0:0:0:0:
328,229,23764,1,8,0:0:0:0:
171,198,24028,1,8,0:0:0:0:
267,327,24292,1,8,0:0:0:0:
256,192,24555,12,0,26402,0:0:0:0:
256,192,26666,102,0,P|247:147|247:125,1,65,2|2,0:0|0:0,0:0:0:0:
322,240,27194,2,0,L|191:241,1,130,2|8,0:0|0:0,0:0:0:0:
128,169,27986,1,8,0:0:0:0:
326,152,28249,2,0,L|395:149,1,65,8|0,0:0|0:0,0:0:0:0:
255,227,28777,6,0,P|234:197|237:102,1,130,0|0,0:0|0:0,0:0:0:0:
253,77,29833,1,8,0:0:0:0:
253,251,30096,1,0,0:0:0:0:
325,126,30360,1,8,0:0:0:0:
168,206,30624,1,2,0:0:0:0:
392,183,30888,6,0,L|469:184,1,65,2|0,0:0|0:0,0:0:0:0:
348,272,31416,2,0,B|315:267|315:267|271:276|271:276|213:262,1,130,2|8,0:0|0:0,0:0:0:0:
315,348,32207,1,8,0:0:0:0:
278,188,32471,2,0,P|281:151|284:124,1,65,8|0,0:0|0:0,0:0:0:0:
167,35,32999,6,0,L|174:117,1,65,0|2,0:0|0:0,0:0:0:0:
180,199,33526,1,2,0:0:0:0:
188,298,33790,1,0,0:0:0:0:
90,177,34054,69,8,0:0:0:0:
259,237,34318,1,8,0:0:0:0:
106,278,34582,1,8,0:0:0:0:
203,173,34846,1,0,0:0:0:0:
274,330,35110,6,0,P|313:336|341:336,1,65,2|0,0:0|0:0,0:0:0:0:
433,197,35637,2,0,L|443:340,1,130,0|8,0:0|0:0,0:0:0:0:
357,243,36429,1,8,0:0:0:0:
458,102,36693,2,0,L|446:173,1,65,8|0,0:0|0:0,0:0:0:0:
400,304,37220,6,0,P|335:314|288:274,1,130,0|0,0:0|0:0,0:0:0:0:
266,249,38276,1,8,0:0:0:0:
376,172,38540,1,8,0:0:0:0:
274,215,38804,1,8,0:0:0:0:
384,225,39067,1,8,0:0:0:0:
232,144,39331,69,2,0:0:0:0:
239,237,39595,1,0,0:0:0:0:
246,333,39859,1,2,0:0:0:0:
250,223,40123,1,0,0:0:0:0:
261,68,40387,5,8,0:0:0:0:
398,137,40650,1,8,0:0:0:0:
262,187,40914,2,0,L|186:179,1,65,8|8,0:0|0:0,0:0:0:0:
80,98,41442,6,0,P|68:136|69:167,1,65,0|0,0:0|0:0,0:0:0:0:
171,273,41970,2,0,P|116:257|47:295,1,130,0|8,0:0|0:0,0:0:0:0:
119,355,42761,1,8,0:0:0:0:
182,237,43025,1,8,0:0:0:0:
250,329,43289,1,2,0:0:0:0:
396,234,43553,86,0,P|403:192|403:167,1,65,2|0,0:0|0:0,0:0:0:0:
347,306,44081,2,0,P|402:320|468:283,1,130,2|8,0:0|0:0,0:0:0:0:
501,187,44872,1,8,0:0:0:0:
323,194,45136,2,0,B|287:199|287:199|242:193,1,65,8|8,0:0|0:0,0:0:0:0:
88,123,45664,6,0,L|107:257,1,130
103,280,46719,1,8,0:0:0:0:
188,170,46983,1,8,0:0:0:0:
35,222,47247,1,8,0:0:0:0:
214,259,47511,1,2,0:0:0:0:
352,116,47774,5,2,0:0:0:0:
343,230,48038,1,0,0:0:0:0:
367,93,48302,1,2,0:0:0:0:
360,241,48566,1,0,0:0:0:0:
460,150,48830,5,8,0:0:0:0:
332,108,49094,1,8,0:0:0:0:
223,189,49358,2,0,P|223:221|225:253,1,65,8|8,0:0|0:0,0:0:0:0:
363,345,49885,6,0,B|326:341|326:341|275:352,1,65,0|2,0:0|0:0,0:0:0:0:
205,373,50413,1,2,0:0:0:0:
112,335,50677,1,0,0:0:0:0:
207,233,50941,69,8,0:0:0:0:
59,298,51205,1,8,0:0:0:0:
187,275,51468,1,8,0:0:0:0:
90,246,51732,1,8,0:0:0:0:
217,132,51996,6,0,P|230:168|230:200,1,65,2|2,0:0|0:0,0:0:0:0:
150,85,52524,2,0,L|308:82,1,130,2|8,0:0|0:0,0:0:0:0:
352,145,53315,1,8,0:0:0:0:
251,263,53579,2,0,P|209:273|178:267,1,65,8|8,0:0|0:0,0:0:0:0:
337,175,54107,6,0,L|331:308,1,130
341,333,55162,1,8,0:0:0:0:
423,257,55426,1,8,0:0:0:0:
347,166,55690,1,8,0:0:0:0:
259,245,55954,1,8,0:0:0:0:
148,326,56218,6,0,P|103:331|85:327,1,65,2|0,0:0|0:0,0:0:0:0:
14,240,56745,1,2,0:0:0:0:
94,169,57009,1,0,0:0:0:0:
213,270,57273,69,8,0:0:0:0:
321,206,57537,1,8,0:0:0:0:
185,193,57801,1,8,0:0:0:0:
308,291,58065,1,8,0:0:0:0:
393,179,58329,6,0,L|388:111,1,65
279,42,58856,2,0,L|272:177,1,130,0|8,0:0|0:0,0:0:0:0:
179,99,59648,1,8,0:0:0:0:
142,198,59912,1,8,0:0:0:0:
51,149,60176,1,2,0:0:0:0:
27,287,60439,6,0,P|81:296|101:294,1,65,2|0,0:0|0:0,0:0:0:0:
199,213,60967,2,0,L|188:349,1,130,0|8,0:0|0:0,0:0:0:0:
285,293,61759,1,8,0:0:0:0:
171,194,62023,2,0,P|158:154|159:121,1,65,8|8,0:0|0:0,0:0:0:0:
315,49,62550,6,0,P|307:90|241:142,1,130,0|0,0:0|0:0,0:0:0:0:
212,145,63606,1,8,0:0:0:0:
339,70,63869,1,8,0:0:0:0:
322,177,64133,1,8,0:0:0:0:
236,50,64397,1,2,0:0:0:0:
121,155,64661,69,2,0:0:0:0:
121,155,64925,1,0,0:0:0:0:
179,240,65189,2,0,L|176:309,1,65,2|0,0:0|0:0,0:0:0:0:
91,241,65716,5,8,0:0:0:0:
219,160,65980,1,8,0:0:0:0:
300,269,66244,2,0,P|341:272|381:266,1,65,8|8,0:0|0:0,0:0:0:0:
449,210,66772,5,0,0:0:0:0:
353,305,67036,1,2,0:0:0:0:
435,178,67300,1,2,0:0:0:0:
387,303,67563,1,2,0:0:0:0:
288,187,67827,5,8,0:0:0:0:
211,283,68091,1,8,0:0:0:0:
112,311,68355,1,8,0:0:0:0:
17,273,68619,1,8,0:0:0:0:
121,180,68883,70,0,P|129:140|124:115,1,65,2|0,0:0|0:0,0:0:0:0:
23,32,69410,2,0,L|156:27,1,130,0|8,0:0|0:0,0:0:0:0:
212,148,70202,1,8,0:0:0:0:
167,257,70466,1,8,0:0:0:0:
214,345,70730,1,8,0:0:0:0:
304,282,70993,6,0,L|310:210,1,65
412,130,71521,2,0,L|401:263,1,130,0|8,0:0|0:0,0:0:0:0:
491,159,72313,1,8,0:0:0:0:
329,152,72577,1,8,0:0:0:0:
401,226,72840,1,8,0:0:0:0:
284,307,73104,6,0,L|199:303,1,65,2|0,0:0|0:0,0:0:0:0:
77,254,73632,1,2,0:0:0:0:
166,230,73896,1,0,0:0:0:0:
271,97,74160,5,8,0:0:0:0:
269,233,74424,1,8,0:0:0:0:
187,150,74687,1,8,0:0:0:0:
343,176,74951,1,8,0:0:0:0:
238,253,75215,69,0,0:0:0:0:
155,271,75479,1,0,0:0:0:0:
107,287,75743,1,0,0:0:0:0:
72,299,76007,1,0,0:0:0:0:
119,207,76271,5,8,0:0:0:0:
153,318,76534,1,8,0:0:0:0:
119,207,76798,1,8,0:0:0:0:
140,325,77062,1,2,0:0:0:0:
248,245,77326,6,0,P|282:236|314:235,1,65,2|0,0:0|0:0,0:0:0:0:
457,306,77854,2,0,L|448:156,1,130,2|8,0:0|0:0,0:0:0:0:
406,78,78645,1,8,0:0:0:0:
349,219,78909,2,0,L|279:212,1,65,8|8,0:0|0:0,0:0:0:0:
161,266,79437,6,0,P|135:222|125:130,1,130,0|0,0:0|0:0,0:0:0:0:
133,116,80492,1,8,0:0:0:0:
122,239,80756,1,8,0:0:0:0:
148,131,81020,1,8,0:0:0:0:
35,167,81284,1,2,0:0:0:0:
135,276,81548,70,0,L|204:263,1,65,2|0,0:0|0:0,0:0:0:0:
295,190,82075,2,0,L|226:177,1,65,2|0,0:0|0:0,0:0:0:0:
353,289,82603,5,8,0:0:0:0:
409,192,82867,1,8,0:0:0:0:
323,92,83131,2,0,L|251:90,1,65,8|8,0:0|0:0,0:0:0:0:
148,143,83658,5,0,0:0:0:0:
222,215,83922,1,2,0:0:0:0:
164,301,84186,1,2,0:0:0:0:
249,359,84450,1,2,0:0:0:0:
195,203,84714,5,8,0:0:0:0:
151,356,84978,1,8,0:0:0:0:
264,264,85242,1,8,0:0:0:0:
131,270,85505,1,8,0:0:0:0:
265,155,85769,70,0,P|279:120|279:82,1,65,2|0,0:0|0:0,0:0:0:0:
186,190,86297,2,0,P|229:234|319:222,1,130,2|8,0:0|0:0,0:0:0:0:
388,177,87088,1,8,0:0:0:0:
435,285,87352,2,0,L|511:272,1,65,8|0,0:0|0:0,0:0:0:0:
360,356,87880,6,0,L|220:345,1,130,0|0,0:0|0:0,0:0:0:0:
211,355,88935,1,8,0:0:0:0:
237,249,89199,1,8,0:0:0:0:
231,347,89463,1,8,0:0:0:0:
213,239,89727,1,8,0:0:0:0:
360,343,89991,5,2,0:0:0:0:
368,239,90255,1,0,0:0:0:0:
376,135,90519,1,2,0:0:0:0:
385,31,90782,1,0,0:0:0:0:
301,153,91046,5,8,0:0:0:0:
276,35,91310,1,8,0:0:0:0:
234,191,91574,1,8,0:0:0:0:
168,117,91838,1,8,0:0:0:0:
87,208,92102,70,0,P|78:246|79:271,1,65
167,344,92629,2,0,L|302:336,1,130,0|8,0:0|0:0,0:0:0:0:
244,231,93421,1,8,0:0:0:0:
367,268,93685,1,8,0:0:0:0:
235,256,93949,1,2,0:0:0:0:
340,157,94212,6,0,L|329:84,1,65,2|0,0:0|0:0,0:0:0:0:
193,42,94740,2,0,P|204:136|217:188,1,130,2|0,0:0|0:0,0:0:0:0:
256,256,95532,1,0,0:0:0:0:
120,186,95796,2,0,P|112:142|109:101,1,65,8|8,0:0|0:0,0:0:0:0:
57,249,96323,6,0,P|132:268|184:243,1,130,0|0,0:0|0:0,0:0:0:0:
186,227,97379,5,8,0:0:0:0:
122,133,97643,1,8,0:0:0:0:
77,231,97906,1,8,0:0:0:0:
140,324,98170,1,2,0:0:0:0:
158,155,98434,70,0,L|225:147,1,65,2|0,0:0|0:0,0:0:0:0:
360,198,98962,1,2,0:0:0:0:
271,225,99226,1,0,0:0:0:0:
356,108,99490,5,8,0:0:0:0:
451,189,99753,1,8,0:0:0:0:
366,291,100017,2,0,P|324:301|289:300,1,65,8|0,0:0|0:0,0:0:0:0:
201,228,100545,5,0,0:0:0:0:
109,133,100809,1,2,0:0:0:0:
122,236,101073,1,2,0:0:0:0:
216,193,101337,1,2,0:0:0:0:
68,129,101600,5,8,0:0:0:0:
244,101,101864,1,8,0:0:0:0:
99,89,102128,1,8,0:0:0:0:
194,75,102392,1,8,0:0:0:0:
324,174,102656,70,0,P|281:181|252:181,1,65,2|0,0:0|0:0,0:0:0:0:
410,103,103183,2,0,L|418:257,1,130,2|8,0:0|0:0,0:0:0:0:
371,310,103975,1,8,0:0:0:0:
300,194,104239,2,0,P|297:157|300:124,1,65,8|8,0:0|0:0,0:0:0:0:
432,34,104767,6,0,L|288:19,1,130,0|0,0:0|0:0,0:0:0:0:
282,34,105822,1,8,0:0:0:0:
200,93,106086,1,8,0:0:0:0:
97,104,106350,1,8,0:0:0:0:
22,176,106614,1,8,0:0:0:0:
62,296,106877,6,0,P|105:308|125:311,1,65,2|0,0:0|0:0,0:0:0:0:
248,312,107405,2,0,P|226:273|214:256,1,65,2|0,0:0|0:0,0:0:0:0:
100,138,107933,69,8,0:0:0:0:
209,172,108197,1,8,0:0:0:0:
303,135,108461,1,8,0:0:0:0:
383,170,108724,1,8,0:0:0:0:
438,244,108988,6,0,L|424:316,1,65,0|0,0:0|0:0,0:0:0:0:
301,362,109516,2,0,L|282:232,1,130,0|8,0:0|0:0,0:0:0:0:
179,194,110307,1,8,0:0:0:0:
200,306,110571,1,8,0:0:0:0:
102,266,110835,1,2,0:0:0:0:
262,203,111099,6,0,P|269:153|269:123,1,65,2|0,0:0|0:0,0:0:0:0:
211,40,111627,2,0,P|273:25|349:57,1,130,2|8,0:0|0:0,0:0:0:0:
376,129,112418,1,8,0:0:0:0:
285,238,112682,2,0,L|291:169,1,65,8|0,0:0|0:0,0:0:0:0:
212,303,113210,6,0,B|176:311|176:311|66:283,1,130,0|0,0:0|0:0,0:0:0:0:
62,296,114265,69,8,0:0:0:0:
99,207,114529,1,8,0:0:0:0:
72,112,114793,1,8,0:0:0:0:
99,16,115057,2,0,L|143:22,1,32.5
160,47,115321,5,2,0:0:0:0:
219,125,115585,1,0,0:0:0:0:
317,95,115848,1,2,0:0:0:0:
400,143,116112,1,0,0:0:0:0:
333,274,116376,5,8,0:0:0:0:
386,176,116640,1,8,0:0:0:0:
361,294,116904,1,8,0:0:0:0:
354,171,117168,1,8,0:0:0:0:
249,227,117431,6,0,P|213:227|184:224,1,65,0|2,0:0|0:0,0:0:0:0:
69,168,117959,2,0,L|82:254,1,65,2|2,0:0|0:0,0:0:0:0:
136,89,118487,69,8,0:0:0:0:
243,161,118751,1,8,0:0:0:0:
118,3,119015,1,8,0:0:0:0:
63,181,119278,1,0,0:0:0:0:
75,217,119410,1,0,0:0:0:0:
88,254,119542,54,0,P|145:281|240:244,1,143.000004364014,2|0,0:0|0:0,0:0:0:0:
290,178,120334,1,0,0:0:0:0:
279,137,120466,1,0,0:0:0:0:
267,101,120598,5,8,0:0:0:0:
199,178,120862,1,8,0:0:0:0:
105,163,121125,1,8,0:0:0:0:
67,82,121389,1,8,0:0:0:0:
231,29,121653,6,0,L|303:32,1,65,8|2,0:0|0:0,0:0:0:0:
406,91,122181,1,2,0:0:0:0:
313,122,122445,1,2,0:0:0:0:
452,219,122709,5,8,0:0:0:0:
329,207,122972,1,8,0:0:0:0:
458,240,123236,1,8,0:0:0:0:
309,291,123500,1,0,0:0:0:0:
272,299,123632,1,0,0:0:0:0:
236,311,123764,70,0,L|163:315,1,71.5000021820069,2|0,0:0|0:0,0:0:0:0:
72,269,124292,1,0,0:0:0:0:
52,168,124555,1,0,0:0:0:0:
172,21,124819,5,8,0:0:0:0:
222,114,125083,1,8,0:0:0:0:
167,199,125347,1,8,0:0:0:0:
63,198,125611,1,8,0:0:0:0:
183,233,125875,6,0,L|288:233,1,71.5000021820069
335,163,126402,2,0,P|337:116|331:84,1,71.5000021820069
316,60,126798,1,0,0:0:0:0:
289,32,126930,6,0,L|195:38,1,71.5000021820069,8|0,0:0|0:0,0:0:0:0:
151,127,127458,1,0,0:0:0:0:
269,199,127722,1,2,0:0:0:0:
152,316,127986,70,0,P|101:332|57:327,1,71.5000021820069,2|0,0:0|0:0,0:0:0:0:
28,209,128513,2,0,P|63:211|96:225,1,71.5000021820069,2|0,0:0|0:0,0:0:0:0:
125,249,128909,1,0,0:0:0:0:
150,275,129041,2,0,L|138:116,1,143.000004364014,8|0,0:0|0:0,0:0:0:0:
187,47,129833,1,0,0:0:0:0:
262,115,130096,6,0,P|309:123|334:125,1,71.5000021820069,8|8,0:0|0:0,0:0:0:0:
432,193,130624,2,0,L|356:215,1,71.5000021820069,8|8,0:0|0:0,0:0:0:0:
293,334,131152,1,8,0:0:0:0:
341,214,131416,1,8,0:0:0:0:
306,355,131680,1,8,0:0:0:0:
180,249,131943,1,2,0:0:0:0:
266,79,132207,6,0,L|272:155,1,71.5000021820069,2|0,0:0|0:0,0:0:0:0:
142,104,132735,2,0,P|131:62|131:29,1,71.5000021820069,2|0,0:0|0:0,0:0:0:0:
143,4,133131,1,0,0:0:0:0:
175,20,133263,6,0,P|243:36|269:33,1,71.5000021820069,8|8,0:0|0:0,0:0:0:0:
336,19,133790,1,8,0:0:0:0:
398,98,134054,2,0,L|388:194,1,71.5000021820069,8|8,0:0|0:0,0:0:0:0:
323,304,134582,69,2,0:0:0:0:
270,221,134846,1,2,0:0:0:0:
167,211,135110,1,0,0:0:0:0:
64,295,135373,6,0,P|40:246|39:218,1,71.5000021820069,8|8,0:0|0:0,0:0:0:0:
83,113,135901,2,0,L|168:100,1,71.5000021820069,8|0,0:0|0:0,0:0:0:0:
184,111,136297,1,0,0:0:0:0:
220,117,136429,6,0,L|372:97,1,143.000004364014,2|0,0:0|0:0,0:0:0:0:
448,171,137220,1,0,0:0:0:0:
443,206,137352,1,0,0:0:0:0:
437,242,137484,5,8,0:0:0:0:
355,318,137748,1,8,0:0:0:0:
267,252,138012,1,8,0:0:0:0:
185,317,138276,1,8,0:0:0:0:
113,242,138540,70,0,P|100:204|95:172,1,71.5000021820069,8|2,0:0|0:0,0:0:0:0:
133,82,139067,1,2,0:0:0:0:
223,121,139331,1,2,0:0:0:0:
361,74,139595,5,8,0:0:0:0:
255,147,139859,1,8,0:0:0:0:
374,188,140123,1,8,0:0:0:0:
274,268,140387,1,0,0:0:0:0:
277,308,140519,1,0,0:0:0:0:
277,345,140650,6,0,P|244:364|193:368,1,71.5000021820069,2|0,0:0|0:0,0:0:0:0:
111,327,141178,2,0,L|104:253,1,71.5000021820069,8|0,0:0|0:0,0:0:0:0:
108,221,141574,1,0,0:0:0:0:
119,188,141706,6,0,P|120:147|113:88,1,71.5000021820069,8|8,0:0|0:0,0:0:0:0:
67,19,142234,1,8,0:0:0:0:
13,111,142497,1,8,0:0:0:0:
119,188,142761,70,0,P|167:188|193:187,1,71.5000021820069,8|8,0:0|0:0,0:0:0:0:
277,132,143289,1,0,0:0:0:0:
356,194,143553,1,0,0:0:0:0:
362,231,143685,1,0,0:0:0:0:
365,268,143817,6,8,P|340:296|286:308,1,71.5000021820069
210,281,144344,1,8,0:0:0:0:
102,326,144608,1,10,0:0:0:0:
239,202,144872,6,0,P|239:156|227:109,1,71.5000021820069,2|0,0:0|0:0,0:0:0:0:
138,87,145400,2,0,L|59:86,1,71.5000021820069,2|0,0:0|0:0,0:0:0:0:
37,106,145796,1,0,0:0:0:0:
13,131,145928,6,0,L|22:213,1,71.5000021820069,8|8,0:0|0:0,0:0:0:0:
74,280,146455,1,8,0:0:0:0:
136,350,146719,1,8,0:0:0:0:
226,239,146983,69,8,0:0:0:0:
278,340,147247,1,8,0:0:0:0:
354,263,147511,1,8,0:0:0:0:
309,160,147774,1,0,0:0:0:0:
336,134,147906,1,0,0:0:0:0:
361,108,148038,5,8,0:0:0:0:
236,113,148302,1,8,0:0:0:0:
161,41,148566,1,8,0:0:0:0:
52,59,148830,1,2,0:0:0:0:
214,137,149094,6,0,L|201:209,1,71.5000021820069,2|0,0:0|0:0,0:0:0:0:
125,279,149621,2,0,P|131:328|148:363,1,71.5000021820069,2|0,0:0|0:0,0:0:0:0:
162,364,150017,1,0,0:0:0:0:
197,368,150149,6,0,L|281:368,2,71.5000021820069,8|8|8,0:0|0:0|0:0,0:0:0:0:
93,326,150941,1,8,0:0:0:0:
209,265,151205,69,8,0:0:0:0:
86,178,151468,1,2,0:0:0:0:
184,157,151732,1,2,0:0:0:0:
281,136,151996,1,2,0:0:0:0:
396,240,152260,6,0,L|396:97,1,143.000004364014,8|0,0:0|0:0,0:0:0:0:
342,21,153052,1,0,0:0:0:0:
281,136,153315,38,0,L|287:229,1,71.5000021820069,2|0,0:0|0:0,0:0:0:0:
250,302,153843,1,0,0:0:0:0:
160,348,154107,1,0,0:0:0:0:
65,297,154371,6,0,P|46:217|66:147,1,143.000004364014,8|0,0:0|0:0,0:0:0:0:
288,160,155426,2,0,P|301:229|283:298,1,143.000004364014
151,349,156482,5,8,0:0:0:0:
106,269,156745,1,8,0:0:0:0:
116,189,157009,1,8,0:0:0:0:
94,120,157273,1,8,0:0:0:0:
200,40,157537,69,2,0:0:0:0:
270,97,157801,1,2,0:0:0:0:
270,188,158065,1,2,0:0:0:0:
358,165,158329,1,2,0:0:0:0:
384,187,158461,1,0,0:0:0:0:
410,208,158592,5,8,0:0:0:0:
375,295,158856,1,8,0:0:0:0:
303,265,159120,1,8,0:0:0:0:
241,295,159384,1,8,0:0:0:0:
191,325,159648,5,0,0:0:0:0:
137,323,159912,1,0,0:0:0:0:
102,313,160176,1,0,0:0:0:0:
83,299,160439,1,0,0:0:0:0:
62,253,160703,6,0,L|77:110,1,130,0|0,0:0|0:0,0:0:0:0:
143,46,161495,1,0,0:0:0:0:
210,120,161759,69,2,0:0:0:0:
164,231,162023,1,0,0:0:0:0:
221,144,162286,1,0,0:0:0:0:
178,251,162550,1,0,0:0:0:0:
188,287,162682,1,0,0:0:0:0:
197,317,162814,5,8,0:0:0:0:
282,350,163078,1,8,0:0:0:0:
130,350,163342,1,8,0:0:0:0:
266,261,163606,1,8,0:0:0:0:
167,234,163869,5,0,0:0:0:0:
111,168,164133,1,0,0:0:0:0:
97,112,164397,1,0,0:0:0:0:
100,64,164661,1,0,0:0:0:0:
242,18,164925,5,8,0:0:0:0:
333,65,165189,1,8,0:0:0:0:
370,115,165453,1,8,0:0:0:0:
382,171,165716,1,2,0:0:0:0:
328,237,165980,69,2,0:0:0:0:
422,266,166244,1,2,0:0:0:0:
327,303,166508,1,2,0:0:0:0:
395,323,166772,1,2,0:0:0:0:
264,376,167036,5,8,0:0:0:0:
182,290,167300,1,8,0:0:0:0:
133,289,167563,1,8,0:0:0:0:
90,303,167827,1,8,0:0:0:0:
57,339,168091,5,0,0:0:0:0:
70,219,168355,1,2,0:0:0:0:
82,120,168619,1,2,0:0:0:0:
100,31,168883,1,2,0:0:0:0:
196,157,169147,6,0,L|452:166,1,227.5,8|0,0:0|0:0,0:0:0:0:
449,148,170202,70,0,L|443:296,1,130,2|0,0:0|0:0,0:0:0:0:
369,347,171257,1,2,0:0:0:0:
141,291,172313,6,0,P|121:242|134:159,1,116.999996429443,2|0,0:0|0:0,0:0:0:0:
188,88,173368,1,2,0:0:0:0:
374,231,174424,6,0,L|251:217,1,104,2|0,0:0|0:0,0:0:0:0:
165,277,175479,1,2,0:0:0:0:
111,86,176534,6,0,P|180:98|216:85,1,90.9999972229005,2|0,0:0|0:0,0:0:0:0:
364,5,177590,6,0,L|344:236,1,227.5,2|0,0:0|0:0,0:0:0:0:
352,262,178645,70,0,P|281:246|209:266,1,130,2|0,0:0|0:0,0:0:0:0:
161,339,179701,1,2,0:0:0:0:
59,89,180756,6,0,B|50:128|50:128|56:217,1,116.999996429443,2|0,0:0|0:0,0:0:0:0:
102,304,181811,1,2,0:0:0:0:
242,139,182867,6,0,L|366:147,1,104,2|0,0:0|0:0,0:0:0:0:
431,227,183922,1,2,0:0:0:0:
199,361,184978,6,0,P|187:299|199:260,1,90.9999972229005,2|0,0:0|0:0,0:0:0:0:
306,309,186033,6,0,L|52:288,1,227.5
51,302,187088,69,2,0:0:0:0:
120,209,187352,1,0,0:0:0:0:
201,287,187616,1,2,0:0:0:0:
281,232,187880,1,0,0:0:0:0:
107,246,188144,5,8,0:0:0:0:
253,267,188408,1,8,0:0:0:0:
121,284,188672,1,8,0:0:0:0:
227,297,188935,1,8,0:0:0:0:
157,145,189199,6,0,P|183:199|211:220,1,65,2|0,0:0|0:0,0:0:0:0:
293,222,189727,1,0,0:0:0:0:
382,147,189991,1,0,0:0:0:0:
298,56,190255,5,8,0:0:0:0:
251,184,190519,1,8,0:0:0:0:
294,89,190782,1,8,0:0:0:0:
339,214,191046,1,8,0:0:0:0:
213,302,191310,70,0,L|277:308,1,65,2|0,0:0|0:0,0:0:0:0:
363,324,191838,1,2,0:0:0:0:
451,333,192102,1,2,0:0:0:0:
315,236,192366,5,8,0:0:0:0:
290,373,192629,1,8,0:0:0:0:
210,243,192893,1,8,0:0:0:0:
219,343,193157,1,8,0:0:0:0:
113,289,193421,6,0,P|100:251|92:217,1,65,2|0,0:0|0:0,0:0:0:0:
129,137,193949,1,2,0:0:0:0:
214,203,194212,1,2,0:0:0:0:
333,122,194476,5,8,0:0:0:0:
308,249,194740,1,8,0:0:0:0:
365,360,195004,1,8,0:0:0:0:
302,289,195268,1,8,0:0:0:0:
182,301,195532,70,0,L|109:294,1,65,2|0,0:0|0:0,0:0:0:0:
56,227,196059,1,2,0:0:0:0:
37,140,196323,1,2,0:0:0:0:
44,56,196587,5,8,0:0:0:0:
164,112,196851,1,8,0:0:0:0:
57,155,197115,1,8,0:0:0:0:
131,26,197379,1,8,0:0:0:0:
251,149,197643,5,2,0:0:0:0:
259,167,198170,1,0,0:0:0:0:
267,181,198698,6,0,L|262:261,1,65,8|0,0:0|0:0,0:0:0:0:
333,319,199226,2,0,L|394:298,1,65,0|0,0:0|0:0,0:0:0:0:
359,146,199753,69,2,0:0:0:0:
329,242,200017,1,2,0:0:0:0:
214,108,200281,1,2,0:0:0:0:
250,243,200545,1,2,0:0:0:0:
109,211,200809,5,8,0:0:0:0:
269,191,201073,1,8,0:0:0:0:
98,121,201337,1,8,0:0:0:0:
222,301,201600,1,8,0:0:0:0:
286,179,201864,5,0,0:0:0:0:
288,133,203447,6,0,L|225:127,1,56.875
211,138,203975,5,4,0:0:0:0:
279,316,204239,1,0,0:0:0:0:
148,267,204503,1,0,0:0:0:0:
283,223,204767,1,0,0:0:0:0:
68,179,205030,2,0,L|138:169,1,71.5000021820069,8|0,0:0|0:0,0:0:0:0:
231,80,205558,1,2,0:0:0:0:
370,167,205822,1,0,0:0:0:0:
378,136,205954,1,0,0:0:0:0:
388,102,206086,5,0,0:0:0:0:
388,102,206614,1,2,0:0:0:0:
456,174,206877,1,0,0:0:0:0:
287,61,207141,1,8,0:0:0:0:
236,201,207405,1,0,0:0:0:0:
287,61,207669,1,2,0:0:0:0:
328,195,207933,2,0,L|336:224,2,23.833334060669
320,171,208197,5,0,0:0:0:0:
201,97,208461,1,0,0:0:0:0:
107,182,208724,2,0,L|96:257,1,71.5000021820069,2|0,0:0|0:0,0:0:0:0:
270,309,209252,1,8,0:0:0:0:
174,358,209516,1,0,0:0:0:0:
180,249,209780,2,0,L|190:178,1,71.5000021820069,2|0,0:0|0:0,0:0:0:0:
345,264,210307,5,0,0:0:0:0:
212,157,210571,1,0,0:0:0:0:
255,289,210835,1,2,0:0:0:0:
291,145,211099,1,0,0:0:0:0:
110,213,211363,1,8,0:0:0:0:
194,109,211627,1,0,0:0:0:0:
203,144,211759,1,0,0:0:0:0:
214,176,211891,6,0,L|210:271,1,92.6249975266457,2|0,0:0|0:0,0:0:0:0:
228,286,212418,53,0,0:0:0:0:
376,165,212682,1,0,0:0:0:0:
338,291,212946,1,2,0:0:0:0:
283,190,213210,1,0,0:0:0:0:
481,254,213474,2,0,P|423:241|398:246,1,71.5000021820069,8|0,0:0|0:0,0:0:0:0:
437,332,214001,1,2,0:0:0:0:
309,235,214265,1,0,0:0:0:0:
310,271,214397,1,0,0:0:0:0:
310,307,214529,6,0,L|322:387,1,71.5000021820069
214,315,215057,1,2,0:0:0:0:
111,317,215321,1,0,0:0:0:0:
297,209,215585,1,8,0:0:0:0:
125,223,215848,1,0,0:0:0:0:
246,122,216112,1,2,0:0:0:0:
151,109,216376,1,0,0:0:0:0:
160,147,216508,1,0,0:0:0:0:
171,188,216640,6,0,L|163:265,1,71.5000021820069
259,349,217168,1,2,0:0:0:0:
375,290,217431,1,0,0:0:0:0:
315,102,217695,2,0,L|393:92,1,71.5000021820069,8|0,0:0|0:0,0:0:0:0:
323,211,218223,1,2,0:0:0:0:
221,163,218487,1,0,0:0:0:0:
213,350,218751,6,0,L|207:268,1,71.5000021820069
293,167,219278,2,0,L|287:238,1,71.5000021820069,2|0,0:0|0:0,0:0:0:0:
132,366,219806,1,8,0:0:0:0:
61,279,220070,1,0,0:0:0:0:
51,245,220202,1,0,0:0:0:0:
40,208,220334,6,0,L|42:100,1,92.6249975266457,2|0,0:0|0:0,0:0:0:0:
60,91,220862,69,0,0:0:0:0:
211,172,221125,1,0,0:0:0:0:
116,300,221389,1,2,0:0:0:0:
135,181,221653,1,0,0:0:0:0:
237,356,221917,2,0,P|223:319|227:271,1,71.5000021820069,8|0,0:0|0:0,0:0:0:0:
325,298,222445,1,2,0:0:0:0:
279,169,222709,1,0,0:0:0:0:
286,133,222840,1,0,0:0:0:0:
294,97,222972,5,0,0:0:0:0:
294,97,223500,1,2,0:0:0:0:
195,217,223764,1,0,0:0:0:0:
400,267,224028,2,0,L|313:257,1,71.5000021820069,8|0,0:0|0:0,0:0:0:0:
272,348,224555,1,2,0:0:0:0:
158,221,224819,1,0,0:0:0:0:
165,261,224951,1,0,0:0:0:0:
173,298,225083,6,0,L|167:377,1,71.5000021820069
254,257,225611,1,2,0:0:0:0:
102,327,225875,1,0,0:0:0:0:
155,140,226139,2,0,L|234:127,1,71.5000021820069,8|0,0:0|0:0,0:0:0:0:
279,267,226666,1,2,0:0:0:0:
160,259,226930,1,0,0:0:0:0:
304,186,227194,5,0,0:0:0:0:
155,140,227458,1,0,0:0:0:0:
331,178,227722,1,2,0:0:0:0:
235,250,227986,1,0,0:0:0:0:
79,144,228249,1,8,0:0:0:0:
79,144,228777,6,0,L|85:238,1,92.6249975266457,2|0,0:0|0:0,0:0:0:0:
102,252,229305,53,0,0:0:0:0:
275,208,229569,1,0,0:0:0:0:
153,153,229833,1,2,0:0:0:0:
185,277,230096,1,0,0:0:0:0:
379,201,230360,2,0,L|385:116,1,71.5000021820069,8|0,0:0|0:0,0:0:0:0:
323,43,230888,1,2,0:0:0:0:
245,155,231152,1,0,0:0:0:0:
237,123,231284,1,0,0:0:0:0:
228,88,231416,5,0,0:0:0:0:
228,88,231943,1,2,0:0:0:0:
194,228,232207,1,0,0:0:0:0:
378,147,232471,1,8,0:0:0:0:
245,136,232735,1,0,0:0:0:0:
338,214,232999,1,2,0:0:0:0:
173,186,233263,1,0,0:0:0:0:
180,225,233395,1,0,0:0:0:0:
185,261,233526,6,0,P|240:261|272:263,1,71.5000021820069
355,364,234054,1,2,0:0:0:0:
240,357,234318,1,0,0:0:0:0:
405,265,234582,2,0,P|417:218|414:193,1,71.5000021820069,8|0,0:0|0:0,0:0:0:0:
333,104,235110,1,2,0:0:0:0:
274,210,235373,1,0,0:0:0:0:
151,79,235637,5,0,0:0:0:0:
171,226,235901,1,0,0:0:0:0:
177,76,236165,1,2,0:0:0:0:
187,241,236429,1,0,0:0:0:0:
42,93,236693,1,8,0:0:0:0:
200,167,236957,1,0,0:0:0:0:
194,206,237088,1,0,0:0:0:0:
187,241,237220,6,0,L|197:346,1,92.6249975266457,2|0,0:0|0:0,0:0:0:0:
199,363,237748,53,4,0:0:0:0:
296,214,238012,1,0,0:0:0:0:
415,305,238276,1,2,0:0:0:0:
282,298,238540,1,0,0:0:0:0:
430,150,238804,2,0,L|354:163,1,71.5000021820069,8|0,0:0|0:0,0:0:0:0:
223,222,239331,1,2,0:0:0:0:
292,56,239595,1,0,0:0:0:0:
283,75,239727,1,0,0:0:0:0:
275,95,239859,6,0,L|288:169,1,71.5000021820069
269,293,240387,1,2,0:0:0:0:
389,239,240650,1,0,0:0:0:0:
198,180,240914,1,8,0:0:0:0:
135,276,241178,1,0,0:0:0:0:
56,195,241442,1,2,0:0:0:0:
121,54,241706,1,0,0:0:0:0:
128,86,241838,1,0,0:0:0:0:
136,120,241970,6,0,P|178:135|209:135,1,71.5000021820069,2|0,0:0|0:0,0:0:0:0:
330,112,242497,1,2,0:0:0:0:
212,36,242761,1,0,0:0:0:0:
301,221,243025,2,0,L|298:294,1,71.5000021820069,8|0,0:0|0:0,0:0:0:0:
369,373,243553,1,2,0:0:0:0:
462,324,243817,1,0,0:0:0:0:
380,168,244081,53,0,0:0:0:0:
254,209,244344,1,0,0:0:0:0:
405,99,244608,1,2,0:0:0:0:
242,116,244872,1,0,0:0:0:0:
346,285,245136,1,8,0:0:0:0:
282,177,245400,1,0,0:0:0:0:
250,180,245532,1,0,0:0:0:0:
216,184,245664,6,0,L|121:188,1,92.6249975266457,2|0,0:0|0:0,0:0:0:0:
107,206,246191,37,0,0:0:0:0:
247,257,246455,1,0,0:0:0:0:
166,113,246719,1,2,0:0:0:0:
150,284,246983,1,0,0:0:0:0:
291,140,247247,2,0,P|333:136|372:141,1,71.5000021820069,8|0,0:0|0:0,0:0:0:0:
349,267,247774,1,2,0:0:0:0:
221,206,248038,1,0,0:0:0:0:
214,169,248170,1,0,0:0:0:0:
208,131,248302,86,0,L|207:55,1,71.5000021820069
98,19,248830,1,2,0:0:0:0:
103,152,249094,1,0,0:0:0:0:
276,51,249358,2,0,L|202:43,1,71.5000021820069,8|0,0:0|0:0,0:0:0:0:
290,139,249885,1,2,0:0:0:0:
178,207,250149,1,0,0:0:0:0:
184,243,250281,1,0,0:0:0:0:
191,277,250413,69,0,0:0:0:0:
92,201,250677,1,0,0:0:0:0:
268,217,250941,1,2,0:0:0:0:
187,127,251205,1,0,0:0:0:0:
378,53,251468,2,0,L|299:56,1,71.5000021820069,8|0,0:0|0:0,0:0:0:0:
136,62,251996,1,2,0:0:0:0:
242,171,252260,1,0,0:0:0:0:
251,194,252392,1,0,0:0:0:0:
259,217,252524,5,0,0:0:0:0:
233,367,252788,1,0,0:0:0:0:
249,239,253052,1,2,0:0:0:0:
322,370,253315,1,0,0:0:0:0:
313,348,253447,1,0,0:0:0:0:
302,320,253579,69,8,0:0:0:0:
163,275,253843,1,0,0:0:0:0:
355,235,254107,1,8,0:0:0:0:
222,117,254371,1,0,0:0:0:0:
457,69,254635,102,0,P|385:96|290:24,1,195.00000743866,4|2,0:0|0:0,0:0:0:0:
101,337,255690,1,8,0:0:0:0:
264,277,255954,1,0,0:0:0:0:
122,250,256218,1,2,0:0:0:0:
250,363,256482,1,0,0:0:0:0:
200,191,256745,5,0,0:0:0:0:
200,191,257273,2,0,L|191:270,1,71.5000021820069,2|0,0:0|0:0,0:0:0:0:
272,102,257801,1,8,0:0:0:0:
307,228,258065,1,0,0:0:0:0:
415,123,258329,1,2,0:0:0:0:
476,224,258592,1,0,0:0:0:0:
481,250,258724,1,0,0:0:0:0:
486,277,258856,85,0,0:0:0:0:
332,309,259120,1,0,0:0:0:0:
480,351,259384,1,2,0:0:0:0:
373,383,259648,1,0,0:0:0:0:
221,272,259912,2,0,L|216:355,1,71.5000021820069,8|0,0:0|0:0,0:0:0:0:
179,191,260439,1,2,0:0:0:0:
117,286,260703,1,0,0:0:0:0:
78,133,260967,5,0,0:0:0:0:
233,104,261231,1,0,0:0:0:0:
104,213,261495,1,2,0:0:0:0:
109,58,261759,1,0,0:0:0:0:
236,216,262023,1,8,0:0:0:0:
341,123,262286,1,0,0:0:0:0:
340,153,262418,1,0,0:0:0:0:
339,182,262550,70,0,L|351:291,1,92.6249975266457,2|0,0:0|0:0,0:0:0:0:
353,311,263078,5,0,0:0:0:0:
220,207,263342,1,0,0:0:0:0:
165,326,263606,1,2,0:0:0:0:
314,271,263869,1,0,0:0:0:0:
201,122,264133,2,0,P|236:133|277:128,1,71.5000021820069,8|0,0:0|0:0,0:0:0:0:
367,55,264661,1,2,0:0:0:0:
399,176,264925,1,0,0:0:0:0:
408,208,265057,1,0,0:0:0:0:
416,237,265189,5,0,0:0:0:0:
416,237,265716,1,2,0:0:0:0:
322,290,265980,1,0,0:0:0:0:
341,98,266244,2,0,L|347:173,1,71.5000021820069,8|0,0:0|0:0,0:0:0:0:
403,320,266772,1,2,0:0:0:0:
449,210,267036,1,0,0:0:0:0:
420,197,267168,1,0,0:0:0:0:
390,183,267300,5,0,0:0:0:0:
247,133,267563,1,0,0:0:0:0:
384,62,267827,1,2,0:0:0:0:
274,38,268091,1,0,0:0:0:0:
121,144,268355,2,0,L|139:226,1,71.5000021820069
183,356,268883,1,2,0:0:0:0:
246,264,269147,1,0,0:0:0:0:
283,265,269278,1,0,0:0:0:0:
314,267,269410,5,0,0:0:0:0:
462,273,269674,1,0,0:0:0:0:
359,348,269938,1,10,0:0:0:0:
364,177,270202,1,0,0:0:0:0:
478,327,270466,1,8,0:0:0:0:
292,226,270730,1,0,0:0:0:0:
482,151,270993,6,0,L|493:262,1,92.6249975266457,2|0,0:0|0:0,0:0:0:0:
484,271,271521,53,4,0:0:0:0:
358,368,271785,1,0,0:0:0:0:
386,241,272049,1,2,0:0:0:0:
273,269,272313,1,0,0:0:0:0:
420,147,272577,2,0,P|423:83|417:56,1,71.5000021820069,8|0,0:0|0:0,0:0:0:0:
309,107,273104,1,2,0:0:0:0:
179,71,273368,1,0,0:0:0:0:
184,112,273500,1,0,0:0:0:0:
188,149,273632,6,0,L|180:237,1,71.5000021820069,0|0,0:0|0:0,0:0:0:0:
165,335,274160,1,2,0:0:0:0:
61,265,274424,1,0,0:0:0:0:
256,293,274687,2,0,P|263:340|260:369,1,71.5000021820069,8|0,0:0|0:0,0:0:0:0:
169,254,275215,1,2,0:0:0:0:
250,180,275479,1,0,0:0:0:0:
210,173,275611,1,0,0:0:0:0:
171,164,275743,69,0,0:0:0:0:
58,251,276007,1,0,0:0:0:0:
185,277,276271,1,2,0:0:0:0:
102,329,276534,1,0,0:0:0:0:
236,198,276798,2,0,L|224:113,1,71.5000021820069,8|0,0:0|0:0,0:0:0:0:
156,249,277326,1,2,0:0:0:0:
270,277,277590,1,0,0:0:0:0:
316,134,277854,5,0,0:0:0:0:
153,153,278118,1,0,0:0:0:0:
325,209,278381,1,2,0:0:0:0:
203,221,278645,1,0,0:0:0:0:
318,73,278909,1,8,0:0:0:0:
205,116,279173,1,0,0:0:0:0:
332,167,279437,2,0,L|321:244,1,61.7499983510972,2|0,0:0|0:0,0:0:0:0:
333,244,279833,1,0,0:0:0:0:
343,261,279964,69,0,0:0:0:0:
262,291,280228,1,0,0:0:0:0:
414,198,280492,1,2,0:0:0:0:
272,164,280756,1,0,0:0:0:0:
419,289,281020,2,0,P|429:336|427:372,1,71.5000021820069,8|0,0:0|0:0,0:0:0:0:
318,330,281548,1,2,0:0:0:0:
346,232,281811,1,0,0:0:0:0:
175,290,282075,5,0,0:0:0:0:
175,290,282603,1,2,0:0:0:0:
231,178,282867,1,0,0:0:0:0:
50,205,283131,2,0,L|137:195,1,71.5000021820069,8|0,0:0|0:0,0:0:0:0:
211,93,283658,2,0,L|298:103,1,71.5000021820069,2|0,0:0|0:0,0:0:0:0:
316,96,284054,1,0,0:0:0:0:
347,93,284186,22,0,L|419:101,1,71.5000021820069
509,237,284714,1,2,0:0:0:0:
383,207,284978,1,0,0:0:0:0:
471,363,285242,2,0,P|417:342|389:340,1,71.5000021820069,8|0,0:0|0:0,0:0:0:0:
275,367,285769,1,2,0:0:0:0:
186,274,286033,1,0,0:0:0:0:
321,138,286297,5,0,0:0:0:0:
294,266,286561,1,0,0:0:0:0:
208,168,286825,1,2,0:0:0:0:
383,211,287088,1,8,0:0:0:0:
185,257,287352,1,8,0:0:0:0:
239,71,287616,1,0,0:0:0:0:
284,233,287880,6,0,L|294:324,1,92.6249975266457,2|0,0:0|0:0,0:0:0:0:
307,346,288408,86,0,P|358:356|427:278,1,143.000004364014,4|0,0:0|0:0,0:0:0:0:
146,179,289463,1,8,0:0:0:0:
204,302,289727,1,0,0:0:0:0:
333,246,289991,1,2,0:0:0:0:
179,210,290255,1,0,0:0:0:0:
140,210,290387,1,0,0:0:0:0:
98,209,290519,5,0,0:0:0:0:
98,209,291046,1,2,0:0:0:0:
128,309,291310,1,0,0:0:0:0:
187,134,291574,2,0,L|193:59,1,71.5000021820069,8|0,0:0|0:0,0:0:0:0:
275,16,292102,1,2,0:0:0:0:
328,109,292366,1,0,0:0:0:0:
325,149,292497,1,0,0:0:0:0:
321,181,292629,69,0,0:0:0:0:
479,157,292893,1,0,0:0:0:0:
330,284,293157,1,2,0:0:0:0:
433,226,293421,1,0,0:0:0:0:
337,375,293685,2,0,P|278:356|253:353,1,71.5000021820069,8|0,0:0|0:0,0:0:0:0:
157,366,294212,1,2,0:0:0:0:
250,267,294476,1,0,0:0:0:0:
123,200,294740,5,0,0:0:0:0:
119,351,295004,1,0,0:0:0:0:
205,188,295268,1,2,0:0:0:0:
245,301,295532,1,0,0:0:0:0:
82,192,295796,1,8,0:0:0:0:
242,94,296059,1,0,0:0:0:0:
240,133,296191,1,0,0:0:0:0:
239,173,296323,6,0,L|251:270,1,92.6249975266457,2|0,0:0|0:0,0:0:0:0:
268,287,296851,69,0,0:0:0:0:
161,222,297115,1,0,0:0:0:0:
321,175,297379,1,2,0:0:0:0:
289,298,297643,1,0,0:0:0:0:
174,131,297906,2,2,L|177:208,1,71.5000021820069,8|2,0:0|0:0,0:0:0:0:
181,290,298434,1,2,0:0:0:0:
298,202,298698,1,0,0:0:0:0:
292,232,298830,1,0,0:0:0:0:
287,259,298962,5,0,0:0:0:0:
287,259,299490,1,2,0:0:0:0:
240,366,299753,1,0,0:0:0:0:
419,349,300017,2,0,P|382:348|339:338,1,71.5000021820069,8|0,0:0|0:0,0:0:0:0:
204,291,300545,1,2,0:0:0:0:
253,153,300809,1,0,0:0:0:0:
219,149,300941,1,0,0:0:0:0:
187,148,301073,69,0,0:0:0:0:
39,224,301337,1,0,0:0:0:0:
122,357,301600,1,2,0:0:0:0:
169,260,301864,1,0,0:0:0:0:
302,336,302128,2,0,L|307:251,1,71.5000021820069,8|0,0:0|0:0,0:0:0:0:
317,165,302656,1,2,0:0:0:0:
401,224,302920,1,0,0:0:0:0:
222,207,303183,101,0,0:0:0:0:
64,272,303447,1,0,0:0:0:0:
147,147,303711,1,2,0:0:0:0:
171,348,303975,1,8,0:0:0:0:
71,185,304239,1,8,0:0:0:0:
246,92,304503,1,0,0:0:0:0:
123,21,304767,6,0,P|68:10|31:12,1,92.6249975266457,2|0,0:0|0:0,0:0:0:0:
10,29,305294,69,4,0:0:0:0:
62,141,305558,1,0,0:0:0:0:
21,260,305822,1,2,0:0:0:0:
91,365,306086,1,0,0:0:0:0:
217,251,306350,2,0,L|291:241,1,71.5000021820069,8|0,0:0|0:0,0:0:0:0:
377,298,306877,1,2,0:0:0:0:
370,167,307141,1,0,0:0:0:0:
405,172,307273,1,0,0:0:0:0:
438,177,307405,6,0,L|514:189,1,71.5000021820069,0|0,0:0|0:0,0:0:0:0:
448,308,307933,1,2,0:0:0:0:
353,228,308197,1,0,0:0:0:0:
214,352,308461,1,8,0:0:0:0:
364,318,308724,1,0,0:0:0:0:
204,246,308988,1,2,0:0:0:0:
321,220,309252,1,0,0:0:0:0:
166,151,309516,6,0,P|201:143|241:152,1,71.5000021820069
204,246,310044,1,2,0:0:0:0:
321,220,310307,1,0,0:0:0:0:
413,358,310571,2,0,L|331:347,1,71.5000021820069,8|0,0:0|0:0,0:0:0:0:
237,359,311099,1,2,0:0:0:0:
279,265,311363,1,0,0:0:0:0:
146,289,311627,5,0,0:0:0:0:
202,136,311891,1,0,0:0:0:0:
261,265,312154,1,2,0:0:0:0:
112,185,312418,1,0,0:0:0:0:
309,156,312682,1,8,0:0:0:0:
243,283,312946,1,0,0:0:0:0:
183,104,313210,70,0,L|195:206,1,92.6249975266457,2|0,0:0|0:0,0:0:0:0:
202,221,313738,54,0,P|236:211|272:215,1,65,4|0,3:0|0:0,0:0:0:0:
318,281,314265,2,0,L|313:353,1,65
393,383,314793,1,0,0:0:0:0:
393,383,315057,1,0,0:0:0:0:
419,268,315321,1,0,0:0:0:0:
459,113,315585,1,0,0:0:0:0:
447,149,315716,1,0,0:0:0:0:
434,186,315848,6,0,P|405:192|371:188,1,65,2|0,0:0|0:0,0:0:0:0:
286,146,316376,2,0,L|207:162,1,65,0|0,0:0|0:0,0:0:0:0:
67,102,316904,1,0,0:0:0:0:
67,102,317168,1,0,0:0:0:0:
38,209,317431,1,0,0:0:0:0:
132,288,317695,1,0,0:0:0:0:
151,266,317827,1,0,0:0:0:0:
171,245,317959,70,0,P|207:242|243:250,2,65,2|0|0,0:0|0:0|0:0,0:0:0:0:
202,331,318751,1,0,0:0:0:0:
304,207,319015,2,0,P|286:185|255:165,2,65,8|0|0,3:2|0:0|0:0,0:0:0:0:
302,319,319806,1,0,0:0:0:0:
130,170,320070,6,0,L|124:63,1,97.5
96,101,320598,2,0,L|100:169,1,65
60,256,321125,22,0,P|108:265|176:227,2,130
