osu file format v14

[General]
AudioFilename: audio.mp3
AudioLeadIn: 0
PreviewTime: 123563
Countdown: 0
SampleSet: Soft
StackLeniency: 0.7
Mode: 0
LetterboxInBreaks: 0
StoryFireInFront: 0
EpilepsyWarning: 1
WidescreenStoryboard: 1

[Editor]
Bookmarks: 13849,27563,54992,68706,96134,109849,150992,178420,192134,205849,219563,246992,274420,294992,301849,308706,315563,342992,356706,397849,411563,421849
DistanceSpacing: 2.1
BeatDivisor: 16
GridSize: 32
TimelineZoom: 2.2

[Metadata]
Title:Medicine (Sound Remedy Remix)
TitleUnicode:Medicine (Sound Remedy Remix)
Artist:Daughter
ArtistUnicode:Daughter
Creator:KeyLoGreen
Version:Overdose
Source:
Tags:
BeatmapID:1268235
BeatmapSetID:600152

[Difficulty]
HPDrainRate:6
CircleSize:4.5
OverallDifficulty:7
ApproachRate:9.5
SliderMultiplier:3.2
SliderTickRate:1

[Events]
//Background and Video events
0,0,"medicine-01.png",0,0
//Break Periods
2,102992,108529
2,185277,187386
2,226420,242243
2,349849,355386
//Storyboard Layer 0 (Background)
//Storyboard Layer 1 (Fail)
//Storyboard Layer 2 (Pass)
//Storyboard Layer 3 (Foreground)
//Storyboard Sound Samples

[TimingPoints]
135,857.142857142857,4,2,0,100,1,0
13849,-200,4,2,0,20,0,0
16849,-200,4,2,2,20,0,0
17277,-200,4,2,0,20,0,0
23706,-200,4,2,2,20,0,0
24134,-200,4,2,0,20,0,0
27134,-200,4,2,2,20,0,0
27563,-133.333333333333,4,2,1,20,0,0
54992,-80,4,2,1,40,0,0
68706,-80,4,2,1,50,0,0
92706,-80,4,2,1,55,0,0
93563,-80,4,2,1,60,0,0
94420,-80,4,2,1,65,0,0
95277,-133.333333333333,4,2,1,70,0,0
96134,-133.333333333333,4,2,1,50,0,0
109849,-80,4,2,1,40,0,0
112099,-80,4,2,2,5,0,0
112206,-80,4,2,1,40,0,0
112313,-80,4,2,2,5,0,0
112420,-80,4,2,1,40,0,0
113277,-80,4,2,1,45,0,0
113384,-80,4,2,2,5,0,0
113491,-80,4,2,1,45,0,0
113598,-80,4,2,2,5,0,0
113705,-80,4,2,1,45,0,0
113812,-80,4,2,2,5,0,0
113919,-80,4,2,1,45,0,0
114026,-80,4,2,2,5,0,0
114134,-80,4,2,1,45,0,0
115099,-80,4,2,2,5,0,0
115206,-80,4,2,1,45,0,0
115313,-80,4,2,2,5,0,0
115420,-80,4,2,1,45,0,0
115527,-80,4,2,2,5,0,0
115634,-80,4,2,1,45,0,0
115741,-80,4,2,2,5,0,0
115849,-80,4,2,1,45,0,0
116706,-80,4,2,1,50,0,0
118420,-80,4,2,1,55,0,0
120134,-80,4,2,1,60,0,0
120992,-80,4,2,1,65,0,0
121849,-66.6666666666667,4,2,1,70,0,0
122706,-80,4,2,1,75,0,0
123563,-50,4,2,3,100,0,1
127099,-50,4,2,2,5,0,1
127206,-50,4,2,3,100,0,1
127313,-50,4,2,2,5,0,1
127420,-50,4,2,3,100,0,1
127527,-50,4,2,2,5,0,1
127634,-50,4,2,3,100,0,1
127742,-50,4,2,2,5,0,1
127849,-50,4,2,3,100,0,1
130527,-50,4,2,2,5,0,1
130634,-50,4,2,3,100,0,1
130741,-50,4,2,2,5,0,1
130848,-50,4,2,3,100,0,1
130955,-50,4,2,2,5,0,1
131062,-50,4,2,3,100,0,1
131170,-50,4,2,2,5,0,1
131277,-50,4,2,3,100,0,1
133956,-50,4,2,2,5,0,1
134063,-50,4,2,3,100,0,1
134170,-50,4,2,2,5,0,1
134277,-50,4,2,3,100,0,1
134384,-50,4,2,2,5,0,1
134491,-50,4,2,3,100,0,1
134599,-50,4,2,2,5,0,1
134706,-50,4,2,3,100,0,1
140813,-50,4,2,2,5,0,1
140920,-50,4,2,3,100,0,1
141027,-50,4,2,2,5,0,1
141134,-50,4,2,3,100,0,1
141241,-50,4,2,2,5,0,1
141348,-50,4,2,3,100,0,1
141456,-50,4,2,2,5,0,1
141563,-50,4,2,3,100,0,1
144242,-50,4,2,2,5,0,1
144349,-50,4,2,3,100,0,1
144456,-50,4,2,2,5,0,1
144563,-50,4,2,3,100,0,1
144670,-50,4,2,2,5,0,1
144777,-50,4,2,3,100,0,1
144885,-50,4,2,2,5,0,1
144992,-50,4,2,3,100,0,1
147670,-50,4,2,2,5,0,1
147777,-50,4,2,3,100,0,1
147884,-50,4,2,2,5,0,1
147991,-50,4,2,3,100,0,1
148098,-50,4,2,2,5,0,1
148205,-50,4,2,3,100,0,1
148313,-50,4,2,2,5,0,1
148420,-50,4,2,3,100,0,1
150992,-50,4,2,4,100,0,1
177563,-133.333333333333,4,2,4,100,0,0
177992,-66.6666666666667,4,2,2,5,0,0
178420,-80,4,2,1,40,0,0
191224,-80,4,2,2,5,0,0
192134,-80,4,2,1,50,0,0
218706,-133.333333333333,4,2,1,40,0,0
245277,-80,4,2,1,35,0,0
245706,-80,4,2,1,30,0,0
246134,-80,4,2,1,25,0,0
246563,-80,4,2,1,20,0,0
246992,-80,4,2,1,40,0,0
247849,-80,4,2,1,10,0,0
248277,-80,4,2,1,15,0,0
248706,-80,4,2,1,20,0,0
249134,-80,4,2,1,25,0,0
249563,-80,4,2,1,30,0,0
249992,-80,4,2,1,35,0,0
250420,-80,4,2,1,40,0,0
251277,-80,4,2,1,10,0,0
251705,-80,4,2,1,15,0,0
252134,-80,4,2,1,20,0,0
252562,-80,4,2,1,25,0,0
252991,-80,4,2,1,30,0,0
253420,-80,4,2,1,35,0,0
253848,-80,4,2,1,40,0,0
254706,-80,4,2,1,10,0,0
255134,-80,4,2,1,15,0,0
255563,-80,4,2,1,20,0,0
255991,-80,4,2,1,25,0,0
256420,-80,4,2,1,30,0,0
256849,-80,4,2,1,35,0,0
257277,-80,4,2,1,40,0,0
258134,-80,4,2,1,10,0,0
258562,-80,4,2,1,15,0,0
258991,-80,4,2,1,20,0,0
259419,-80,4,2,1,25,0,0
259848,-80,4,2,1,30,0,0
260277,-80,4,2,1,35,0,0
260705,-80,4,2,1,40,0,0
261563,-80,4,2,1,10,0,0
261991,-80,4,2,1,15,0,0
262420,-80,4,2,1,20,0,0
262848,-80,4,2,1,25,0,0
263277,-80,4,2,1,30,0,0
263706,-80,4,2,1,35,0,0
264134,-80,4,2,1,40,0,0
264992,-80,4,2,1,10,0,0
265420,-80,4,2,1,15,0,0
265849,-80,4,2,1,20,0,0
266277,-80,4,2,1,25,0,0
266706,-80,4,2,1,30,0,0
267135,-80,4,2,1,35,0,0
267563,-80,4,2,1,40,0,0
268420,-80,4,2,1,10,0,0
268848,-80,4,2,1,15,0,0
269277,-80,4,2,1,20,0,0
269705,-80,4,2,1,25,0,0
270134,-80,4,2,1,30,0,0
270563,-80,4,2,1,35,0,0
270991,-80,4,2,1,40,0,0
271849,-80,4,2,1,10,0,0
272277,-80,4,2,1,15,0,0
272706,-80,4,2,1,20,0,0
273134,-80,4,2,1,25,0,0
273563,-80,4,2,1,30,0,0
273992,-80,4,2,2,35,0,0
274420,-80,4,2,1,40,0,0
276670,-80,4,2,2,5,0,0
276777,-80,4,2,1,40,0,0
276884,-80,4,2,2,5,0,0
276991,-80,4,2,1,40,0,0
277848,-80,4,2,1,40,0,0
277955,-80,4,2,2,5,0,0
278062,-80,4,2,1,40,0,0
278169,-80,4,2,2,5,0,0
278276,-80,4,2,1,40,0,0
278383,-80,4,2,2,5,0,0
278490,-80,4,2,1,40,0,0
278597,-80,4,2,2,5,0,0
278705,-80,4,2,1,40,0,0
279670,-80,4,2,2,5,0,0
279777,-80,4,2,1,40,0,0
279884,-80,4,2,2,5,0,0
279991,-80,4,2,1,40,0,0
280098,-80,4,2,2,5,0,0
280205,-80,4,2,1,40,0,0
280312,-80,4,2,2,5,0,0
280420,-80,4,2,1,40,0,0
281277,-200,4,2,1,20,0,0
286420,-200,4,2,1,50,0,0
286474,-200,4,2,1,20,0,0
286742,-200,4,2,1,50,0,0
286795,-200,4,2,1,20,0,0
287063,-200,4,2,1,50,0,0
287117,-200,4,2,1,20,0,0
287277,-133.333333333333,4,2,4,50,0,0
287706,-133.333333333333,4,2,1,50,0,0
288134,-50,4,2,4,100,0,1
288992,-50,4,2,4,75,0,1
289849,-50,4,2,4,100,0,1
290706,-50,4,2,4,75,0,1
291563,-50,4,2,4,100,0,1
292420,-50,4,2,4,75,0,1
293277,-50,4,2,4,100,0,1
294134,-50,4,2,4,75,0,1
294992,-100,4,2,4,100,0,1
295420,-50,4,2,4,100,0,1
295849,-100,4,2,4,100,0,1
296277,-50,4,2,4,100,0,1
298420,-100,4,2,4,100,0,1
298848,-50,4,2,4,100,0,1
299277,-100,4,2,4,100,0,1
299705,-50,4,2,4,100,0,1
300992,-100,4,2,4,100,0,1
301420,-50,4,2,4,100,0,1
302706,-50,4,2,4,75,0,1
303563,-50,4,2,4,100,0,1
304420,-50,4,2,4,75,0,1
305277,-50,4,2,4,100,0,1
306134,-50,4,2,4,75,0,1
306992,-50,4,2,4,100,0,1
307849,-50,4,2,4,75,0,1
308706,-100,4,2,4,100,0,1
309134,-50,4,2,4,100,0,1
309563,-100,4,2,4,100,0,1
309991,-50,4,2,4,100,0,1
312134,-100,4,2,4,100,0,1
312562,-50,4,2,4,100,0,1
312992,-100,4,2,4,100,0,1
313420,-50,4,2,4,100,0,1
314706,-100,4,2,4,100,0,1
315563,-50,4,2,4,100,0,1
342134,-133.333333333333,4,2,4,100,0,0
342563,-66.6666666666667,4,2,2,5,0,0
342992,-200,4,2,1,40,0,0
357563,-200,4,2,2,40,0,0
358420,-200,4,2,5,40,0,0
359277,-200,4,2,2,20,0,0
360134,-200,4,2,1,40,0,0
360992,-200,4,2,5,40,0,0
361849,-200,4,2,2,40,0,0
362706,-200,4,2,1,40,0,0
363134,-200,4,2,2,40,0,0
363563,-200,4,2,1,40,0,0
364420,-200,4,2,2,40,0,0
365277,-200,4,2,5,40,0,0
366134,-200,4,2,2,40,0,0
366992,-200,4,2,1,40,0,0
367849,-200,4,2,5,40,0,0
368706,-200,4,2,2,40,0,0
369563,-200,4,2,2,40,0,0
369992,-200,4,2,2,5,0,0
370420,-200,4,2,1,40,0,0
371277,-200,4,2,2,40,0,0
372134,-200,4,2,5,40,0,0
372992,-200,4,2,2,5,0,0
373849,-200,4,2,1,40,0,0
374706,-200,4,2,5,40,0,0
375563,-200,4,2,2,40,0,0
376420,-200,4,2,1,40,0,0
376849,-200,4,2,2,40,0,0
377277,-200,4,2,1,40,0,0
378134,-200,4,2,2,40,0,0
378992,-200,4,2,5,40,0,0
379849,-200,4,2,2,40,0,0
380706,-200,4,2,1,40,0,0
381563,-200,4,2,5,40,0,0
382420,-200,4,2,2,40,0,0
384134,-200,4,2,1,40,0,0
384992,-200,4,2,2,40,0,0
385849,-200,4,2,5,40,0,0
386277,-200,4,2,2,5,0,0
387563,-200,4,2,1,40,0,0
388420,-200,4,2,5,40,0,0
389277,-200,4,2,2,40,0,0
389706,-200,4,2,2,5,0,0
390134,-200,4,2,1,40,0,0
390563,-200,4,2,2,40,0,0
390992,-200,4,2,1,40,0,0
391849,-200,4,2,2,40,0,0
392706,-200,4,2,5,40,0,0
393134,-200,4,2,2,40,0,0
394420,-200,4,2,1,40,0,0
395277,-200,4,2,5,40,0,0
396992,-200,4,2,2,40,0,0
397849,-200,4,2,0,5,0,0
411134,-200,4,2,2,5,0,0
411563,-250,4,2,0,5,0,0
412420,-250,4,2,2,5,0,0
413277,-250,4,2,0,5,0,0
415849,-250,4,2,2,5,0,0
416706,-250,4,2,0,5,0,0
419277,-250,4,2,2,5,0,0
420134,-250,4,2,0,5,0,0
421849,-500,4,2,0,5,0,0
422706,-250,4,2,2,5,0,0

[Colours]
Combo1 : 0,255,198
Combo2 : 96,64,32
Combo3 : 143,96,48
Combo4 : 231,88,88
Combo5 : 231,196,88
Combo6 : 255,0,160
Combo7 : 130,64,255
Combo8 : 0,255,255
SliderBorder : 255,200,60
SliderTrackOverride : 10,0,40

[HitObjects]
34,125,13849,6,0,B|-2:216|138:306|220:170|146:96|146:96|187:83|207:49|207:49|208:95|242:118|242:118|257:76|293:55,1,560,4|0,0:0|0:0,0:0:0:0:
348,153,17277,6,0,B|383:134|426:148|426:148|438:269|298:270|270:201|270:201|263:274|205:270|235:355,1,480,2|2,0:0|0:0,0:0:0:0:
178,75,20706,102,0,B|90:9|17:64|-1:198|135:196|135:196|68:241|68:241|144:269|144:198|233:222,1,560,2|0,0:0|0:0,0:0:0:0:
373,315,24134,6,0,B|433:248|401:165|401:165|242:150|242:150|224:112|251:74|251:74|330:82|330:82|389:83|407:54,1,560,2|0,0:0|0:0,0:0:0:0:
340,231,27563,102,0,L|212:218,1,120.000004577637,4|4,0:0|0:0,0:0:0:0:
129,331,28420,2,0,P|143:269|129:236,1,60.0000022888184,8|2,0:0|0:0,0:0:0:0:
86,130,28849,2,0,P|66:210|84:253,1,120.000004577637,0|6,0:0|0:0,0:0:0:0:
161,83,29706,2,0,P|114:43|83:46,1,60.0000022888184,0|2,0:0|0:0,0:0:0:0:
175,189,30134,1,8,0:0:0:0:
28,83,30563,1,0,0:0:0:0:
113,333,30884,5,4,0:0:0:0:
113,333,30992,2,0,P|168:344|247:318,1,120.000004577637,4|4,0:0|0:0,0:0:0:0:
63,258,31849,1,8,0:0:0:0:
229,328,32277,2,0,P|242:284|240:258,1,60.0000022888184,0|2,0:0|0:0,0:0:0:0:
201,189,32706,2,0,P|276:186|329:140,1,120.000004577637,2|0,0:0|0:0,0:0:0:0:
311,162,33349,1,2,0:0:0:0:
147,136,33563,2,0,P|126:178|128:207,1,60.0000022888184,8|2,0:0|0:0,0:0:0:0:
224,114,33992,2,0,P|198:74|172:62,1,60.0000022888184,0|2,0:0|0:0,0:0:0:0:
86,277,34420,102,0,P|161:274|214:228,1,120.000004577637,4|4,0:0|0:0,0:0:0:0:
284,92,35277,2,0,P|249:158|262:227,1,120.000004577637,8|0,0:0|0:0,0:0:0:0:
406,293,36134,2,0,L|400:148,1,120.000004577637,2|0,0:0|0:0,0:0:0:0:
474,120,36777,1,2,0:0:0:0:
328,226,36992,2,0,P|276:230|214:189,1,120.000004577637,8|0,0:0|0:0,0:0:0:0:
383,151,37742,5,4,0:0:0:0:
383,151,37849,2,0,P|412:194|407:268,1,120.000004577637,4|4,0:0|0:0,0:0:0:0:
243,325,38706,2,0,L|107:313,1,120.000004577637,8|0,0:0|0:0,0:0:0:0:
203,94,39563,2,0,P|238:92|270:110,1,60.0000022888184,4|2,0:0|0:0,0:0:0:0:
93,168,39884,2,0,P|73:138|73:101,1,60.0000022888184,4|2,0:0|0:0,0:0:0:0:
209,231,40206,2,0,P|199:247|183:262,1,30.0000011444092,4|2,0:0|0:0,0:0:0:0:
38,346,40420,2,0,L|159:337,1,120.000004577637,8|8,0:0|0:0,0:0:0:0:
306,235,41277,102,0,P|302:194|277:158,1,60.0000022888184,4|2,0:0|0:0,0:0:0:0:
253,305,41706,2,0,P|290:322|334:318,1,60.0000022888184,4|2,0:0|0:0,0:0:0:0:
438,290,42134,2,0,P|400:272|356:276,1,60.0000022888184,8|2,0:0|0:0,0:0:0:0:
253,305,42563,2,0,P|263:257|235:190,1,120.000004577637,0|2,0:0|0:0,0:0:0:0:
178,261,43206,1,2,0:0:0:0:
317,199,43420,2,0,L|443:189,2,120.000004577637,0|8|0,0:0|0:0|0:0,0:0:0:0:
191,89,44599,5,4,0:0:0:0:
191,89,44706,2,0,P|251:84|308:128,1,120.000004577637,4|4,0:0|0:0,0:0:0:0:
228,231,45349,2,0,P|224:201|240:155,1,60.0000022888184,2|8,0:0|0:0,0:0:0:0:
295,273,45777,1,2,0:0:0:0:
160,264,45992,2,0,P|152:204|175:120,1,120.000004577637,0|2,0:0|0:0,0:0:0:0:
240,101,46634,1,2,0:0:0:0:
164,51,46849,2,0,P|123:59|101:78,1,60.0000022888184,0|2,0:0|0:0,0:0:0:0:
152,203,47277,2,0,P|165:163|160:134,1,60.0000022888184,8|2,0:0|0:0,0:0:0:0:
67,252,47706,2,0,P|94:283|121:293,1,60.0000022888184,0|2,0:0|0:0,0:0:0:0:
218,238,48134,102,0,L|356:247,1,120.000004577637,4|4,0:0|0:0,0:0:0:0:
172,172,48992,2,0,P|138:220|149:277,1,120.000004577637,8|0,0:0|0:0,0:0:0:0:
291,179,49849,2,0,L|171:171,1,120.000004577637,2|0,0:0|0:0,0:0:0:0:
105,233,50492,1,2,0:0:0:0:
237,109,50706,2,0,L|356:116,1,120.000004577637,8|0,0:0|0:0,0:0:0:0:
183,170,51456,5,4,0:0:0:0:
183,170,51563,2,0,P|158:120|174:60,1,120.000004577637,4|4,0:0|0:0,0:0:0:0:
274,209,52420,2,0,P|243:255|183:271,1,120.000004577637,8|0,0:0|0:0,0:0:0:0:
259,108,53277,2,0,P|286:104|321:118,1,60.0000022888184,4|2,0:0|0:0,0:0:0:0:
304,295,53599,2,0,P|287:273|281:236,1,60.0000022888184,4|2,0:0|0:0,0:0:0:0:
450,181,53920,2,0,P|444:193|430:205,1,30.0000011444092,4|2,0:0|0:0,0:0:0:0:
281,242,54134,2,0,L|140:251,1,120.000004577637,8|4,0:0|0:0,0:0:0:0:
444,103,54992,6,0,P|455:142|437:210,1,100,4|2,0:0|0:0,0:0:0:0:
254,201,55420,1,4,0:0:0:0:
298,179,55527,1,2,0:0:0:0:
348,171,55634,1,0,0:0:0:0:
397,178,55742,1,2,0:0:0:0:
443,198,55849,1,8,0:0:0:0:
283,319,56063,1,2,0:0:0:0:
234,125,56277,2,0,L|135:117,1,100,0|2,0:0|0:0,0:0:0:0:
75,291,56706,5,4,0:0:0:0:
283,319,56920,1,2,0:0:0:0:
78,103,57134,1,0,0:0:0:0:
54,147,57242,1,2,0:0:0:0:
46,196,57349,1,4,0:0:0:0:
53,245,57456,1,2,0:0:0:0:
74,290,57563,1,8,0:0:0:0:
205,138,57777,1,2,0:0:0:0:
283,319,57992,2,0,P|336:333|382:312,1,100,0|2,0:0|0:0,0:0:0:0:
325,231,58313,101,4,0:0:0:0:
325,231,58420,1,4,0:0:0:0:
150,328,58634,1,2,0:0:0:0:
123,129,58849,1,4,0:0:0:0:
172,126,58956,1,2,0:0:0:0:
222,123,59063,1,0,0:0:0:0:
272,121,59170,1,2,0:0:0:0:
322,118,59277,2,0,P|332:162|320:218,1,100,8|2,0:0|0:0,0:0:0:0:
123,129,59706,2,0,P|112:84|125:29,1,100,0|2,0:0|0:0,0:0:0:0:
321,214,60134,5,4,0:0:0:0:
421,41,60349,1,2,0:0:0:0:
223,183,60563,1,0,0:0:0:0:
178,203,60670,1,2,0:0:0:0:
129,211,60777,1,4,0:0:0:0:
79,205,60884,1,2,0:0:0:0:
33,185,60992,1,8,0:0:0:0:
33,185,61206,1,2,0:0:0:0:
274,63,61420,1,8,0:0:0:0:
274,63,61634,1,2,0:0:0:0:
212,294,61849,101,4,0:0:0:0:
106,124,62063,1,2,0:0:0:0:
29,318,62277,1,4,0:0:0:0:
75,336,62384,1,2,0:0:0:0:
124,338,62492,1,0,0:0:0:0:
172,323,62599,1,2,0:0:0:0:
212,294,62706,2,0,P|267:268|339:278,1,100,8|2,0:0|0:0,0:0:0:0:
471,341,63134,1,0,0:0:0:0:
418,147,63349,1,2,0:0:0:0:
212,294,63563,6,0,P|188:250|185:200,1,100,4|2,0:0|0:0,0:0:0:0:
325,57,63992,1,0,0:0:0:0:
349,100,64099,1,2,0:0:0:0:
357,149,64206,1,4,0:0:0:0:
350,198,64313,1,2,0:0:0:0:
326,242,64420,2,0,P|304:188|317:131,1,100,8|2,0:0|0:0,0:0:0:0:
468,255,64849,2,0,P|475:313|448:365,1,100,0|2,0:0|0:0,0:0:0:0:
374,300,65170,101,4,0:0:0:0:
374,300,65277,1,4,0:0:0:0:
177,335,65492,1,2,0:0:0:0:
343,223,65706,1,4,0:0:0:0:
364,178,65813,1,2,0:0:0:0:
372,129,65920,1,0,0:0:0:0:
363,79,66027,1,2,0:0:0:0:
340,35,66134,2,0,L|232:44,1,100,8|2,0:0|0:0,0:0:0:0:
175,233,66563,2,0,L|274:225,1,100,0|2,0:0|0:0,0:0:0:0:
80,173,66992,6,0,P|59:223|75:281,1,100,4|2,0:0|0:0,0:0:0:0:
190,109,67313,2,0,P|156:66|98:50,1,100,4|2,0:0|0:0,0:0:0:0:
199,232,67634,2,0,P|226:228|255:208,1,50,4|2,0:0|0:0,0:0:0:0:
336,37,67849,1,8,0:0:0:0:
389,284,68063,1,2,0:0:0:0:
405,84,68277,1,8,0:0:0:0:
316,329,68492,1,2,0:0:0:0:
405,84,68706,102,0,L|271:73,1,100,4|2,0:0|0:0,1:0:0:0:
272,272,69134,1,4,0:0:0:0:
294,227,69242,1,2,0:0:0:0:
292,178,69349,1,0,0:0:0:0:
266,136,69456,1,2,0:0:0:0:
223,112,69563,2,0,L|89:101,1,100,8|2,0:0|0:0,0:0:0:0:
292,178,69992,2,0,P|316:140|311:84,1,100,0|2,0:0|0:0,1:0:0:0:
149,202,70420,6,0,L|138:336,1,100,4|2,0:0|0:0,0:0:0:0:
224,119,70849,1,0,0:0:0:0:
264,90,70956,1,2,0:0:0:0:
313,86,71063,1,4,0:0:0:0:
357,108,71170,1,2,0:0:0:0:
384,149,71277,2,0,L|373:283,1,100,8|2,0:0|0:0,1:0:0:0:
148,290,71706,2,0,L|150:265,7,25,2|0|2|0|2|0|2|0,0:0|0:0|0:0|0:0|0:0|0:0|0:0|0:0,0:0:0:0:
155,217,72134,102,0,P|202:203|251:212,1,100,4|2,0:0|0:0,1:0:0:0:
426,309,72563,1,4,0:0:0:0:
389,275,72670,1,2,0:0:0:0:
370,230,72777,1,0,0:0:0:0:
372,180,72884,1,2,0:0:0:0:
396,137,72992,2,0,P|418:187|403:234,1,100,8|2,0:0|0:0,0:0:0:0:
272,82,73420,2,0,L|166:75,1,100,0|2,0:0|0:0,1:0:0:0:
95,260,73849,5,4,0:0:0:0:
272,167,74063,1,2,0:0:0:0:
95,260,74277,1,0,0:0:0:0:
61,223,74384,1,2,0:0:0:0:
50,175,74492,1,4,0:0:0:0:
62,127,74599,1,2,0:0:0:0:
95,90,74706,2,0,L|194:96,1,100,8|2,0:0|0:0,1:0:0:0:
375,238,75134,2,0,L|350:236,7,25,10|0|2|0|2|0|2|0,0:0|0:0|0:0|0:0|0:0|0:0|0:0|0:0,0:0:0:0:
299,230,75563,102,0,L|199:223,1,100,4|2,0:0|0:0,1:0:0:0:
375,320,75992,1,4,0:0:0:0:
421,304,76099,1,2,0:0:0:0:
451,264,76206,1,0,0:0:0:0:
452,215,76313,1,2,0:0:0:0:
425,174,76420,2,0,P|405:138|428:64,1,100,8|2,0:0|0:0,0:0:0:0:
299,230,76849,2,0,L|199:223,1,100,0|2,0:0|0:0,1:0:0:0:
39,342,77277,6,0,P|88:339|125:307,1,100,4|2,0:0|0:0,0:0:0:0:
90,83,77706,1,0,0:0:0:0:
54,118,77813,1,2,0:0:0:0:
36,164,77920,1,4,0:0:0:0:
36,213,78027,1,2,0:0:0:0:
56,259,78134,2,0,L|156:266,1,100,8|2,0:0|0:0,1:0:0:0:
373,210,78563,2,0,L|348:209,7,25,2|0|2|0|2|0|6|0,0:0|0:0|0:0|0:0|0:0|0:0|0:0|0:0,0:0:0:0:
297,202,78992,102,0,P|284:144|308:95,1,100,4|2,0:0|0:0,1:0:0:0:
377,299,79420,1,4,0:0:0:0:
337,328,79527,1,2,0:0:0:0:
288,338,79634,1,0,0:0:0:0:
240,327,79742,1,2,0:0:0:0:
202,295,79849,1,8,0:0:0:0:
360,172,80063,1,2,0:0:0:0:
143,250,80277,2,0,P|127:301|145:343,1,100,0|2,0:0|0:0,1:0:0:0:
231,150,80706,6,0,P|184:122|139:128,1,100,4|2,0:0|0:0,0:0:0:0:
103,158,81027,1,4,0:0:0:0:
90,206,81134,1,0,0:0:0:0:
107,252,81242,1,2,0:0:0:0:
147,280,81349,1,4,0:0:0:0:
197,280,81456,1,2,0:0:0:0:
235,249,81563,2,0,L|230:146,1,100,8|2,0:0|0:0,1:0:0:0:
325,343,81992,2,0,L|323:317,7,25,10|0|2|0|2|0|2|0,0:0|0:0|0:0|0:0|0:0|0:0|0:0|0:0,0:0:0:0:
320,271,82420,102,0,P|373:254|427:270,1,100,4|2,0:0|0:0,1:0:0:0:
239,345,82849,1,4,0:0:0:0:
217,300,82956,1,2,0:0:0:0:
216,250,83063,1,0,0:0:0:0:
236,205,83170,1,2,0:0:0:0:
274,173,83277,1,8,0:0:0:0:
415,263,83492,1,2,0:0:0:0:
272,94,83706,2,0,L|62:108,1,200,0|4,0:0|0:0,1:0:0:0:
39,305,84349,5,2,0:0:0:0:
192,177,84563,1,0,0:0:0:0:
241,175,84670,1,2,0:0:0:0:
284,199,84777,1,4,0:0:0:0:
327,224,84884,1,2,0:0:0:0:
376,222,84992,2,0,P|389:180|370:122,1,100,8|2,0:0|0:0,1:0:0:0:
453,337,85420,2,0,L|447:313,7,25,2|0|2|0|2|0|6|0,0:0|0:0|0:0|0:0|0:0|0:0|0:0|0:0,0:0:0:0:
434,264,85849,102,0,L|317:256,1,100,4|2,0:0|0:0,1:0:0:0:
149,333,86277,1,4,0:0:0:0:
196,318,86384,1,2,0:0:0:0:
229,281,86492,1,0,0:0:0:0:
239,233,86599,1,2,0:0:0:0:
224,186,86706,2,0,L|323:192,1,100,8|2,0:0|0:0,0:0:0:0:
453,337,87134,1,0,0:0:0:0:
404,131,87349,2,0,L|304:124,1,100,2|4,0:0|0:0,0:0:0:0:
437,273,87777,5,2,0:0:0:0:
304,124,87992,1,0,0:0:0:0:
254,120,88099,1,2,0:0:0:0:
204,117,88206,1,4,0:0:0:0:
154,113,88313,1,2,0:0:0:0:
104,110,88420,2,0,P|90:157|105:204,1,100,8|2,0:0|0:0,1:0:0:0:
326,114,88849,2,0,L|304:124,7,25,10|0|2|0|2|0|2|0,0:0|0:0|0:0|0:0|0:0|0:0|0:0|0:0,0:0:0:0:
258,143,89277,102,0,P|244:190|259:237,1,100,4|2,0:0|0:0,1:0:0:0:
351,60,89706,1,4,0:0:0:0:
305,40,89813,1,2,0:0:0:0:
255,33,89920,1,0,0:0:0:0:
206,42,90027,1,2,0:0:0:0:
161,63,90134,2,0,L|150:169,1,100,8|2,0:0|0:0,0:0:0:0:
326,114,90563,2,0,L|337:220,1,100,0|2,0:0|0:0,1:0:0:0:
150,162,90992,6,0,L|139:268,1,100,4|2,0:0|0:0,0:0:0:0:
326,114,91420,1,0,0:0:0:0:
331,164,91527,1,2,0:0:0:0:
336,214,91634,1,4,0:0:0:0:
342,263,91742,1,2,0:0:0:0:
347,313,91849,2,0,P|290:302|245:314,1,100,8|2,0:0|0:0,1:0:0:0:
447,342,92277,2,0,L|443:308,7,25,2|0|2|0|2|0|6|0,0:0|0:0|0:0|0:0|0:0|0:0|0:0|0:0,0:0:0:0:
438,267,92706,102,0,L|424:148,1,100,4|2,0:0|0:0,1:0:0:0:
254,66,93134,1,4,0:0:0:0:
204,64,93242,1,2,0:0:0:0:
158,82,93349,1,0,0:0:0:0:
123,117,93456,1,2,0:0:0:0:
106,164,93563,1,8,0:0:0:0:
304,132,93777,1,2,0:0:0:0:
186,294,93992,1,0,0:0:0:0:
158,82,94206,1,2,0:0:0:0:
317,236,94420,6,0,P|347:231|395:181,1,100,4|2,0:0|0:0,0:0:0:0:
178,200,94742,2,0,P|167:228|186:295,1,100,4|2,0:0|0:0,0:0:0:0:
256,106,95063,2,0,P|232:88|211:84,1,50,4|2,0:0|0:0,0:0:0:0:
317,236,95277,2,0,B|363:235|412:202|402:140|395:118|395:118|421:150|459:148,1,240.000009155274,8|4,0:0|0:0,0:0:0:0:
256,192,96188,12,4,99563,0:0:0:0:
152,94,109849,101,4,0:0:0:0:
236,274,110063,2,0,P|305:276|347:246,1,100,0|2,0:0|0:0,0:0:0:0:
247,79,110492,1,0,0:0:0:0:
121,234,110706,2,0,P|119:303|149:345,2,100,8|0|0,0:0|0:0|0:0,0:0:0:0:
330,261,111349,1,0,0:0:0:0:
247,79,111563,5,4,0:0:0:0:
133,328,111777,1,4,0:0:0:0:
291,169,111992,2,0,L|346:165,1,50,2|0,0:0|0:0,0:0:0:0:
330,261,112206,2,0,L|385:257,1,50,2|0,0:0|0:0,0:0:0:0:
247,79,112420,2,0,L|147:86,1,100,8|0,0:0|0:0,0:0:0:0:
330,261,112849,1,0,0:0:0:0:
247,79,113063,1,0,0:0:0:0:
144,321,113277,102,0,P|166:332|205:334,1,50,4|0,0:0|0:0,0:0:0:0:
71,230,113492,2,0,P|78:253|104:282,1,50,4|0,0:0|0:0,0:0:0:0:
73,114,113706,2,0,P|62:136|60:175,1,50,2|0,0:0|0:0,0:0:0:0:
164,41,113920,2,0,P|140:48|111:74,1,50,4|0,0:0|0:0,0:0:0:0:
247,79,114134,2,0,L|347:84,1,100,8|0,0:0|0:0,0:0:0:0:
267,268,114563,1,0,0:0:0:0:
346,83,114777,1,0,0:0:0:0:
462,272,114992,6,0,P|473:294|475:333,1,50,4|0,0:0|0:0,0:0:0:0:
371,199,115206,2,0,P|394:206|423:232,1,50,2|0,0:0|0:0,0:0:0:0:
255,201,115420,2,0,P|277:190|316:188,1,50,4|0,0:0|0:0,0:0:0:0:
182,292,115634,2,0,P|189:268|215:239,1,50,2|0,0:0|0:0,0:0:0:0:
104,345,115849,2,0,L|116:227,1,100,8|0,0:0|0:0,0:0:0:0:
181,57,116277,2,0,L|169:175,1,100,0|4,0:0|0:0,0:0:0:0:
35,346,116706,101,4,0:0:0:0:
94,103,116920,1,4,0:0:0:0:
286,261,117134,1,4,0:0:0:0:
38,220,117349,1,2,0:0:0:0:
261,109,117563,2,0,P|273:158|254:212,1,100,8|0,0:0|0:0,0:0:0:0:
36,315,117992,2,0,P|24:266|43:212,1,100,0|4,0:0|0:0,0:0:0:0:
271,306,118420,5,4,0:0:0:0:
351,69,118634,1,4,0:0:0:0:
271,306,118849,1,4,0:0:0:0:
105,118,119063,1,2,0:0:0:0:
351,69,119277,2,0,L|248:89,1,100,8|0,0:0|0:0,0:0:0:0:
465,221,119706,2,0,L|362:241,1,100,0|4,0:0|0:0,0:0:0:0:
168,87,120134,101,6,0:0:0:0:
215,71,120242,1,0,0:0:0:0:
264,78,120349,1,4,0:0:0:0:
306,104,120456,1,2,0:0:0:0:
333,145,120563,1,4,0:0:0:0:
341,194,120670,1,0,0:0:0:0:
327,242,120777,1,6,0:0:0:0:
294,279,120884,1,0,0:0:0:0:
249,300,120992,5,14,0:0:0:0:
195,277,121099,1,0,0:0:0:0:
171,224,121206,1,4,0:0:0:0:
198,173,121313,1,2,0:0:0:0:
256,164,121420,1,4,0:0:0:0:
314,180,121527,1,0,0:0:0:0:
373,190,121634,1,6,0:0:0:0:
429,172,121742,1,0,0:0:0:0:
466,126,121849,102,0,L|473:95,7,30.0000011444092,6|0|4|0|6|0|4|0,0:0|0:0|0:0|0:0|0:0|0:0|0:0|0:0,0:0:0:0:
400,74,122277,2,0,L|393:42,7,30.0000011444092,6|0|4|0|6|0|4|0,0:0|0:0|0:0|0:0|0:0|0:0|0:0|0:0,0:0:0:0:
317,55,122706,6,0,L|102:42,1,200,8|2,0:0|0:0,0:0:0:0:
334,167,123349,1,8,0:0:0:0:
39,43,123563,5,4,0:0:0:0:
355,84,123777,2,0,P|394:104|401:217,1,160,2|2,0:0|0:0,0:0:0:0:
113,78,124206,1,4,0:0:0:0:
351,290,124420,6,0,P|419:307|499:258,1,160,10|2,0:0|0:0,0:0:0:0:
207,120,124849,2,0,P|139:103|59:151,1,160,2|2,0:0|0:0,0:0:0:0:
351,290,125277,101,4,0:0:0:0:
207,120,125420,1,4,0:0:0:0:
384,206,125563,1,4,0:0:0:0:
194,303,125706,1,10,0:0:0:0:
282,112,125849,1,2,0:0:0:0:
87,219,125992,1,2,0:0:0:0:
293,267,126134,5,4,0:0:0:0:
148,109,126277,1,4,0:0:0:0:
361,102,126420,1,4,0:0:0:0:
191,253,126563,1,10,0:0:0:0:
245,52,126706,1,2,0:0:0:0:
352,230,126849,1,2,0:0:0:0:
148,109,126992,102,0,L|61:100,1,80,4|0,0:0|0:0,0:0:0:0:
324,60,127206,2,0,L|245:52,1,80,4|0,0:0|0:0,0:0:0:0:
124,175,127420,2,0,L|203:183,1,80,2|0,0:0|0:0,0:0:0:0:
379,134,127634,2,0,L|300:126,1,80,4|0,0:0|0:0,0:0:0:0:
311,266,127849,6,0,P|334:285|356:135,1,320,8|6,0:0|0:0,0:0:0:0:
91,40,128706,101,4,0:0:0:0:
34,256,128849,1,2,0:0:0:0:
227,141,128992,1,2,0:0:0:0:
81,311,129134,1,10,0:0:0:0:
154,99,129277,1,2,0:0:0:0:
293,274,129420,1,2,0:0:0:0:
92,178,129563,5,4,0:0:0:0:
307,116,129706,1,2,0:0:0:0:
184,303,129849,1,2,0:0:0:0:
235,84,129992,1,10,0:0:0:0:
389,246,130134,1,2,0:0:0:0:
298,40,130277,1,2,0:0:0:0:
293,274,130420,102,0,P|320:320|366:340,1,80,4|0,0:0|0:0,0:0:0:0:
213,225,130634,2,0,P|199:276|217:323,1,80,4|0,0:0|0:0,0:0:0:0:
183,133,130849,2,0,P|137:160|117:206,1,80,4|0,0:0|0:0,0:0:0:0:
232,53,131063,2,0,P|180:39|133:57,1,80,2|0,0:0|0:0,0:0:0:0:
256,167,131277,6,0,P|320:165|230:55,1,320,8|6,0:0|0:0,0:0:0:0:
448,327,132134,101,4,0:0:0:0:
233,230,132277,1,4,0:0:0:0:
477,181,132420,1,2,0:0:0:0:
271,286,132563,1,8,0:0:0:0:
434,120,132706,1,2,0:0:0:0:
364,344,132849,1,2,0:0:0:0:
283,136,132992,5,4,0:0:0:0:
186,336,133134,1,4,0:0:0:0:
346,179,133277,1,2,0:0:0:0:
139,267,133420,1,8,0:0:0:0:
364,344,133563,1,2,0:0:0:0:
228,174,133706,1,2,0:0:0:0:
364,344,133849,102,0,P|326:355|287:346,1,80,4|0,0:0|0:0,0:0:0:0:
457,242,134063,2,0,P|448:280|421:309,1,80,4|0,0:0|0:0,0:0:0:0:
415,109,134277,2,0,P|444:135|455:173,1,80,4|0,0:0|0:0,0:0:0:0:
281,80,134492,2,0,P|318:68|357:77,1,80,2|0,0:0|0:0,0:0:0:0:
210,180,134706,6,0,P|126:89|231:126,1,320,8|6,0:0|0:0,0:0:0:0:
51,337,135563,101,4,0:0:0:0:
111,114,135706,1,4,0:0:0:0:
184,325,135849,1,2,0:0:0:0:
39,153,135992,1,10,0:0:0:0:
254,208,136134,1,4,0:0:0:0:
30,225,136277,1,4,0:0:0:0:
233,96,136420,5,2,0:0:0:0:
184,315,136563,1,2,0:0:0:0:
356,171,136706,1,4,0:0:0:0:
149,254,136849,1,12,0:0:0:0:
358,330,136992,1,2,0:0:0:0:
181,191,137134,1,2,0:0:0:0:
395,255,137277,101,4,0:0:0:0:
108,77,137492,2,0,P|48:127|47:204,1,160,2|2,0:0|0:0,0:0:0:0:
371,119,137920,1,4,0:0:0:0:
120,318,138134,6,0,P|121:240|180:190,1,160,10|2,0:0|0:0,0:0:0:0:
477,344,138563,2,0,P|399:342|349:283,1,160,2|2,0:0|0:0,0:0:0:0:
428,44,138992,101,4,0:0:0:0:
433,266,139134,1,4,0:0:0:0:
308,79,139277,1,4,0:0:0:0:
452,250,139420,1,10,0:0:0:0:
239,177,139563,1,2,0:0:0:0:
458,223,139706,1,2,0:0:0:0:
234,245,139849,5,4,0:0:0:0:
453,198,139992,1,4,0:0:0:0:
240,272,140134,1,4,0:0:0:0:
384,101,140277,1,10,0:0:0:0:
259,288,140420,1,2,0:0:0:0:
264,66,140563,1,2,0:0:0:0:
363,266,140706,102,0,L|373:353,1,80,4|0,0:0|0:0,0:0:0:0:
249,208,140920,2,0,L|259:295,1,80,4|0,0:0|0:0,0:0:0:0:
438,337,141134,2,0,L|428:257,1,80,2|0,0:0|0:0,0:0:0:0:
308,134,141349,2,0,L|317:213,1,80,4|0,0:0|0:0,0:0:0:0:
438,337,141563,6,0,P|443:283|257:289,1,320,8|6,0:0|0:0,0:0:0:0:
432,98,142420,101,4,0:0:0:0:
350,307,142563,1,2,0:0:0:0:
212,129,142706,1,2,0:0:0:0:
396,256,142849,1,10,0:0:0:0:
407,32,142992,1,2,0:0:0:0:
332,241,143134,1,2,0:0:0:0:
470,64,143277,5,4,0:0:0:0:
459,287,143420,1,2,0:0:0:0:
346,93,143563,1,2,0:0:0:0:
341,317,143706,1,10,0:0:0:0:
478,139,143849,1,2,0:0:0:0:
288,259,143992,1,2,0:0:0:0:
362,49,144134,102,0,P|413:38|464:53,1,80,4|0,0:0|0:0,0:0:0:0:
273,163,144349,2,0,P|288:113|327:76,1,80,4|0,0:0|0:0,0:0:0:0:
167,255,144563,2,0,P|216:241|253:200,1,80,4|0,0:0|0:0,0:0:0:0:
33,201,144777,2,0,P|71:236|123:248,1,80,2|0,0:0|0:0,0:0:0:0:
140,72,144992,6,0,P|237:101|155:254,1,320,8|6,0:0|0:0,0:0:0:0:
375,110,145849,101,4,0:0:0:0:
157,162,145992,1,4,0:0:0:0:
362,248,146134,1,2,0:0:0:0:
218,76,146277,1,8,0:0:0:0:
437,122,146420,1,2,0:0:0:0:
242,233,146563,1,2,0:0:0:0:
365,46,146706,5,4,0:0:0:0:
144,88,146849,1,4,0:0:0:0:
349,178,146992,1,2,0:0:0:0:
128,207,147134,1,8,0:0:0:0:
334,89,147277,1,2,0:0:0:0:
177,249,147420,1,2,0:0:0:0:
385,317,147563,102,0,P|408:282|408:238,1,80,4|0,0:0|0:0,0:0:0:0:
242,233,147777,2,0,P|274:255|314:257,1,80,4|0,0:0|0:0,0:0:0:0:
334,89,147992,2,0,P|311:121|309:161,1,80,4|0,0:0|0:0,0:0:0:0:
476,170,148206,2,0,P|443:147|403:145,1,80,2|0,0:0|0:0,0:0:0:0:
314,257,148420,6,0,P|257:279|317:169,1,320,8|6,0:0|0:0,0:0:0:0:
105,319,149277,101,4,0:0:0:0:
160,101,149420,1,4,0:0:0:0:
190,323,149563,1,2,0:0:0:0:
82,126,149706,1,10,0:0:0:0:
254,268,149849,1,4,0:0:0:0:
216,46,149992,1,4,0:0:0:0:
154,262,150134,6,0,P|215:177|344:313,1,320,2|8,0:0|0:0,0:0:0:0:
301,53,150777,1,2,0:0:0:0:
431,313,150992,102,0,P|388:358|316:348,1,106.666666666667,4|0,0:0|0:0,0:0:0:0:
365,138,151277,1,0,0:0:0:0:
206,299,151420,2,0,L|76:309,1,106.666666666667,4|0,0:0|0:0,0:0:0:0:
160,89,151706,1,0,0:0:0:0:
305,257,151849,6,0,L|411:248,1,106.666666666667,8|0,0:0|0:0,0:0:0:0:
192,198,152134,1,0,0:0:0:0:
415,163,152277,2,0,P|463:184|494:233,2,106.666666666667,2|2|2,0:0|0:0|0:0,0:0:0:0:
206,299,152706,102,0,L|100:308,1,106.666666666667,4|0,0:0|0:0,0:0:0:0:
233,126,152992,1,0,0:0:0:0:
342,319,153134,1,0,0:0:0:0:
303,98,153277,1,0,0:0:0:0:
206,299,153420,1,0,0:0:0:0:
368,144,153563,6,0,L|377:250,1,106.666666666667,8|0,0:0|0:0,0:0:0:0:
248,64,153849,1,0,0:0:0:0:
438,182,153992,1,6,0:0:0:0:
211,183,154134,1,2,0:0:0:0:
398,59,154277,1,2,0:0:0:0:
268,242,154420,102,0,L|277:348,1,106.666666666667,4|0,0:0|0:0,0:0:0:0:
342,132,154706,1,0,0:0:0:0:
134,216,154849,2,0,L|143:322,1,106.666666666667
208,106,155134,1,0,0:0:0:0:
375,295,155277,6,0,P|386:238|368:185,1,106.666666666667,8|0,0:0|0:0,0:0:0:0:
208,106,155563,2,0,P|197:163|215:216,1,106.666666666667
373,52,155849,1,2,0:0:0:0:
148,54,155992,1,2,0:0:0:0:
372,192,156134,102,0,L|486:181,1,106.666666666667,4|0,0:0|0:0,0:0:0:0:
233,138,156420,1,0,0:0:0:0:
431,263,156563,1,4,0:0:0:0:
294,71,156706,1,0,0:0:0:0:
338,301,156849,1,0,0:0:0:0:
141,171,156992,6,0,P|137:105|174:60,1,106.666666666667,8|0,0:0|0:0,0:0:0:0:
350,206,157277,1,4,0:0:0:0:
116,235,157420,1,4,0:0:0:0:
329,138,157563,1,2,0:0:0:0:
165,307,157706,1,2,0:0:0:0:
418,149,157849,102,0,P|413:96|377:58,1,106.666666666667,4|0,0:0|0:0,0:0:0:0:
334,289,158134,1,0,0:0:0:0:
266,75,158277,2,0,L|142:64,1,106.666666666667
330,212,158563,1,0,0:0:0:0:
119,141,158706,6,0,P|106:192|120:243,1,106.666666666667,8|0,0:0|0:0,0:0:0:0:
266,75,158992,1,0,0:0:0:0:
120,243,159134,2,0,L|-4:232,2,106.666666666667,2|2|2,0:0|0:0|0:0,0:0:0:0:
344,223,159563,102,0,P|345:160|307:117,1,106.666666666667,4|0,0:0|0:0,0:0:0:0:
201,317,159849,1,0,0:0:0:0:
245,97,159992,1,4,0:0:0:0:
319,290,160134,1,0,0:0:0:0:
168,124,160277,1,0,0:0:0:0:
104,340,160420,6,0,P|167:341|210:303,1,106.666666666667,8|0,0:0|0:0,0:0:0:0:
245,97,160706,1,0,0:0:0:0:
56,218,160849,1,6,0:0:0:0:
278,190,160992,1,2,0:0:0:0:
57,145,161134,1,2,0:0:0:0:
200,316,161277,102,0,L|190:206,1,106.666666666667,4|0,0:0|0:0,0:0:0:0:
342,351,161563,1,0,0:0:0:0:
274,137,161706,2,0,L|283:243,1,106.666666666667
398,49,161992,1,0,0:0:0:0:
194,135,162134,6,0,L|184:28,1,106.666666666667,8|0,0:0|0:0,0:0:0:0:
345,186,162420,2,0,L|335:79,1,106.666666666667
204,264,162706,1,2,0:0:0:0:
420,204,162849,1,2,0:0:0:0:
277,31,162992,102,0,P|258:81|280:132,1,106.666666666667,4|0,0:0|0:0,0:0:0:0:
480,221,163277,1,0,0:0:0:0:
256,233,163420,1,4,0:0:0:0:
428,89,163563,1,0,0:0:0:0:
222,178,163706,1,0,0:0:0:0:
418,322,163849,6,0,L|412:215,1,106.666666666667,8|4,0:0|0:0,0:0:0:0:
188,237,164134,1,4,0:0:0:0:
394,148,164277,1,4,0:0:0:0:
188,237,164420,1,2,0:0:0:0:
394,148,164563,1,2,0:0:0:0:
188,237,164706,102,0,L|179:348,1,106.666666666667,4|0,0:0|0:0,0:0:0:0:
277,140,164992,1,0,0:0:0:0:
71,225,165134,2,0,L|62:336,1,106.666666666667
82,106,165420,1,0,0:0:0:0:
260,241,165563,6,0,L|251:352,1,106.666666666667,8|0,0:0|0:0,0:0:0:0:
180,132,165849,1,0,0:0:0:0:
403,149,165992,2,0,P|417:186|395:266,2,106.666666666667,2|2|2,0:0|0:0|0:0,0:0:0:0:
203,333,166420,102,0,P|253:345|304:330,1,106.666666666667,4|0,0:0|0:0,0:0:0:0:
301,74,166706,1,0,0:0:0:0:
356,291,166849,1,4,0:0:0:0:
169,166,166992,1,0,0:0:0:0:
376,85,167134,1,0,0:0:0:0:
204,252,167277,6,0,P|140:257|103:234,1,106.666666666667,8|0,0:0|0:0,0:0:0:0:
192,28,167563,1,0,0:0:0:0:
318,213,167706,1,2,0:0:0:0:
144,70,167849,1,2,0:0:0:0:
376,85,167992,1,2,0:0:0:0:
169,166,168134,102,0,P|196:108|235:87,1,106.666666666667,4|0,0:0|0:0,0:0:0:0:
375,262,168420,1,0,0:0:0:0:
169,166,168563,2,0,L|46:161,1,106.666666666667
226,316,168849,1,0,0:0:0:0:
232,88,168992,6,0,L|338:92,1,106.666666666667,8|0,0:0|0:0,0:0:0:0:
168,237,169277,2,0,L|61:232,1,106.666666666667
279,174,169563,1,2,0:0:0:0:
62,161,169706,1,2,0:0:0:0:
257,270,169849,102,0,P|226:318|162:334,1,106.666666666667,4|0,0:0|0:0,0:0:0:0:
175,110,170134,1,0,0:0:0:0:
99,311,170277,1,4,0:0:0:0:
279,174,170420,1,0,0:0:0:0:
43,252,170563,1,0,0:0:0:0:
128,44,170706,6,0,L|246:55,1,106.666666666667,8|0,0:0|0:0,0:0:0:0:
270,276,170992,1,4,0:0:0:0:
364,74,171134,1,4,0:0:0:0:
214,241,171277,1,2,0:0:0:0:
300,34,171420,1,2,0:0:0:0:
334,255,171563,102,0,P|352:200|337:140,1,106.666666666667,4|0,0:0|0:0,0:0:0:0:
229,347,171849,1,0,0:0:0:0:
343,153,171992,2,0,L|453:148,1,106.666666666667
284,299,172277,1,0,0:0:0:0:
364,74,172420,6,0,L|257:78,1,106.666666666667,8|0,0:0|0:0,0:0:0:0:
447,220,172706,1,0,0:0:0:0:
224,246,172849,2,0,P|206:301|239:360,2,106.666666666667,2|2|2,0:0|0:0|0:0,0:0:0:0:
426,148,173277,102,0,P|380:173|328:163,1,106.666666666667,4|0,0:0|0:0,0:0:0:0:
146,30,173563,1,0,0:0:0:0:
99,249,173706,1,4,0:0:0:0:
204,50,173849,1,0,0:0:0:0:
47,210,173992,1,0,0:0:0:0:
241,102,174134,6,0,P|248:162|226:210,1,106.666666666667,8|0,0:0|0:0,0:0:0:0:
425,90,174420,1,0,0:0:0:0:
298,274,174563,1,6,0:0:0:0:
366,60,174706,1,2,0:0:0:0:
453,266,174849,1,2,0:0:0:0:
294,106,174992,102,0,L|152:95,1,106.666666666667,4|0,0:0|0:0,0:0:0:0:
374,221,175277,1,0,0:0:0:0:
149,211,175420,2,0,P|202:172|268:180,1,106.666666666667
379,349,175706,1,0,0:0:0:0:
356,125,175849,6,0,L|462:116,1,106.666666666667,8|0,0:0|0:0,0:0:0:0:
267,229,176134,2,0,L|373:220,1,106.666666666667
199,77,176420,1,2,0:0:0:0:
212,300,176563,1,2,0:0:0:0:
356,125,176706,102,4,L|249:133,1,106.666666666667
385,313,176992,1,0,0:0:0:0:
186,212,177134,1,4,0:0:0:0:
409,199,177277,1,4,0:0:0:0:
212,300,177420,1,0,0:0:0:0:
356,125,177563,102,0,P|301:106|250:133,1,120.000004577637,8|0,0:0|0:0,0:0:0:0:
256,192,178277,12,4,181849,0:0:0:0:
256,192,188706,12,0,191224,0:0:0:0:
126,268,192134,102,0,P|181:282|232:271,1,100,4|2,0:0|0:0,0:0:0:0:
277,190,192456,1,2,0:0:0:0:
277,190,192563,2,0,P|222:176|171:187,1,100,4|2,0:0|0:0,0:0:0:0:
360,270,192992,2,0,P|394:216|386:165,1,100,8|2,0:0|0:0,0:0:0:0:
252,48,193420,1,0,0:0:0:0:
447,90,193634,1,2,0:0:0:0:
277,190,193849,6,0,L|116:198,1,150,4|2,0:0|0:0,0:0:0:0:
68,278,194277,2,0,P|105:298|165:290,1,100,4|6,0:0|0:0,0:0:0:0:
130,93,194706,2,0,P|60:110|23:194,1,150,8|6,0:0|0:0,0:0:0:0:
68,278,195134,2,0,P|135:300|204:243,1,150,4|6,0:0|0:0,0:0:0:0:
216,159,195563,102,0,L|320:153,1,100,4|2,0:0|0:0,0:0:0:0:
403,219,195884,1,2,0:0:0:0:
403,219,195992,2,0,L|299:225,1,100,4|2,0:0|0:0,0:0:0:0:
227,289,196313,1,2,0:0:0:0:
227,289,196420,2,0,P|215:232|171:197,1,100,8|2,0:0|0:0,0:0:0:0:
50,271,196742,2,0,P|105:289|157:268,1,100,2|2,0:0|0:0,0:0:0:0:
155,128,197063,2,0,P|111:166|103:222,1,100,2|4,0:0|0:0,0:0:0:0:
373,77,197599,5,2,0:0:0:0:
373,77,197706,2,0,L|269:83,1,100,0|6,0:0|0:0,0:0:0:0:
445,184,198134,1,8,0:0:0:0:
224,37,198349,1,2,0:0:0:0:
224,37,198456,1,6,0:0:0:0:
224,37,198563,2,0,P|205:77|270:149,1,150,12|4,0:0|0:0,0:0:0:0:
328,227,198992,102,0,P|256:216|222:231,1,100,4|2,0:0|0:0,0:0:0:0:
153,285,199313,1,6,0:0:0:0:
153,285,199420,2,0,B|162:185|162:185|139:128,1,150,4|2,0:0|0:0,0:0:0:0:
75,64,199849,2,0,L|183:69,1,100,8|2,0:0|0:0,0:0:0:0:
284,235,200277,1,0,0:0:0:0:
317,37,200492,1,2,0:0:0:0:
212,207,200706,6,0,P|205:245|280:314,1,150,4|2,0:0|0:0,0:0:0:0:
357,252,201134,2,0,L|345:147,1,100,4|6,0:0|0:0,0:0:0:0:
449,324,201563,1,8,0:0:0:0:
285,209,201777,1,2,0:0:0:0:
285,209,201884,1,2,0:0:0:0:
285,209,201992,2,0,L|128:216,1,150,0|6,0:0|0:0,0:0:0:0:
168,309,202420,102,0,P|211:280|226:218,1,100,4|2,0:0|0:0,0:0:0:0:
177,148,202742,1,2,0:0:0:0:
177,148,202849,2,0,L|276:143,1,100,4|2,0:0|0:0,0:0:0:0:
326,231,203170,1,2,0:0:0:0:
326,231,203277,2,0,L|226:235,1,100,8|2,0:0|0:0,0:0:0:0:
129,59,203706,1,0,0:0:0:0:
328,49,203920,1,2,0:0:0:0:
156,152,204134,6,0,L|48:161,1,100,4|2,0:0|0:0,0:0:0:0:
125,233,204456,2,0,L|224:224,1,100,4|2,0:0|0:0,0:0:0:0:
279,141,204777,2,0,L|229:145,1,50,4|2,0:0|0:0,0:0:0:0:
298,217,204992,2,0,P|340:197|357:145,1,100,8|4,0:0|0:0,0:0:0:0:
306,63,205313,1,4,0:0:0:0:
306,63,205420,2,0,L|153:73,1,150,2|0,0:0|0:0,1:0:0:0:
67,130,205849,102,0,P|53:175|71:234,1,100,4|2,0:0|0:0,0:0:0:0:
149,287,206170,1,2,0:0:0:0:
149,287,206277,2,0,L|260:278,1,100,4|2,0:0|0:0,0:0:0:0:
312,194,206599,1,2,0:0:0:0:
312,194,206706,2,0,L|252:199,1,50,8|6,0:0|0:0,0:0:0:0:
335,272,206920,1,6,0:0:0:0:
204,107,207134,2,0,L|2:118,1,200,2|4,0:0|0:0,1:0:0:0:
135,210,207777,5,2,0:0:0:0:
135,210,207884,1,2,0:0:0:0:
135,210,207992,2,0,L|234:201,1,100,0|6,0:0|0:0,0:0:0:0:
29,159,208420,1,8,0:0:0:0:
13,205,208527,1,2,0:0:0:0:
22,254,208634,1,4,0:0:0:0:
54,292,208742,1,2,0:0:0:0:
100,309,208849,2,0,L|124:294,7,25,2|0|2|0|2|0|6|0,0:0|0:0|0:0|0:0|0:0|0:0|0:0|0:0,0:0:0:0:
164,270,209277,102,0,L|263:261,1,100,4|2,0:0|0:0,0:0:0:0:
337,336,209599,1,2,0:0:0:0:
337,336,209706,2,0,P|368:301|370:240,1,100,4|2,0:0|0:0,0:0:0:0:
317,160,210027,1,2,0:0:0:0:
317,160,210134,2,0,L|370:156,1,50,8|6,0:0|0:0,0:0:0:0:
457,211,210349,1,6,0:0:0:0:
277,101,210563,1,0,0:0:0:0:
363,291,210777,1,2,0:0:0:0:
473,111,210992,5,4,0:0:0:0:
277,101,211206,1,2,0:0:0:0:
277,101,211313,1,2,0:0:0:0:
277,101,211420,2,0,L|167:110,1,100,0|6,0:0|0:0,0:0:0:0:
209,317,211849,1,8,0:0:0:0:
254,298,211956,1,2,0:0:0:0:
274,253,212063,1,4,0:0:0:0:
260,207,212170,1,2,0:0:0:0:
218,181,212277,2,0,L|177:188,7,25,2|0|2|0|2|0|2|0,0:0|0:0|0:0|0:0|0:0|0:0|0:0|0:0,0:0:0:0:
140,194,212706,102,0,P|126:167|134:95,1,100,4|2,0:0|0:0,0:0:0:0:
253,56,213027,1,2,0:0:0:0:
253,56,213134,2,0,L|354:64,1,100,4|2,0:0|0:0,0:0:0:0:
428,138,213456,1,2,0:0:0:0:
428,138,213563,2,0,L|359:134,1,50,8|6,0:0|0:0,0:0:0:0:
461,71,213777,1,6,0:0:0:0:
259,130,213992,1,0,0:0:0:0:
443,232,214206,1,2,0:0:0:0:
296,82,214420,5,4,0:0:0:0:
281,290,214634,1,2,0:0:0:0:
281,290,214742,1,2,0:0:0:0:
281,290,214849,2,0,L|383:297,1,100,0|6,0:0|0:0,0:0:0:0:
235,145,215277,1,8,0:0:0:0:
186,154,215384,1,2,0:0:0:0:
147,185,215492,1,4,0:0:0:0:
127,230,215599,1,2,0:0:0:0:
131,279,215706,2,0,L|165:291,7,25,2|0|2|0|2|0|6|0,0:0|0:0|0:0|0:0|0:0|0:0|0:0|0:0,0:0:0:0:
203,298,216134,102,0,P|221:257|275:230,1,100,4|2,0:0|0:0,0:0:0:0:
358,254,216456,1,2,0:0:0:0:
358,254,216563,2,0,P|313:258|263:225,1,100,4|2,0:0|0:0,0:0:0:0:
338,154,216884,1,2,0:0:0:0:
338,154,216992,2,0,L|395:148,1,50,8|6,0:0|0:0,0:0:0:0:
301,87,217206,1,6,0:0:0:0:
445,239,217420,1,0,0:0:0:0:
402,34,217634,1,2,0:0:0:0:
250,178,217849,5,4,0:0:0:0:
445,239,218063,1,2,0:0:0:0:
445,239,218170,1,6,0:0:0:0:
445,239,218277,1,0,0:0:0:0:
268,54,218492,1,6,0:0:0:0:
232,298,218706,2,0,B|278:297|327:264|317:202|310:180|310:180|277:160|239:167,1,240.000009155274,8|4,0:0|0:0,0:0:0:0:
256,192,219617,12,4,222992,0:0:0:0:
256,192,243563,12,4,246992,0:0:0:0:
256,192,247849,12,4,250420,0:0:0:0:
256,192,251277,12,4,253849,0:0:0:0:
256,192,254706,12,4,257277,0:0:0:0:
256,192,258134,12,4,260706,0:0:0:0:
256,192,261563,12,4,264134,0:0:0:0:
256,192,264992,12,4,267563,0:0:0:0:
256,192,268420,12,4,270992,0:0:0:0:
256,192,271849,12,0,273992,0:0:0:0:
350,276,274420,101,4,0:0:0:0:
249,91,274634,2,0,L|144:84,1,100,0|2,0:0|0:0,0:0:0:0:
344,160,275063,1,0,0:0:0:0:
190,302,275277,2,0,P|176:257|200:195,1,100,8|0,0:0|0:0,0:0:0:0:
393,262,275706,2,0,P|348:276|286:252,1,100
184,85,276134,5,4,0:0:0:0:
107,281,276349,1,4,0:0:0:0:
251,129,276563,2,0,L|307:123,1,50,2|0,0:0|0:0,0:0:0:0:
234,205,276777,2,0,L|290:199,1,50,2|0,0:0|0:0,0:0:0:0:
376,149,276992,2,0,P|381:107|351:57,1,100,8|0,0:0|0:0,0:0:0:0:
316,265,277420,1,0,0:0:0:0:
466,115,277634,1,0,0:0:0:0:
265,45,277849,102,0,L|215:50,1,50,4|0,0:0|0:0,0:0:0:0:
112,145,278063,2,0,L|162:140,1,50,4|0,0:0|0:0,0:0:0:0:
246,33,278277,2,0,L|196:38,1,50,2|0,0:0|0:0,0:0:0:0:
93,133,278492,2,0,L|143:128,1,50,4|0,0:0|0:0,0:0:0:0:
243,207,278706,2,0,P|269:157|256:100,1,100,8|0,0:0|0:0,0:0:0:0:
98,243,279134,1,0,0:0:0:0:
308,256,279349,1,0,0:0:0:0:
201,75,279563,6,0,L|193:130,1,50,4|0,0:0|0:0,0:0:0:0:
320,40,279777,2,0,L|328:95,1,50,2|0,0:0|0:0,0:0:0:0:
181,63,279992,2,0,L|173:118,1,50,4|0,0:0|0:0,0:0:0:0:
300,28,280206,2,0,L|308:83,1,50,2|0,0:0|0:0,0:0:0:0:
231,183,280420,2,0,P|175:192|140:169,1,100,8|0,0:0|0:0,0:0:0:0:
340,156,280849,2,0,L|356:266,1,100
406,51,281277,69,4,0:0:0:0:
270,262,281492,1,4,0:0:0:0:
473,116,281706,1,4,0:0:0:0:
227,163,281920,1,2,0:0:0:0:
419,305,282134,2,0,P|465:268|474:211,1,120,8|4,0:0|0:0,0:0:0:0:
251,228,282992,5,4,0:0:0:0:
435,74,283206,1,4,0:0:0:0:
319,284,283420,1,4,0:0:0:0:
165,100,283634,1,2,0:0:0:0:
341,218,283849,2,0,L|494:210,1,120,8|4,0:0|0:0,0:0:0:0:
256,192,284706,12,8,287277,0:0:0:0:
163,200,287706,102,0,P|130:206|104:220,1,60.0000022888184,8|2,0:0|0:0,0:0:0:0:
431,302,288134,86,0,P|461:219|419:132,1,160,4|4,0:0|0:0,0:0:0:0:
136,301,288563,2,0,L|217:309,1,80,10|0,0:0|0:0,0:0:0:0:
359,222,288777,2,0,L|278:214,1,80,10|0,0:0|0:0,0:0:0:0:
122,150,288992,6,0,B|114:191|151:220|151:220|189:194|186:153,1,160,4|4,0:0|0:0,0:0:0:0:
431,302,289420,2,0,L|426:221,1,80,8|0,0:0|0:0,0:0:0:0:
274,134,289634,2,0,L|279:214,1,80,8|0,0:0|0:0,0:0:0:0:
350,60,289849,102,0,P|292:25|187:71,1,160,4|4,0:0|0:0,0:0:0:0:
38,337,290277,2,0,P|51:288|34:244,1,80,10|0,0:0|0:0,0:0:0:0:
94,99,290492,2,0,P|81:148|98:192,1,80,10|0,0:0|0:0,0:0:0:0:
185,311,290706,6,0,L|349:322,1,160,4|4,0:0|0:0,0:0:0:0:
207,47,291134,2,0,L|201:129,1,80,8|0,0:0|0:0,0:0:0:0:
354,54,291349,2,0,L|348:136,1,80,8|0,0:0|0:0,0:0:0:0:
159,270,291563,102,0,P|195:286|234:285,1,80,4|0,0:0|0:0,0:0:0:0:
420,255,291777,2,0,P|383:238|344:239,1,80,4|0,0:0|0:0,0:0:0:0:
134,127,291992,2,0,P|170:143|209:142,1,80,10|0,0:0|0:0,0:0:0:0:
395,112,292206,2,0,P|358:95|319:96,1,80,4|0,0:0|0:0,0:0:0:0:
420,255,292420,6,0,P|436:179|395:112,1,160,4|0,0:0|0:0,0:0:0:0:
108,289,292849,2,0,L|117:204,1,80,10|0,0:0|0:0,0:0:0:0:
239,323,293063,2,0,L|248:238,1,80,10|0,0:0|0:0,0:0:0:0:
132,121,293277,102,0,P|168:139|233:125,1,80,4|0,0:0|0:0,0:0:0:0:
395,112,293492,2,0,P|359:94|294:108,1,80,10|0,0:0|0:0,0:0:0:0:
132,105,293706,2,0,P|168:123|233:109,1,80,6|0,0:0|0:0,0:0:0:0:
395,96,293920,2,0,P|359:78|294:92,1,80,10|0,0:0|0:0,0:0:0:0:
228,263,294134,6,0,P|247:216|196:114,1,160,4|0,0:0|0:0,0:0:0:0:
395,334,294563,2,0,L|478:341,1,80,10|0,0:0|0:0,0:0:0:0:
374,206,294777,2,0,L|457:213,1,80,10|0,0:0|0:0,0:0:0:0:
228,279,294992,102,0,P|208:202|255:135,1,160,4|4,0:0|0:0,0:0:0:0:
295,200,295527,1,2,0:0:0:0:
292,278,295634,1,4,0:0:0:0:
242,339,295742,1,0,0:0:0:0:
164,354,295849,6,0,P|181:283|267:264,1,160,8|4,0:0|0:0,0:0:0:0:
335,262,296384,1,0,0:0:0:0:
400,218,296492,1,4,0:0:0:0:
426,144,296599,1,0,0:0:0:0:
402,69,296706,101,4,0:0:0:0:
367,87,296813,1,2,0:0:0:0:
346,121,296920,1,12,0:0:0:0:
345,160,297027,1,0,0:0:0:0:
364,195,297134,5,4,0:0:0:0:
294,159,297242,1,10,0:0:0:0:
215,168,297349,1,4,0:0:0:0:
155,219,297456,1,0,0:0:0:0:
132,295,297563,101,12,0:0:0:0:
151,260,297670,1,0,0:0:0:0:
154,220,297777,1,4,0:0:0:0:
141,182,297884,1,0,0:0:0:0:
114,153,297992,5,4,0:0:0:0:
177,201,298099,1,0,0:0:0:0:
254,218,298206,1,4,0:0:0:0:
332,202,298313,1,0,0:0:0:0:
396,155,298420,102,0,P|365:128|260:167,1,160,4|4,0:0|0:0,0:0:0:0:
213,100,298956,1,2,0:0:0:0:
136,84,299063,1,4,0:0:0:0:
67,121,299170,1,2,0:0:0:0:
37,193,299277,6,0,L|205:204,1,160,8|4,0:0|0:0,0:0:0:0:
234,268,299813,1,2,0:0:0:0:
273,202,299920,1,4,0:0:0:0:
350,197,300027,1,2,0:0:0:0:
397,258,300134,101,14,0:0:0:0:
420,226,300242,1,0,0:0:0:0:
426,187,300349,1,12,0:0:0:0:
411,150,300456,1,2,0:0:0:0:
380,126,300563,1,4,0:0:0:0:
341,120,300670,1,8,0:0:0:0:
304,134,300777,1,6,0:0:0:0:
279,164,300884,1,0,0:0:0:0:
272,203,300992,6,0,P|271:151|185:97,1,160,12|12,0:0|0:0,0:0:0:0:
159,170,301527,1,0,0:0:0:0:
181,245,301634,1,12,0:0:0:0:
245,290,301742,1,0,0:0:0:0:
324,287,301849,102,0,B|352:260|352:260|344:132,1,160,4|4,0:0|0:0,0:0:0:0:
463,341,302277,2,0,L|457:261,1,80,10|0,0:0|0:0,0:0:0:0:
239,210,302492,2,0,L|244:289,1,80,10|0,0:0|0:0,0:0:0:0:
344,139,302706,6,0,P|284:86|197:87,1,160,4|4,0:0|0:0,0:0:0:0:
400,357,303134,2,0,L|394:277,1,80,8|0,0:0|0:0,0:0:0:0:
449,116,303349,2,0,L|454:195,1,80,8|0,0:0|0:0,0:0:0:0:
326,305,303563,102,0,L|166:294,1,160,4|4,0:0|0:0,0:0:0:0:
376,90,303992,2,0,P|415:92|448:115,1,80,10|0,0:0|0:0,0:0:0:0:
284,152,304206,2,0,P|244:149|211:126,1,80,10|0,0:0|0:0,0:0:0:0:
376,187,304420,6,0,P|321:243|234:238,1,160,4|4,0:0|0:0,0:0:0:0:
37,35,304849,2,0,L|128:42,1,80,8|0,0:0|0:0,0:0:0:0:
291,133,305063,2,0,L|211:126,1,80,8|0,0:0|0:0,0:0:0:0:
76,266,305277,102,0,P|48:309|42:346,1,80,4|0,0:0|0:0,0:0:0:0:
204,191,305492,2,0,P|153:203|123:224,1,80,4|0,0:0|0:0,0:0:0:0:
347,229,305706,2,0,P|304:201|267:195,1,80,10|0,0:0|0:0,0:0:0:0:
422,357,305920,2,0,P|411:307|389:277,1,80,4|0,0:0|0:0,0:0:0:0:
277,196,306134,6,0,P|264:134|331:53,1,160,4|0,0:0|0:0,0:0:0:0:
122,331,306563,2,0,L|29:338,1,80,10|0,0:0|0:0,0:0:0:0:
123,190,306777,2,0,L|30:197,1,80,10|0,0:0|0:0,0:0:0:0:
199,261,306992,102,0,P|225:224|217:168,1,80,4|0,0:0|0:0,0:0:0:0:
70,125,307206,2,0,P|44:162|52:218,1,80,10|0,0:0|0:0,0:0:0:0:
226,190,307420,2,0,P|252:153|244:97,1,80,6|0,0:0|0:0,0:0:0:0:
97,54,307634,2,0,P|71:91|79:147,1,80,10|0,0:0|0:0,0:0:0:0:
225,191,307849,6,0,L|385:199,1,160,4|0,0:0|0:0,0:0:0:0:
80,340,308277,2,0,L|84:260,1,80,10|0,0:0|0:0,0:0:0:0:
217,357,308492,2,0,L|221:277,1,80,10|0,0:0|0:0,0:0:0:0:
90,171,308706,102,0,P|144:214|226:191,1,160,4|0,0:0|0:0,0:0:0:0:
294,154,309242,1,2,0:0:0:0:
373,159,309349,1,4,0:0:0:0:
437,206,309456,1,0,0:0:0:0:
467,279,309563,6,0,P|402:277|360:201,1,160,8|4,0:0|0:0,0:0:0:0:
335,275,310099,1,0,0:0:0:0:
275,326,310206,1,4,0:0:0:0:
197,336,310313,1,0,0:0:0:0:
124,304,310420,101,4,0:0:0:0:
145,270,310527,1,2,0:0:0:0:
179,249,310634,1,12,0:0:0:0:
218,244,310742,1,0,0:0:0:0:
256,256,310849,5,4,0:0:0:0:
252,177,310956,1,10,0:0:0:0:
295,111,311063,1,4,0:0:0:0:
368,82,311170,1,0,0:0:0:0:
445,100,311277,101,12,0:0:0:0:
405,95,311384,1,0,0:0:0:0:
367,82,311492,1,4,0:0:0:0:
334,60,311599,1,0,0:0:0:0:
306,31,311706,5,4,0:0:0:0:
309,109,311813,1,0,0:0:0:0:
266,175,311920,1,4,0:0:0:0:
193,204,312027,1,0,0:0:0:0:
116,186,312134,102,0,P|137:147|245:148,1,160,4|4,0:0|0:0,0:0:0:0:
296,88,312670,1,2,0:0:0:0:
374,76,312777,1,4,0:0:0:0:
444,113,312884,1,2,0:0:0:0:
479,183,312992,6,0,L|302:197,1,160,8|4,0:0|0:0,0:0:0:0:
303,272,313527,1,2,0:0:0:0:
238,228,313634,1,4,0:0:0:0:
161,240,313742,1,2,0:0:0:0:
112,301,313849,101,14,0:0:0:0:
89,268,313956,1,8,0:0:0:0:
87,228,314063,1,4,0:0:0:0:
101,191,314170,1,10,0:0:0:0:
119,155,314277,1,12,0:0:0:0:
133,118,314384,1,0,0:0:0:0:
134,78,314492,1,14,0:0:0:0:
110,48,314599,1,0,0:0:0:0:
71,43,314706,6,0,P|52:79|123:156,1,160,12|4,0:0|0:0,0:0:0:0:
206,54,315349,1,2,0:0:0:0:
159,321,315563,70,0,P|105:331|48:309,1,106.666666666667,4|0,0:0|0:0,0:0:0:0:
163,106,315849,1,0,0:0:0:0:
340,242,315992,2,0,L|328:369,1,106.666666666667,4|0,0:0|0:0,0:0:0:0:
353,125,316277,1,0,0:0:0:0:
169,214,316420,6,0,L|157:341,1,106.666666666667,8|0,0:0|0:0,0:0:0:0:
346,185,316706,1,0,0:0:0:0:
123,156,316849,2,0,P|99:197|110:257,2,106.666666666667,2|2|2,0:0|0:0|0:0,0:0:0:0:
340,242,317277,102,0,P|288:251|242:226,1,106.666666666667,4|0,0:0|0:0,0:0:0:0:
410,76,317563,1,0,0:0:0:0:
385,298,317706,1,0,0:0:0:0:
338,78,317849,1,0,0:0:0:0:
454,269,317992,1,0,0:0:0:0:
278,132,318134,6,0,L|159:124,1,106.666666666667,8|0,0:0|0:0,0:0:0:0:
69,326,318420,1,0,0:0:0:0:
90,102,318563,1,6,0:0:0:0:
209,291,318706,1,2,0:0:0:0:
230,67,318849,1,2,0:0:0:0:
133,269,318992,102,0,L|26:261,1,106.666666666667,4|0,0:0|0:0,0:0:0:0:
214,138,319277,1,0,0:0:0:0:
136,348,319420,2,0,L|29:340,1,106.666666666667
101,126,319706,1,0,0:0:0:0:
209,291,319849,6,0,P|252:302|323:271,1,106.666666666667,8|0,0:0|0:0,0:0:0:0:
387,72,320134,2,0,P|344:61|273:92,1,106.666666666667
411,267,320420,1,2,0:0:0:0:
466,49,320563,1,2,0:0:0:0:
247,125,320706,102,0,P|236:168|267:239,1,106.666666666667,4|0,0:0|0:0,0:0:0:0:
118,45,320992,1,0,0:0:0:0:
69,262,321134,1,4,0:0:0:0:
189,73,321277,1,0,0:0:0:0:
220,295,321420,1,0,0:0:0:0:
53,87,321563,6,0,L|39:193,1,106.666666666667,8|0,0:0|0:0,0:0:0:0:
251,116,321849,1,4,0:0:0:0:
137,309,321992,1,4,0:0:0:0:
189,73,322134,1,2,0:0:0:0:
220,295,322277,1,2,0:0:0:0:
304,57,322420,102,0,P|326:102|317:158,1,106.666666666667,4|0,0:0|0:0,0:0:0:0:
125,37,322706,1,0,0:0:0:0:
224,237,322849,2,0,L|215:353,1,106.666666666667
251,116,323134,1,0,0:0:0:0:
293,336,323277,6,0,P|344:344|392:322,1,106.666666666667,8|0,0:0|0:0,0:0:0:0:
221,173,323563,1,0,0:0:0:0:
455,262,323706,2,0,P|477:309|469:361,2,106.666666666667,2|2|2,0:0|0:0|0:0,0:0:0:0:
224,237,324134,102,0,P|275:244|323:222,1,106.666666666667,4|0,0:0|0:0,0:0:0:0:
451,36,324420,1,0,0:0:0:0:
392,252,324563,1,4,0:0:0:0:
283,55,324706,1,0,0:0:0:0:
454,199,324849,1,0,0:0:0:0:
283,55,324992,6,0,L|154:63,1,106.666666666667,8|0,0:0|0:0,0:0:0:0:
323,222,325277,1,0,0:0:0:0:
113,142,325420,1,6,0:0:0:0:
337,136,325563,1,2,0:0:0:0:
130,222,325706,1,2,0:0:0:0:
337,136,325849,102,0,P|390:168|408:227,1,106.666666666667,4|0,0:0|0:0,0:0:0:0:
214,322,326134,1,0,0:0:0:0:
258,102,326277,2,0,L|138:95,1,106.666666666667
295,243,326563,1,0,0:0:0:0:
354,81,326706,6,0,P|330:34|283:9,1,106.666666666667,8|0,0:0|0:0,0:0:0:0:
197,216,326992,2,0,P|239:244|293:242,1,106.666666666667
207,71,327277,1,2,0:0:0:0:
376,193,327420,1,2,0:0:0:0:
146,160,327563,102,0,P|123:212|145:266,1,106.666666666667,4|0,0:0|0:0,0:0:0:0:
288,89,327849,1,0,0:0:0:0:
361,300,327992,1,4,0:0:0:0:
208,137,328134,1,0,0:0:0:0:
156,355,328277,1,0,0:0:0:0:
281,195,328420,6,0,L|288:84,1,106.666666666667,8|4,0:0|0:0,0:0:0:0:
361,300,328706,1,4,0:0:0:0:
157,206,328849,1,4,0:0:0:0:
361,300,328992,1,2,0:0:0:0:
157,206,329134,1,2,0:0:0:0:
380,186,329277,102,0,L|387:75,1,106.666666666667,4|0,0:0|0:0,0:0:0:0:
466,290,329563,1,0,0:0:0:0:
318,114,329706,2,0,P|262:100|207:120,1,106.666666666667
421,237,329992,1,0,0:0:0:0:
216,215,330134,6,0,P|202:159|222:104,1,106.666666666667,8|0,0:0|0:0,0:0:0:0:
321,318,330420,1,0,0:0:0:0:
137,189,330563,2,0,L|29:181,2,106.666666666667,2|2|2,0:0|0:0|0:0,0:0:0:0:
321,318,330992,102,0,P|332:273|314:212,1,106.666666666667,4|0,0:0|0:0,0:0:0:0:
124,100,331277,1,0,0:0:0:0:
345,65,331420,1,4,0:0:0:0:
198,234,331563,1,0,0:0:0:0:
388,115,331706,1,0,0:0:0:0:
137,189,331849,6,0,P|121:257|174:303,1,106.666666666667,8|0,0:0|0:0,0:0:0:0:
254,93,332134,1,0,0:0:0:0:
450,201,332277,1,2,0:0:0:0:
228,167,332420,1,2,0:0:0:0:
450,135,332563,1,2,0:0:0:0:
245,289,332706,102,0,L|129:284,1,106.666666666667,4|0,0:0|0:0,0:0:0:0:
254,93,332992,1,0,0:0:0:0:
68,215,333134,2,0,L|183:220,1,106.666666666667
76,19,333420,1,0,0:0:0:0:
241,170,333563,6,0,P|308:148|331:102,1,106.666666666667,8|0,0:0|0:0,0:0:0:0:
108,61,333849,2,0,P|130:128|176:151,1,106.666666666667
361,53,334134,1,2,0:0:0:0:
388,275,334277,1,2,0:0:0:0:
214,69,334420,102,0,L|91:59,1,106.666666666667,4|0,0:0|0:0,0:0:0:0:
198,267,334706,1,0,0:0:0:0:
287,61,334849,1,4,0:0:0:0:
284,285,334992,1,0,0:0:0:0:
214,69,335134,1,0,0:0:0:0:
357,241,335277,6,0,L|463:249,1,106.666666666667,8|0,0:0|0:0,0:0:0:0:
266,138,335563,1,4,0:0:0:0:
169,340,335706,1,4,0:0:0:0:
159,115,335849,1,2,0:0:0:0:
232,327,335992,1,2,0:0:0:0:
81,162,336134,102,0,P|69:110|113:39,1,106.666666666667,4|0,0:0|0:0,0:0:0:0:
173,270,336420,1,0,0:0:0:0:
229,53,336563,2,0,L|362:43,1,106.666666666667
159,115,336849,1,0,0:0:0:0:
382,103,336992,6,0,P|394:155|350:226,1,106.666666666667,8|0,0:0|0:0,0:0:0:0:
151,201,337277,1,0,0:0:0:0:
358,285,337420,2,0,P|409:276|448:240,2,106.666666666667,2|2|2,0:0|0:0|0:0,0:0:0:0:
151,201,337849,102,0,P|189:164|241:156,1,106.666666666667,4|0,0:0|0:0,0:0:0:0:
124,348,338134,1,0,0:0:0:0:
123,123,338277,1,4,0:0:0:0:
258,301,338420,1,0,0:0:0:0:
191,86,338563,1,0,0:0:0:0:
56,265,338706,6,0,P|105:283|156:271,1,106.666666666667,8|0,0:0|0:0,0:0:0:0:
288,88,338992,1,0,0:0:0:0:
350,301,339134,1,6,0:0:0:0:
351,76,339277,1,2,0:0:0:0:
258,301,339420,1,2,0:0:0:0:
426,128,339563,102,0,P|440:82|422:22,1,106.666666666667,4|0,0:0|0:0,0:0:0:0:
310,221,339849,1,0,0:0:0:0:
185,34,339992,2,0,L|292:42,1,106.666666666667
416,228,340277,1,0,0:0:0:0:
192,207,340420,6,0,P|194:155|230:105,1,106.666666666667,8|0,0:0|0:0,0:0:0:0:
416,228,340706,2,0,P|414:176|378:126,1,106.666666666667
192,280,340992,1,2,0:0:0:0:
413,301,341134,1,2,0:0:0:0:
306,103,341277,102,0,L|297:218,1,106.666666666667,4|4,0:0|0:0,0:0:0:0:
443,36,341563,1,0,0:0:0:0:
233,117,341706,1,4,0:0:0:0:
457,111,341849,1,4,0:0:0:0:
244,38,341992,1,0,0:0:0:0:
443,184,342134,102,0,L|435:309,1,120.000004577637,8|0,0:0|0:0,0:0:0:0:
256,192,342849,12,4,346420,0:0:0:0:
401,328,356706,70,0,B|330:276|357:185|357:185|378:282|301:317|301:317|253:249|285:163,1,480,4|2,0:0|0:0,0:0:0:0:
404,42,360134,6,0,B|423:82|423:82|362:43|331:147|242:71|242:71|273:105|269:134|254:175|209:192|163:178|141:140|152:94,1,480,4|4,0:0|0:0,0:0:0:0:
151,96,363134,1,2,0:0:0:0:
82,237,363563,102,0,B|130:311|220:293|220:293|228:251|197:219|197:219|265:278|346:244|346:244|363:204|348:163,1,480,4|2,0:0|0:0,0:0:0:0:
351,330,366992,6,0,B|413:355|456:302|421:242|421:242|379:173|420:119|420:119|450:140,1,320,4|2,0:0|0:0,0:0:0:0:
259,331,369563,2,0,P|209:317|187:295,1,80,2|0,0:0|0:0,0:0:0:0:
329,205,370420,102,0,B|394:275|340:351|340:351|347:268|447:260|447:260|384:188|427:108,1,480,4|0,0:0|0:0,0:0:0:0:
223,292,373849,6,0,B|192:305|174:304|157:301|132:288|119:268|112:249|111:227|112:213|119:188|135:169|163:157|183:153|208:158|234:173|247:191|247:191|218:113|218:113|254:150|306:142,1,480,4|4,0:0|0:0,0:0:0:0:
391,74,376849,1,2,0:0:0:0:
240,233,377277,102,0,B|241:264|250:283|261:295|280:310|305:317|326:315|345:305|358:300|379:282|388:260|394:228|382:210|369:187|345:171|320:168|320:168|360:144|399:151|399:151|382:115|391:75,1,480,4|2,0:0|0:0,0:0:0:0:
240,233,380706,6,0,P|275:297|320:168,1,320,4|2,0:0|0:0,0:0:0:0:
468,225,383277,1,2,0:0:0:0:
150,182,384134,102,0,B|115:153|109:109|138:70|184:57|220:81|241:101|237:147|237:147|290:122|314:170|227:186|292:261,1,400,4|0,0:0|0:0,0:0:0:0:
450,292,387563,6,0,B|486:253|486:202|448:161|392:152|353:184|332:211|344:264|344:264|299:237|297:281|255:254|255:254|223:270,1,400,4|0,0:0|0:0,0:0:0:0:
253,98,390134,2,0,P|284:98|327:130,1,80,4|2,0:0|0:0,0:0:0:0:
133,204,390992,102,0,B|40:179|17:95|17:95|43:179|11:243|11:243|41:215|84:210,1,400,4|0,0:0|0:0,0:0:0:0:
233,264,393563,1,2,0:0:0:0:
473,206,394420,6,0,B|406:146|397:249|330:188|330:188|262:249|253:146|184:208|184:208|115:147|106:250|40:190,1,480,4|2,0:0|0:0,0:0:0:0:
256,192,397849,12,0,411134,2:0:0:0:
236,271,411563,102,0,P|325:325|455:264,1,256,2|2,0:0|0:0,0:0:0:0:
276,113,414992,6,0,P|187:59|57:120,1,256,2|2,0:0|0:0,0:0:0:0:
355,327,418420,102,0,B|425:217|425:217|387:97,1,256,2|2,0:0|0:0,0:0:0:0:
135,180,421849,102,0,B|247:249|263:133|378:201,1,256
