osu file format v14

[General]
AudioFilename: audio.mp3
AudioLeadIn: 0
PreviewTime: 763
Countdown: 0
SampleSet: Soft
StackLeniency: 0.7
Mode: 0
LetterboxInBreaks: 0
EpilepsyWarning: 1
WidescreenStoryboard: 1

[Editor]
Bookmarks: 89021,106164,108536,118409,138000,157669
DistanceSpacing: 1.4
BeatDivisor: 4
GridSize: 4
TimelineZoom: 2.2

[Metadata]
Title:Burn It Down
TitleUnicode:Burn It Down
Artist:Daughter
ArtistUnicode:Daughter
Creator:sheela
Version:Normal
Source:Life Is Strange: Before the Storm
Tags:alternative soundtrack
BeatmapID:1387736
BeatmapSetID:652300

[Difficulty]
HPDrainRate:5
CircleSize:3.5
OverallDifficulty:4
ApproachRate:5
SliderMultiplier:0.575
SliderTickRate:0.5

[Events]
//Background and Video events
0,0,"bg.jpg",0,0
//Break Periods
2,64436,67522
2,108718,117114
//Storyboard Layer 0 (Background)
//Storyboard Layer 1 (Fail)
//Storyboard Layer 2 (Pass)
//Storyboard Layer 3 (Foreground)
//Storyboard Sound Samples

[TimingPoints]
763,306.122448979592,4,2,0,5,1,0
20354,-100,4,2,1,20,0,0
22191,-100,4,2,1,5,0,0
22803,-100,4,2,1,20,0,0
24640,-100,4,2,1,5,0,0
25252,-100,4,2,1,20,0,0
27089,-100,4,2,1,5,0,0
27701,-100,4,2,1,20,0,0
29538,-100,4,2,1,5,0,0
30150,-100,4,2,1,20,0,0
31987,-100,4,2,1,5,0,0
32599,-100,4,2,1,20,0,0
34436,-100,4,2,1,5,0,0
35048,-100,4,2,1,20,0,0
36885,-100,4,2,1,5,0,0
37497,-100,4,2,1,20,0,0
39334,-100,4,2,1,5,0,0
39793,-100,4,2,30,20,0,0
47446,-100,4,2,2,20,0,0
49742,-100,4,2,30,20,0,0
68722,-100,4,2,2,70,0,0
69334,-90.9090909090909,4,2,2,70,0,0
78365,-90.9090909090909,4,2,0,40,0,0
79130,-90.9090909090909,4,2,2,70,0,0
88926,-90.9090909090909,4,2,2,40,0,0
91375,-90.9090909090909,4,2,2,70,0,0
107293,-90.9090909090909,4,3,0,55,0,0
107905,-90.9090909090909,4,2,2,55,0,0
108518,-90.9090909090909,4,2,2,40,0,0
114028,-90.9090909090909,4,2,2,70,0,0
114181,-90.9090909090909,4,2,2,40,0,0
115252,-90.9090909090909,4,2,2,70,0,0
115329,-90.9090909090909,4,2,2,40,0,0
118314,-90.9090909090909,4,2,2,70,0,0
125584,-90.9090909090909,4,2,2,5,0,0
125660,-90.9090909090909,4,2,2,70,0,0
125890,-90.9090909090909,4,2,2,5,0,0
125967,-90.9090909090909,4,2,2,70,0,0
126196,-90.9090909090909,4,2,2,5,0,0
126273,-90.9090909090909,4,2,2,70,0,0
126502,-90.9090909090909,4,2,2,5,0,0
126579,-90.9090909090909,4,2,2,70,0,0
137446,-90.9090909090909,4,2,2,40,0,0
137599,-90.9090909090909,4,2,2,90,0,0
137905,-83.3333333333333,4,2,2,80,0,1
157191,-83.3333333333333,4,2,2,90,0,1
157344,-83.3333333333333,4,2,2,100,0,1
157497,-90.9090909090909,4,2,2,80,0,1
166069,-100,4,2,2,80,0,1
167293,-100,4,2,0,50,0,0
174640,-100,4,2,0,50,0,0
175865,-100,4,2,0,50,0,0
177089,-100,4,2,0,30,0,0
375507,-100,4,2,0,50,0,0

[Colours]
Combo1 : 59,59,59
Combo2 : 157,255,214
Combo3 : 125,70,106
Combo4 : 128,197,118

[HitObjects]
256,192,763,12,0,4436,0:0:0:0:
256,192,5660,12,0,9334,0:0:0:0:
256,192,10558,12,0,14232,0:0:0:0:
256,192,15456,12,0,19130,0:0:0:0:
488,188,20354,6,0,B|460:160|440:151|440:151|412:144|412:144|381:156|346:155|346:155|316:138|287:144|275:170|275:170|306:180|320:204|381:206,1,345
409,315,22803,2,0,B|367:337|325:334|295:327|295:327|262:313|262:313|263:331|229:338|229:338|209:312|228:284|228:284|205:244|199:180,1,345,0|0,0:0|0:0,0:0:0:0:
222,86,25252,6,0,B|165:77|131:104|131:104|114:90|97:91|97:91|95:104|97:153|97:153|88:162|88:162|92:206|92:206|71:189|30:169|30:169|23:195|23:201,1,345,0|0,0:0|0:0,0:0:0:0:
52,301,27701,2,0,B|162:284|162:284|200:296|200:296|226:283|263:285|263:285|274:307|286:320|286:320|311:294|345:279|345:279|315:258,1,345,0|0,0:0|0:0,0:0:0:0:
301,159,30150,6,0,B|299:115|283:53|283:53|248:47|218:69|218:69|228:114|221:159|221:159|181:134|146:144,1,345,0|0,0:0|0:0,0:0:0:0:
79,238,32599,2,0,B|13:204|-7:126|25:73|53:46|53:46|81:64|110:65|110:65|113:35|174:23,1,345,0|0,0:0|0:0,0:0:0:0:
243,96,35048,6,0,B|265:192|265:192|314:164|361:167|361:167|381:202|373:273|373:273|346:257|329:254,1,345,0|0,0:0|0:0,0:0:0:0:
262,341,37497,2,0,B|218:316|201:283|201:283|194:315|170:342|170:342|135:315|100:321|100:321|43:302|37:215,1,345,0|0,0:0|0:0,0:0:0:0:
90,126,39946,6,0,L|149:121,1,57.5,0|0,0:0|0:0,0:0:0:0:
210,160,40558,2,0,L|269:165,1,57.5
339,184,41171,2,0,P|349:233|345:302,1,115
292,349,42089,1,0,0:0:0:0:
227,311,42395,2,0,L|107:330,1,115
39,315,43314,1,0,0:0:0:0:
13,244,43620,2,0,P|51:207|136:196,1,115
182,210,44538,1,0,0:0:0:0:
245,249,44844,6,0,L|360:288,1,115
456,176,46069,2,0,L|347:139,1,115
204,184,47293,2,0,P|200:152|203:120,1,57.5
243,65,47905,1,2,0:0:0:0:
195,7,48211,2,0,P|123:33|82:30,1,115
12,16,49130,1,2,0:0:0:0:
17,90,49436,1,2,0:0:0:0:
25,164,49742,6,0,B|91:162|91:162|144:191,1,115
201,318,50967,2,0,L|328:314,1,115
390,309,51885,1,0,0:0:0:0:
464,303,52191,2,0,P|488:272|501:179,1,115
445,61,53416,2,0,L|320:65,1,115
216,162,54640,6,0,P|171:179|90:170,1,115
71,108,55558,1,0,0:0:0:0:
24,166,55865,2,0,P|22:211|27:239,1,57.5
87,262,56477,2,0,P|89:307|84:335,1,57.5
143,368,57089,2,0,L|272:356,1,115
477,73,59538,6,0,P|471:105|470:197,1,115,0|0,0:0|0:0,0:0:0:0:
393,316,60763,2,0,P|352:271|322:216,1,115
339,150,61681,1,0,0:0:0:0:
349,75,61987,2,0,L|207:65,1,115
89,103,63211,2,0,L|79:45,1,57.5
13,10,63824,1,0,0:0:0:0:
260,83,68722,6,0,L|254:122,1,28.75,2|2,3:0|3:0,0:0:0:0:
253,148,69028,2,0,L|259:187,1,28.75,2|2,3:0|3:0,0:0:0:0:
250,216,69334,6,0,L|382:210,1,126.500003860474,4|8,0:0|3:0,0:0:0:0:
458,207,70252,1,0,0:0:0:0:
493,281,70558,2,0,P|479:309|458:332,1,63.2500019302369,2|0,0:0|0:0,0:0:0:0:
421,352,71018,2,0,L|365:351,1,31.6250009651184,2|8,0:0|3:0,0:0:0:0:
307,350,71477,1,0,0:0:0:0:
224,344,71783,6,0,P|227:295|231:195,1,126.500003860474,2|8,0:0|3:0,0:0:0:0:
236,135,72701,1,8,3:0:0:0:
241,52,73007,2,0,L|161:49,1,63.2500019302369
142,71,73467,2,0,L|148:108,1,31.6250009651184,8|2,3:0|3:0,0:0:0:0:
128,138,73773,1,2,0:0:0:0:
83,253,74232,6,0,P|150:241|227:260,1,126.500003860474,2|8,0:0|3:0,0:0:0:0:
275,296,75150,1,0,0:0:0:0:
337,242,75456,2,0,P|335:194|330:172,1,63.2500019302369,2|0,0:0|0:0,0:0:0:0:
305,147,75916,2,0,L|305:111,1,31.6250009651184,2|8,0:0|3:0,0:0:0:0:
327,36,76375,1,0,0:0:0:0:
249,64,76681,6,0,P|202:70|181:70,1,63.2500019302369,2|2,0:0|0:0,0:0:0:0:
145,62,77140,1,8,3:0:0:0:
104,55,77293,2,0,L|112:130,1,63.2500019302369,8|8,3:0|3:0,0:0:0:0:
120,199,77905,1,2,3:0:0:0:
130,280,78211,2,0,L|70:275,2,31.6250009651184,2|8|8,0:0|0:0|0:0,0:0:0:0:
170,289,78671,2,0,L|222:287,1,31.6250009651184,8|0,0:0|0:0,0:0:0:0:
275,324,79130,6,0,P|281:268|236:215,1,126.500003860474,2|8,0:0|3:0,0:0:0:0:
155,201,80048,1,0,0:0:0:0:
141,119,80354,2,0,L|209:106,1,63.2500019302369,2|0,0:0|0:0,0:0:0:0:
241,123,80814,2,0,L|286:131,1,31.6250009651184,2|8,0:0|3:0,0:0:0:0:
352,147,81273,1,0,0:0:0:0:
431,167,81579,6,0,L|441:307,1,126.500003860474,2|8,0:0|3:0,0:0:0:0:
394,361,82497,1,8,3:0:0:0:
333,304,82803,2,0,P|279:296|263:298,1,63.2500019302369
238,322,83263,2,0,L|187:321,1,31.6250009651184,8|8,3:0|3:0,0:0:0:0:
165,324,83569,1,2,0:0:0:0:
91,225,84028,6,0,P|103:168|104:134,1,63.2500019302369,2|0,0:0|0:0,0:0:0:0:
75,85,84640,2,0,P|63:28|62:-6,1,63.2500019302369,8|0,3:0|0:0,0:0:0:0:
143,7,85252,2,0,L|213:-1,1,63.2500019302369,2|0,0:0|0:0,0:0:0:0:
242,18,85711,1,2,0:0:0:0:
278,37,85865,2,0,L|365:40,1,63.2500019302369,8|0,3:0|0:0,0:0:0:0:
423,44,86477,6,0,P|440:136|442:177,1,126.500003860474,2|8,0:0|3:0,0:0:0:0:
321,281,87701,1,2,0:0:0:0:
239,275,88007,1,2,0:0:0:0:
156,268,88314,2,0,L|96:265,1,31.6250009651184,2|2,3:0|3:0,0:0:0:0:
89,287,88620,2,0,L|29:284,1,31.6250009651184,2|2,3:0|3:0,0:0:0:0:
26,312,88926,6,0,P|9:270|3:248,1,63.2500019302369,2|0,0:0|0:0,0:0:0:0:
63,99,89844,1,0,0:0:0:0:
113,33,90150,2,0,P|155:16|236:39,1,126.500003860474,2|0,0:0|0:0,0:0:0:0:
266,57,90916,2,0,P|272:96|272:109,2,31.6250009651184,2|0|0,0:0|0:0|0:0,0:0:0:0:
304,41,91375,6,0,L|444:30,1,126.500003860474,4|8,0:0|3:0,0:0:0:0:
489,87,92293,1,8,3:0:0:0:
448,158,92599,2,0,P|438:216|436:247,1,63.2500019302369,2|0,0:0|0:0,0:0:0:0:
450,259,93058,1,8,3:0:0:0:
462,298,93211,2,0,L|460:345,1,31.6250009651184,8|2,3:0|0:0,0:0:0:0:
347,379,93824,6,0,P|325:326|306:302,1,63.2500019302369,2|0,0:0|0:0,0:0:0:0:
263,263,94436,2,0,L|196:262,1,63.2500019302369,8|2,3:0|0:0,0:0:0:0:
121,237,95048,2,0,P|118:193|114:167,1,63.2500019302369,2|0,0:0|0:0,0:0:0:0:
112,133,95507,1,2,0:0:0:0:
88,99,95660,2,0,P|74:52|76:36,1,63.2500019302369,8|0,3:0|0:0,0:0:0:0:
155,20,96273,6,0,L|226:12,1,63.2500019302369,2|0,0:0|0:0,0:0:0:0:
251,36,96732,1,8,3:0:0:0:
283,60,96885,2,0,L|279:144,1,63.2500019302369,0|8,0:0|3:0,0:0:0:0:
275,205,97497,5,2,3:0:0:0:
272,287,97803,1,2,3:0:0:0:
270,369,98109,2,0,L|323:362,1,31.6250009651184,8|8,3:0|3:0,0:0:0:0:
334,340,98416,2,0,L|387:333,1,31.6250009651184,8|8,3:0|3:0,0:0:0:0:
398,359,98722,6,0,L|486:347,1,63.2500019302369,2|0,0:0|0:0,0:0:0:0:
495,275,99334,2,0,P|493:236|487:205,1,63.2500019302369,8|0,3:0|0:0,0:0:0:0:
439,146,99946,2,0,L|355:148,1,63.2500019302369,2|0,0:0|0:0,0:0:0:0:
344,174,100405,1,2,0:0:0:0:
309,196,100558,2,0,P|275:203|244:203,1,63.2500019302369,8|0,3:0|0:0,0:0:0:0:
170,170,101171,6,0,P|146:127|141:113,1,63.2500019302369,2|0,0:0|0:0,0:0:0:0:
72,69,101783,2,0,P|50:116|48:138,1,63.2500019302369,8|8,3:0|3:0,0:0:0:0:
62,165,102242,1,0,0:0:0:0:
80,201,102395,2,0,L|71:283,1,63.2500019302369
87,302,102854,1,8,3:0:0:0:
99,341,103007,2,0,L|192:352,1,63.2500019302369,8|0,3:0|0:0,0:0:0:0:
233,307,103620,6,0,P|294:281|364:286,1,126.500003860474,2|8,0:0|3:0,0:0:0:0:
428,314,104538,1,0,0:0:0:0:
460,238,104844,2,0,P|471:189|466:167,1,63.2500019302369,2|0,0:0|0:0,0:0:0:0:
441,146,105303,1,2,0:0:0:0:
405,166,105456,2,0,L|331:162,1,63.2500019302369,8|0,3:0|0:0,0:0:0:0:
260,173,106069,6,0,P|218:139|199:94,1,94.8750028953553,2|2,0:0|0:0,0:0:0:0:
192,62,106681,2,0,L|115:62,1,63.2500019302369,8|2,3:0|0:0,0:0:0:0:
94,136,107293,1,8,0:0:0:0:
62,211,107599,1,8,0:0:0:0:
32,287,107905,2,0,L|83:292,1,31.6250009651184,10|10,0:3|0:3,0:0:0:0:
104,284,108211,2,0,L|155:289,1,31.6250009651184,10|10,0:3|0:3,0:0:0:0:
176,297,108518,1,2,0:0:0:0:
226,184,118314,6,0,P|229:140|227:120,1,63.2500019302369,4|2,0:0|0:0,0:0:0:0:
177,55,118926,2,0,L|130:63,1,31.6250009651184,8|0,3:0|0:0,0:0:0:0:
129,98,119232,2,0,L|82:90,1,31.6250009651184,2|0,0:0|0:0,0:0:0:0:
66,119,119538,2,0,P|58:162|62:196,1,63.2500019302369,2|0,0:0|0:0,0:0:0:0:
113,242,120150,2,0,L|106:307,1,63.2500019302369,8|0,3:0|0:0,0:0:0:0:
152,373,120763,6,0,P|206:357|236:352,1,63.2500019302369,2|0,0:0|0:0,0:0:0:0:
294,349,121375,2,0,L|303:276,1,63.2500019302369,8|0,3:0|0:0,0:0:0:0:
270,210,121987,1,0,0:0:0:0:
246,176,122140,2,0,P|223:139|214:104,1,63.2500019302369,0|2,0:0|0:0,0:0:0:0:
217,79,122599,2,0,L|232:2,1,63.2500019302369,8|0,3:0|0:0,0:0:0:0:
311,15,123211,6,0,B|368:41|368:41|433:32,1,126.500003860474,2|8,0:0|3:0,0:0:0:0:
510,9,124130,1,2,0:0:0:0:
492,89,124436,1,2,0:0:0:0:
502,128,124589,2,0,L|501:191,1,63.2500019302369,0|2,0:0|0:0,0:0:0:0:
474,222,125048,2,0,P|435:224|384:216,1,63.2500019302369,8|0,3:0|0:0,0:0:0:0:
333,195,125660,6,0,B|296:183|296:183|267:188,1,63.2500019302369,2|0,0:0|0:0,0:0:0:0:
190,197,126273,2,0,L|171:111,1,63.2500019302369,8|2,3:0|0:0,0:0:0:0:
119,76,126885,1,2,0:0:0:0:
84,97,127038,2,0,P|48:133|38:148,1,63.2500019302369,0|2,0:0|0:0,0:0:0:0:
53,182,127497,2,0,L|65:263,1,63.2500019302369,8|2,3:0|0:0,0:0:0:0:
25,318,128109,6,0,P|71:328|137:279,1,126.500003860474,6|8,0:0|3:0,0:0:0:0:
154,206,129028,1,2,0:0:0:0:
227,243,129334,1,2,0:0:0:0:
264,260,129487,2,0,P|295:252|332:242,1,63.2500019302369,0|2,0:0|0:0,0:0:0:0:
362,261,129946,2,0,P|400:271|433:264,1,63.2500019302369,8|0,3:0|0:0,0:0:0:0:
475,203,130558,6,0,L|480:126,1,63.2500019302369,2|2,0:0|0:0,0:0:0:0:
425,77,131171,2,0,B|397:94|397:94|351:94,1,63.2500019302369,8|2,3:0|0:0,0:0:0:0:
284,84,131783,1,2,0:0:0:0:
257,115,131936,2,0,P|233:159|230:173,1,63.2500019302369,0|2,0:0|0:0,0:0:0:0:
230,212,132395,2,0,L|155:206,1,63.2500019302369,8|0,3:0|0:0,0:0:0:0:
98,251,133007,5,2,0:0:0:0:
26,210,133314,1,0,0:0:0:0:
48,130,133620,2,0,P|58:92|63:57,1,63.2500019302369,8|2,3:0|0:0,0:0:0:0:
66,27,134079,2,0,P|105:32|138:27,1,63.2500019302369
169,31,134538,2,0,P|203:59|222:98,2,63.2500019302369,0|8|0,0:0|3:0|0:0,0:0:0:0:
133,104,135456,5,2,0:0:0:0:
147,185,135763,1,2,0:0:0:0:
159,266,136069,1,10,3:0:0:0:
194,287,136222,2,0,P|248:282|279:274,1,63.2500019302369
286,251,136681,5,4,3:0:0:0:
352,299,136987,1,4,3:0:0:0:
426,264,137293,2,0,L|437:207,1,31.6250009651184,8|8,3:0|3:0,0:0:0:0:
423,192,137599,2,0,L|412:135,1,31.6250009651184,10|10,3:0|3:0,0:0:0:0:
391,124,137905,6,0,P|352:92|316:78,1,68.9999978942872,4|2,0:0|0:0,0:0:0:0:
246,122,138518,2,0,L|205:116,1,34.4999989471436,8|0,3:0|0:0,0:0:0:0:
167,136,138824,2,0,L|126:130,1,34.4999989471436,2|0,0:0|0:0,0:0:0:0:
92,157,139130,2,0,L|107:255,1,68.9999978942872,2|0,0:0|0:0,0:0:0:0:
198,236,139742,2,0,L|239:230,1,34.4999989471436,8|2,3:0|0:0,0:0:0:0:
279,223,140048,2,0,L|320:217,1,34.4999989471436
355,241,140354,6,0,L|340:339,1,68.9999978942872,2|2,0:0|0:0,0:0:0:0:
257,352,140967,2,0,L|224:344,1,34.4999989471436,8|0,3:0|0:0,0:0:0:0:
185,314,141273,2,0,L|152:306,1,34.4999989471436,2|0,0:0|3:0,0:0:0:0:
110,280,141579,2,0,L|119:370,1,68.9999978942872,2|0,0:0|0:0,0:0:0:0:
24,321,142191,2,0,L|17:262,1,34.4999989471436,8|0,3:0|0:0,0:0:0:0:
34,240,142497,2,0,L|41:181,1,34.4999989471436,0|0,0:0|3:0,0:0:0:0:
60,162,142803,6,0,L|223:188,1,137.999995788574,2|8,0:0|3:0,0:0:0:0:
283,142,143722,2,0,P|344:123|419:154,1,137.999995788574,2|0,0:0|0:0,0:0:0:0:
465,227,144640,1,8,3:0:0:0:
330,365,145252,6,0,P|265:338|226:311,1,103.499996841431,2|0,0:0|3:0,0:0:0:0:
219,274,145865,2,0,P|231:223|252:176,1,103.499996841431,8|8,3:0|3:0,0:0:0:0:
256,128,146477,2,0,L|132:108,1,103.499996841431,2|2,0:0|0:0,0:0:0:0:
150,63,147089,2,0,L|249:22,1,103.499996841431,8|8,3:0|3:0,0:0:0:0:
288,44,147701,6,0,P|360:59|381:51,1,68.9999978942872,4|2,0:0|0:0,0:0:0:0:
448,41,148314,2,0,L|457:98,1,34.4999989471436,8|0,3:0|0:0,0:0:0:0:
474,118,148620,2,0,L|483:175,1,34.4999989471436,2|0,0:0|0:0,0:0:0:0:
478,200,148926,2,0,L|469:302,1,68.9999978942872,2|0,0:0|0:0,0:0:0:0:
378,245,149538,2,0,L|325:236,1,34.4999989471436,8|2,3:0|0:0,0:0:0:0:
310,204,149844,2,0,L|256:209,1,34.4999989471436
235,233,150150,6,0,L|244:335,1,68.9999978942872,2|2,0:0|0:0,0:0:0:0:
145,284,150763,2,0,L|150:241,1,34.4999989471436,8|0,3:0|0:0,0:0:0:0:
123,209,151069,2,0,L|74:206,1,34.4999989471436,2|0,0:0|3:0,0:0:0:0:
56,243,151375,2,0,L|50:332,1,68.9999978942872,0|2,0:0|0:0,0:0:0:0:
121,378,151987,2,0,L|184:360,1,34.4999989471436,8|0,3:0|0:0,0:0:0:0:
194,341,152293,2,0,L|257:323,1,34.4999989471436,0|2,0:0|0:0,0:0:0:0:
275,334,152599,6,0,L|419:342,1,137.999995788574,2|8,0:0|3:0,0:0:0:0:
481,273,153518,2,0,P|496:223|483:133,1,137.999995788574,2|0,0:0|0:0,0:0:0:0:
419,68,154436,1,8,3:0:0:0:
271,192,155048,6,0,B|206:185|206:185|152:197,1,103.499996841431,2|0,0:0|0:0,0:0:0:0:
127,167,155660,2,0,B|120:232|120:232|132:286,1,103.499996841431,8|8,3:0|3:0,0:0:0:0:
150,312,156273,2,0,P|206:300|262:292,1,103.499996841431,0|2,0:0|0:0,0:0:0:0:
284,258,156885,2,0,L|283:192,1,34.4999989471436,8|0,3:0|0:0,0:0:0:0:
277,178,157191,2,0,L|283:128,1,34.4999989471436,8|8,3:0|3:0,0:0:0:0:
283,99,157497,6,0,L|198:83,1,63.2500019302369,4|2,0:0|0:0,0:0:0:0:
137,58,158109,2,0,P|129:16|132:6,2,31.6250009651184,8|0|2,3:0|0:0|0:0,0:0:0:0:
140,146,158722,2,0,L|159:217,1,63.2500019302369,2|0,0:0|0:0,0:0:0:0:
198,221,159181,1,2,0:0:0:0:
242,224,159334,2,0,L|286:211,1,31.6250009651184,8|2,3:0|0:0,0:0:0:0:
312,196,159640,1,0,0:0:0:0:
396,170,159946,6,0,L|395:261,1,63.2500019302369,2|2,0:0|0:0,0:0:0:0:
406,276,160405,1,0,0:0:0:0:
394,318,160558,2,0,L|335:311,1,31.6250009651184,8|0,3:0|0:0,0:0:0:0:
326,340,160865,2,0,L|267:347,1,31.6250009651184,2|0,0:0|0:0,0:0:0:0:
250,337,161171,2,0,L|181:343,1,63.2500019302369,2|0,0:0|0:0,0:0:0:0:
106,306,161783,2,0,L|115:246,1,31.6250009651184,8|0,3:0|0:0,0:0:0:0:
100,231,162089,2,0,L|138:229,1,31.6250009651184
168,204,162395,6,0,L|293:220,1,126.500003860474,2|8,0:0|3:0,0:0:0:0:
362,275,163314,1,0,0:0:0:0:
374,187,163620,2,0,P|360:117|353:40,1,126.500003860474,2|8,0:0|3:0,0:0:0:0:
194,139,164844,2,0,P|161:93|132:60,1,94.8750028953553,2|0,0:0|0:0,0:0:0:0:
94,79,165456,2,0,P|63:106|42:129,1,63.2500019302369,8|0,3:0|0:0,0:0:0:0:
52,202,166069,6,0,L|54:326,1,115,2|8,0:0|3:0,0:0:0:0:
177,247,167293,6,0,B|246:219|264:222|264:222|275:248|306:272|306:272|325:249|354:244|354:244|383:237,1,230,0|0,0:0|0:0,0:0:0:0:
443,228,168824,2,0,L|456:109,1,115,0|0,0:0|0:0,0:0:0:0:
414,51,169742,6,0,B|354:60|321:66|321:66|347:81|350:108|350:108|336:153,1,172.5,0|0,0:0|0:0,0:0:0:0:
299,193,170967,2,0,B|265:201|231:184|231:184|207:164|207:164|175:179|125:175,1,172.5,0|0,0:0|0:0,0:0:0:0:
68,148,172191,2,0,B|53:198|53:198|51:212|63:235|63:235|69:271,1,115,0|0,0:0|0:0,0:0:0:0:
282,368,173722,2,0,P|316:334|386:321,1,115
358,242,174640,6,0,B|323:197|321:175|321:175|327:157|330:140|330:140|325:63,1,172.5,0|0,0:0|0:0,0:0:0:0:
307,8,175865,2,0,B|344:45|344:45|377:34|377:34|405:42|435:45|435:45|455:64,1,172.5,0|0,0:0|0:0,0:0:0:0:
486,130,177089,5,0,0:0:0:0:
